<?xml version="1.0" standalone="no"?>
<!DOCTYPE svg PUBLIC "-//W3C//DTD SVG 1.1//EN" "http://www.w3.org/Graphics/SVG/1.1/DTD/svg11.dtd" >
<svg xmlns="http://www.w3.org/2000/svg" xmlns:xlink="http://www.w3.org/1999/xlink" version="1.1">
<metadata>
Created by FontForge 20170731 at Wed Aug  3 13:17:39 2022
 By Aleksey,,,
Hollanda (c) Letter Siro. 2019. All Rights Reserved
</metadata>
<defs>
<font id="Hollanda" horiz-adv-x="1910" >
  <font-face 
    font-family="Hollanda"
    font-weight="400"
    font-stretch="normal"
    units-per-em="2048"
    panose-1="2 0 5 0 0 0 0 0 0 0"
    ascent="1638"
    descent="-410"
    x-height="1649.5"
    cap-height="3019"
    bbox="-2080.54 -859.2 3577.33 3686.18"
    underline-thickness="102"
    underline-position="-255"
    unicode-range="U+001D-E393"
  />
<missing-glyph horiz-adv-x="1024" 
 />
    <glyph glyph-name="e_e" unicode="ee" horiz-adv-x="1318" 
d="M881 918q-49 -49 -131 -103q-42 -26 -93 -33.5t-100.5 6t-90.5 43t-66.5 83t-26.5 122.5q0 25 12 111q-91 -102 -145 -158q-58 -65 -117 -110q-77 -57 -180 -41q-58 7 -94.5 45.5t-47.5 103.5q-16 103 25 258q61 233 231 406q90 90 201 82q120 -9 96 -125
q-44 -200 -221 -338q-54 -43 -135 -33q-21 0 -23 -14q-32 -144 -22 -219q5 -34 22 -72q12 -27 37 -10q53 38 135 116q285 273 287 275q18 18 29 47q97 199 217 338q62 72 129 110q64 37 141 4q35 -15 51.5 -45.5t10.5 -68.5q-3 -26 -13 -56q-97 -235 -288 -335
q-65 -33 -109 -29q-19 0 -24 -16q-63 -165 -48 -285q3 -48 33 -100q13 -24 43 -15q83 32 178 109q47 39 92.5 81.5t111.5 109.5t87 87q113 108 152 140q20 16 33 16q26 -4 34 -16q1 -8 0.5 -10.5t-7 -8.5t-7.5 -8q-8 -9 -47.5 -55.5t-50.5 -59.5t-46 -54t-51 -59t-47.5 -53
t-53 -57.5t-49.5 -51.5t-54 -54zM895 1751q-86 -75 -148 -168.5t-124 -220.5q105 46 197 177.5t75 211.5zM29 1382q-18 -40 0 -75q82 60 143.5 168.5t44.5 171.5q-11 -11 -14 -13q-104 -96 -174 -252z" />
    <glyph glyph-name="g_g" unicode="gg" horiz-adv-x="1974" 
d="M389 897q-48 -561 -223 -979q-80 -196 -176 -328q-37 -49 -76 -86q-57 -45 -131 -36q-70 6 -92 77q-38 126 -21 293q55 536 469 979q35 37 105 107q18 18 18 43q-8 155 -33 235q-17 -28 -50.5 -86t-49.5 -86q-4 -7 -21 -35t-24.5 -40t-21.5 -33.5t-27 -38t-27 -31.5
q-52 -58 -133 -55q-95 3 -129 90q-30 80 -6 190q71 330 354 549q90 69 201 45q85 -20 49 -100q-9 -19 -20 -47q-5 -15 -18.5 -18t-24.5 1q-29 0 -31 23q0 35 -12 37q-6 3 -11.5 -0.5t-12.5 -13t-9 -11.5q-234 -256 -297 -530q-15 -73 -4 -115q0 -13 6 -16q5 -3 16 8
q50 52 99 145q34 69 131 271q28 54 94 57q53 2 81.5 -19.5t41.5 -72.5q8 -28 12 -59t6 -75t4 -61q6 -1 10.5 1.5t9.5 8t7 7.5q76 65 114 97t104 81.5t124 83.5q13 8 29 35q163 265 352 415q83 63 164 60q27 0 51 -9q28 -9 37.5 -25t3.5 -44q-9 -47 -25 -98q-7 -16 -23 -19.5
t-30 0.5q-10 1 -15 2.5t-10 7.5t-4 17q1 13 -8 51q-55 -24 -161 -173.5t-190 -314.5t-83 -231q33 27 86 88q162 200 192 236q24 27 35.5 38.5t35 27.5t48.5 22q159 38 197 -121q19 -88 16 -217q11 -2 27 14q144 122 242 180q54 33 114 54q3 1 9.5 3t9.5 3q3 0 11 0.5t12 0
t9.5 -1.5t9 -4t5.5 -8q3 -7 -2 -11t-16.5 -6.5t-14.5 -4.5q-100 -49 -248 -174q-21 -18 -72.5 -63.5t-80.5 -69.5q-22 -19 -25 -53q-61 -461 -203 -822q-120 -306 -266 -501q-51 -69 -100 -105q-58 -46 -131 -37q-65 9 -80 72q-21 83 -6 215q60 541 477 995q23 26 141 148
q15 20 16 28q7 203 -28 340q-4 7 -6 19q-61 -66 -140 -152q-10 -11 -45 -50.5t-51.5 -57.5t-45.5 -47t-54 -50q-75 -67 -182 -45q-74 17 -80 90q-7 60 20 160q1 5 7.5 21.5t9.5 29.5q-8 -7 -19 -12q-139 -122 -285 -268q-12 -12 -12 -35zM1171 295q79 225 117 522
q-12 -2 -24 -18q-139 -146 -238 -283q-251 -348 -283 -713q-11 -138 21 -223q12 -28 29 -6q40 43 75 96q184 283 303 625zM-188 -471q107 131 186.5 279t129 307t78.5 312t46 333q-4 0 -8 4q-96 -115 -123 -150q-212 -265 -299 -512q-84 -234 -58 -424q11 -88 48 -149z" />
    <glyph glyph-name="l_l" unicode="ll" horiz-adv-x="1447" 
d="M831 1808q64 160 192 449t173 395q14 33 16 49q-8 -14 -24.5 -39t-24.5 -39q-282 -454 -618 -1167q-77 -161 -118 -244.5t-112 -215t-137 -234.5q-79 -124 -143 -191q-53 -53 -117 -45q-52 8 -80.5 33.5t-38.5 75.5q-22 100 -4 250q25 193 78 385.5t137 439.5
q160 463 371 856q44 77 86 135q28 40 80 31q41 -7 49.5 -21.5t-2.5 -52.5q-9 -29 -37.5 -76.5t-36.5 -64.5q-357 -780 -530 -1497q-46 -195 -53 -326v-57q74 67 153 192q83 125 173.5 285t142 259t151.5 298q12 23 57.5 115t61 122t57 112.5t61.5 121.5t57.5 112t63 121
t59.5 111.5t65 119.5t63 112q117 202 217 307q63 66 143 24q43 -18 37 -65q-5 -38 -43 -162q-16 -54 -33.5 -107t-40.5 -114.5t-38 -102.5t-44 -113.5t-40.5 -101.5t-46 -113t-42.5 -104q-314 -776 -446 -1312q-95 -375 -123 -711v-63q34 35 94 129q92 148 226 436
q10 22 58.5 123.5t64.5 134.5t57.5 118t67 133.5t62.5 116.5t71 127q40 66 63 97q16 16 29 14q22 -6 10 -25q-46 -75 -94 -163t-78.5 -146.5t-84 -175t-69 -151t-78 -178t-69.5 -158.5q-9 -20 -38 -86.5t-42.5 -96.5t-38 -82.5t-47 -94t-47.5 -81.5q-8 -14 -18.5 -28
t-24 -30.5t-19.5 -25.5q-25 -33 -70.5 -37t-84.5 19t-49 59q-15 61 -17 99q-13 204 39 559q81 523 356 1222z" />
    <glyph glyph-name="t_t" unicode="tt" horiz-adv-x="1329" 
d="M53 2636q-19 -39 -51 -112t-41 -93q-8 -17 -5 -22.5t21 -4.5q187 12 379 21q21 0 37 24q154 245 318 449q26 31 74.5 27t68.5 -39q7 -14 -6 -45q-45 -141 -139 -361q-12 -31 -8.5 -36t36.5 -5q630 14 1055 -16q45 -3 128.5 -13t104.5 -12q32 -4 54 -20q19 -10 14 -23
q-5 -12 -25 -12q-48 0 -75 2q-279 13 -627 10q-307 -3 -692 -16q-25 -3 -35 -23q-207 -506 -355 -908t-261 -800q-98 -344 -121 -616q-7 -85 0 -139q3 -21 -5 -28.5t-26 -4.5q-53 3 -72 47q-32 68 -32 180q-3 231 57 531q79 410 297 997q121 326 293 719q17 23 8 30
q-13 7 -29 -20q-267 -386 -471 -786q-26 -51 -104 -209.5t-133.5 -264t-114.5 -204.5t-119 -170q-60 -70 -141 -47q-96 26 -107 118q-10 92 25 265q32 135 81.5 291.5t90 266.5t106.5 283q74 187 179 412q5 11 6.5 15.5t2.5 8.5t-3.5 4.5l-9 1t-17.5 -0.5
q-131 -7 -392 -21.5t-392 -21.5q-112 -4 -178 14q-42 17 -58 33q-22 22 8 32q12 3 25 3q25 -6 50 -8t54.5 -0.5t48 3.5t54.5 6.5t49 6.5q239 22 647 45q94 8 137 8q29 0 45 31q63 120 105 186q2 3 41 59q55 67 129 23q31 -19 16 -51zM301 2322q-133 -8 -383 -20
q-14 -2 -22 -21q-295 -690 -465 -1255q-45 -156 -62 -268q15 9 17 10q14 20 34 43q123 152 256 401q10 20 71.5 135t77.5 145t71 131.5t79.5 144t73.5 129t83 142t78.5 126.5t86.5 135q9 13 4 22z" />
    <glyph glyph-name=".notdef" horiz-adv-x="1024" 
 />
    <glyph glyph-name=".null" horiz-adv-x="0" 
 />
    <glyph glyph-name=".null" horiz-adv-x="0" 
 />
    <glyph glyph-name="nonmarkingreturn" horiz-adv-x="1040" 
 />
    <glyph glyph-name="space" unicode=" " horiz-adv-x="819" 
 />
    <glyph glyph-name="space" unicode="&#xa0;" horiz-adv-x="819" 
 />
    <glyph glyph-name="exclam" unicode="!" horiz-adv-x="925" 
d="M942 3166q27 -15 32 -27t-5 -42q-186 -541 -246 -736q-263 -841 -395 -1452q-84 -390 -97 -690q-3 -66 2 -121q4 -25 13 -39q12 -17 8 -25.5t-25 -13.5q-45 -7 -96 22.5t-70 72.5q-26 56 -34 166q-9 88 -6 188q6 510 167 1085q213 754 467 1338q64 147 119 233
q62 96 166 41zM422 -231q2 -1 9 -3.5t9.5 -4t8.5 -4.5t8 -5t7 -6t4.5 -7.5t1.5 -9t-1 -10.5q-3 -13 -11 -17.5t-26.5 -3.5t-21.5 1h-17q-33 4 -67.5 -3.5t-58 -18t-60.5 -29.5q-16 -7 -44 -23t-36 -20q-108 -58 -231 20q-31 20 -30.5 47t32.5 52q71 54 200 79
q156 32 324 -34z" />
    <glyph glyph-name="quotedbl" unicode="&#x22;" horiz-adv-x="552" 
d="M184 2922q6 -126 -47 -247q-2 -3 -5 -9.5t-5 -9.5q-1 -2 -5.5 -8.5t-7 -9.5t-7 -7.5t-10.5 -6t-13 -1.5t-13 1.5t-11.5 6t-7.5 6t-8 9.5l-7 8q-1 2 -3 7.5t-3 7.5q-16 26 -19 51q-21 145 -14 243q6 45 27 89q18 27 29 33q11 5 24 5q31 2 59 -30q47 -61 47 -138zM453 2922
q6 -126 -47 -247q-2 -3 -5.5 -9.5t-5.5 -9.5q-1 -2 -5.5 -8.5t-7 -9.5t-7 -7.5t-10.5 -6t-13 -1.5t-13 1.5t-11.5 6t-7.5 6t-8 9.5l-7 8q-1 2 -3 7.5t-3 7.5q-15 24 -18 51q-22 149 -15 243q6 45 27 89q18 27 29 33q10 5 24 5q32 2 60 -30q47 -61 47 -138z" />
    <glyph glyph-name="numbersign" unicode="#" horiz-adv-x="1916" 
d="M1780 1815q-7 -28 -45 -19q-13 4 -29 5t-25 0.5t-29.5 -2t-25.5 -1.5q-109 -10 -268 -35q-22 -4 -27 -20q-49 -130 -125 -348v-9q22 2 66 7.5t65 7.5q132 12 197 6q57 -3 98 -27q29 -19 25 -34q-4 -17 -35 -21q-185 -31 -451 -96q-28 -7 -32 -27q-181 -523 -242 -827
q-1 -4 -2 -10.5t-2 -10.5t-0.5 -9t2.5 -9q3 -11 5 -17t-4.5 -9.5t-11 -4.5t-14.5 -2q-50 -5 -79.5 23.5t-26.5 79.5q2 54 12 122t17.5 103.5t25.5 120.5q38 175 107 395q5 11 0 20q-13 -4 -41 -12t-41 -12q-37 -10 -111.5 -33t-111.5 -33q-24 -7 -29 -24q-6 -15 -43.5 -111
t-50.5 -131.5t-36.5 -106t-37.5 -129.5q-6 -14 -2.5 -25t20.5 -18q26 -9 28 -21.5t-19 -31.5q-41 -39 -109 -18q-71 23 -82 86q-9 54 12 178q15 88 50 215q1 3 2.5 12t3.5 17q-43 -15 -74 -31q-119 -58 -143 -72q-40 -19 -85.5 -8.5t-70.5 33.5q-34 34 2 70q62 57 170 112
q100 53 244 107q27 9 35 34q11 31 31 87.5t36.5 103.5t32.5 88q2 8 10 29q-5 2 -10 2t-8 -1t-8 -3.5l-7 -3.5q-90 -36 -182 -84q-29 -15 -68.5 -9.5t-62.5 29.5q-15 15 -15 28.5t17 30.5q33 33 98 70q125 64 289 119q31 11 45 43q84 225 139 340q4 7 12.5 22.5t12.5 22.5
q32 56 66 68t96 -11q43 -15 54 -36t-1 -64q-44 -143 -88 -258l-4 -8t-3 -8.5t3 -8.5q6 -2 7 -2.5t8.5 2t8.5 2.5q160 35 226 45q23 4 34 14.5t19 32.5q150 395 217 549q84 198 164 332q19 30 35 49q53 70 131 31q25 -14 29.5 -27t-7.5 -39q-27 -63 -81 -186t-80 -186
q-87 -194 -207 -508q-1 -3 -4.5 -10.5t-4.5 -10.5h187q92 0 145 -18q9 -3 37 -17q8 -5 11.5 -7.5t10 -9t5.5 -10.5t-2 -13zM1047 1497q15 40 41.5 114.5t35.5 100.5h-14q-116 -26 -270 -72q-17 -5 -27 -28q-74 -184 -121 -307q-9 -14 -2 -23q149 42 291 68q16 2 23 24
q7 20 21.5 61t21.5 62z" />
    <glyph glyph-name="dollar" unicode="$" horiz-adv-x="1437" 
d="M1040 2171q-6 4 -7 7.5t4 9.5t5 7q82 173 88 383q3 60 -26 105l-6.5 13t-8.5 7t-16 2q-8 -2 -11 -2.5t-9.5 -3t-9.5 -5t-7 -7.5t-6 -12q-15 -49 -44 -146.5t-44 -146.5q-176 -582 -256 -877q-8 -32 16 -53q15 -13 56.5 -47.5t62.5 -52.5t52.5 -47t56.5 -54
q151 -161 168 -319q22 -211 -160 -359q-162 -127 -426 -180q-14 -2 -39.5 -6t-38.5 -6q-19 -3 -22 -21q-5 -33 -15.5 -94.5t-17 -100t-12.5 -92.5t-7 -100q-5 -20 -0.5 -43t27.5 -36q10 -8 5 -16t-17 -11q-41 -9 -85.5 16.5t-56.5 65.5q-10 44 -10 102q-2 101 21 279
q3 29 -0.5 33.5t-34.5 5.5q-171 0 -260 28q-35 12 -62 33q-38 27 -28 64q7 20 30.5 36.5t42.5 14.5q20 0 39 -13q28 -17 9 -36q-21 -21 -17 -35q2 -6 7 -9t9 -4t12 -1.5t11 -0.5q35 -4 104 -4q20 2 64.5 5.5t67.5 5.5q23 0 26 24q65 435 217 975q9 37 -16 57
q-94 73 -182 179q-185 225 -70 479q208 451 653 622q23 8 31 31q65 184 102 262q19 40 64.5 44t71.5 -31q8 -12 4 -37q-3 -27 -10 -59.5t-12 -49.5t-19 -60.5t-17 -52.5q-7 -17 -2.5 -27t23.5 -13q17 -2 47 -15q80 -34 111 -96t8 -145q-38 -131 -162 -312q-26 -35 -35 -49
q-12 -21 -31 -8zM879 1124q-39 64 -93 116.5t-137 119.5q-2 -7 -8 -31q-13 -50 -35.5 -137t-41 -160t-34.5 -137q-15 -63 -88 -381q-4 -11 -1.5 -18.5t18.5 -3.5q222 64 354 180q105 95 122 212.5t-56 239.5zM528 1620q53 187 275 936q-93 -64 -178 -166
q-169 -203 -219 -375q-31 -109 3 -220t119 -175z" />
    <glyph glyph-name="percent" unicode="%" horiz-adv-x="1927" 
d="M1667 2828q22 -12 24.5 -23.5t-10.5 -33.5q-209 -307 -323 -481q-525 -781 -830 -1403q-195 -400 -284 -637q-7 -14 -6 -27.5t18 -21.5q13 -6 10 -21q-1 -23 -36 -51.5t-60 -26.5q-63 6 -92.5 35.5t-20.5 89.5q13 93 78 295q179 542 563 1145q203 315 363 547.5
t332 447.5q80 103 133 152q64 62 141 14zM1417 1432q24 -20 19 -39q-1 -10 1 -20.5t4 -15t10 -17t9 -13.5q199 -301 43 -608q-105 -209 -309 -352q-124 -89 -246 -52q-93 26 -136 86t-42 162q3 103 45 221q119 319 256 525q53 75 115 129q43 40 115.5 37.5t115.5 -43.5z
M1257 735q115 184 101 377q-10 102 -47 180q-9 -6 -11 -8q-8 -12 -12 -20q-166 -276 -262 -598q-30 -101 -27 -195q14 2 33 16q133 98 225 248zM72 1620q-83 56 -80 170q0 60 24 137q71 197 195 344q31 39 63 60q31 24 56 26q67 1 108.5 -1.5t97 -19.5t97.5 -52
q115 -99 72 -263q-19 -75 -70 -159q-100 -155 -266 -256q-140 -86 -297 14zM199 1724q0 -2 -0.5 -8t-0.5 -9t1.5 -7t5.5 -6q7 -3 26 12q105 65 172 152q122 151 127 311q0 72 -34 106q-21 25 -31 -4q-8 -20 -21 -18q-19 0 -34 -23q-108 -151 -183 -350q-30 -96 -28 -156z
" />
    <glyph glyph-name="ampersand" unicode="&#x26;" horiz-adv-x="2048" 
d="M1681 2189q51 -26 82 -63q44 -54 4 -105q-40 -53 -86 -98q-12 -13 -41.5 -10t-40.5 18q-4 6 0 23q15 44 15 90q0 51 -49 72q-34 13 -80 16q-81 5 -211 -14q-26 -3 -31 -27q-101 -376 -174 -635q-5 -24 16 -35q81 -36 125 -73q29 -22 41 -41q31 -52 -14 -88
q-34 -27 -100 -50q-86 -34 -133 -49q-24 -6 -27 -28q-16 -68 -47.5 -207t-48.5 -207q-4 -18 2 -22t22 -1q35 4 113.5 13.5t123.5 15t111 11t121 7.5h78q20 0 35 -6q29 -5 29 -22q0 -5 -2 -8.5t-6 -5.5t-6.5 -2.5t-9 -1.5t-7.5 -1q-61 -9 -185.5 -26.5t-185.5 -26.5
q-39 -5 -115.5 -17.5t-115.5 -17.5q-15 -3 -21.5 -9.5t-9.5 -20.5q-80 -406 -113 -662q-41 -310 -49 -575q-4 -29 -2.5 -69t17.5 -69q5 -9 -2.5 -13.5t-20.5 -6.5q-42 -6 -78 18t-45 66q-14 59 -18 180v199q16 502 82 889q4 21 -4.5 24.5t-22.5 -2.5q-268 -48 -418 -61
q-197 -15 -307 41q-27 13 -35 20q-89 71 -18 154q53 64 184 145q306 187 731 334q18 6 26.5 15.5t12.5 27.5q22 93 51 203q6 20 1 28t-25 13q-254 74 -377 127q-110 52 -154 88q-74 62 -79.5 132t57.5 142q74 87 231 158q224 98 547 158q19 5 28 13t13 25q23 84 62 231.5
t73 270.5t68 230q45 133 78 196q26 50 61 62.5t86 -9.5q25 -11 32 -24t1 -41q-97 -438 -223 -887q-8 -28 -4.5 -33t32.5 -6q210 -7 350 -80zM666 723q44 209 63 297q-70 -27 -113 -47q-331 -149 -522 -287q-58 -43 -86 -80q-22 -31 -14 -47q3 -6 9.5 -7.5t17 -0.5t14.5 0
q3 0 9 1t9 1q86 5 173.5 14t223 26.5t173.5 22.5q23 3 26 27q2 11 17 80zM952 1874q2 7 20.5 75t28.5 105q-7 -2 -66.5 -20.5t-73.5 -23.5t-63 -21.5t-70.5 -26.5t-59 -27t-66.5 -35t-57 -38q-43 -30 -70 -76q-47 -81 31 -133q46 -28 86 -45q22 -10 233 -88q19 -6 25.5 -1.5
t11.5 23.5q39 151 90 332zM1102 1309q-3 9 -26.5 25.5t-28.5 13.5q-5 -2 -9 -11q-2 -9 -6.5 -27t-7.5 -33t-4 -30q36 11 65 29q27 13 17 33z" />
    <glyph glyph-name="quotesingle" unicode="'" horiz-adv-x="307" 
d="M184 2922q6 -126 -47 -247q-2 -3 -5 -9.5t-5 -9.5q-1 -2 -5.5 -8.5t-7 -9.5t-7 -7.5t-10.5 -6t-13 -1.5t-13 1.5t-11.5 6t-7.5 6t-8 9.5l-7 8q-1 2 -3 7.5t-3 7.5q-16 26 -19 51q-21 145 -14 243q6 45 27 89q18 27 29 33q11 5 24 5q31 2 59 -30q47 -61 47 -138z" />
    <glyph glyph-name="parenleft" unicode="(" horiz-adv-x="1122" 
d="M621 1923q-228 -617 -324 -1139q-88 -485 -74 -786q7 -177 53 -285q4 -10 6 -14.5t6.5 -10.5t9.5 -8t13 -1.5t19 4.5q39 14 88 -19q19 -12 19 -21.5t-19 -21.5q-60 -41 -138 -31.5t-133 66.5q-56 56 -96 158q-57 155 -71 403v143q0 441 122 902q251 979 754 1839
q95 161 176 254q80 89 189 34q30 -17 34 -31t-12 -44q-345 -640 -622 -1391z" />
    <glyph glyph-name="parenright" unicode=")" horiz-adv-x="1241" 
d="M-647 -377q-26 15 -28 29.5t20 36.5q9 9 18.5 21t14.5 19.5t15 24t13 21.5q25 44 70 96q25 30 61.5 91.5t46.5 76.5q276 404 457 811q171 393 256 672q85 277 133 706q29 243 43 570q6 84 -41 370q-14 107 -12 146q1 38 18 52t56 9q85 -12 116 -96q131 -347 117 -672
q-18 -397 -117 -893q-72 -369 -231 -756q-138 -333 -318 -624q-9 -14 -29.5 -49.5t-36.5 -60t-34 -46.5q-56 -73 -197 -297q-21 -32 -79 -94q-21 -21 -55.5 -63t-51.5 -60q-52 -54 -101 -64.5t-124 23.5z" />
    <glyph glyph-name="asterisk" unicode="*" horiz-adv-x="880" 
d="M455 2740q-23 0 -23 -20q-1 -10 -3 -36t-2.5 -40t-1 -35.5t0.5 -40t4 -35.5q0 -2 6 -32q9 -38 39 -17q18 6 19 6q46 0 53 -24q1 -3 1 -5.5t-1 -5.5t-2 -5t-4 -4.5t-4.5 -4t-5 -3.5t-5 -3t-5.5 -3.5t-5 -2.5q-58 -32 -131 12q-82 51 -106 170q-5 29 -11 78
q-104 -125 -139 -168q-12 -14 -35.5 -42.5t-36.5 -43.5q-17 -19 -44 -19t-46 19q-15 15 -2 45q7 18 18 39t18.5 32.5t24.5 37.5t21 32q3 4 8.5 12t9.5 13.5t7 12.5t2 12q-1 6 -9 8t-20 3t-18 5h-2q-1 1 -11 5t-13 5.5t-10.5 6t-10 8t-5 9.5t-2.5 13q0 9 6 15.5t11 9t17.5 7
t15.5 5.5q63 21 122 33q23 6 35 24q106 167 144 244q20 41 65 35q29 -4 51 -12q40 -15 50 -38t-7 -63q-15 -41 -32 -131q-3 -16 1 -22t21 -7q125 -4 193 -34q25 -11 43 -21q18 -14 14 -29q-4 -10 -27 -10q-18 0 -26 2q-12 3 -23.5 4.5t-25.5 2.5t-22.5 1.5t-25 -0.5t-22 -1
t-25.5 -1.5t-22.5 -2t-25.5 -3.5z" />
    <glyph glyph-name="plus" unicode="+" horiz-adv-x="1460" 
d="M1167 1503q45 -12 78 -41q21 -21 17 -37q-9 -25 -37 -28q-37 -4 -62 10q-20 8 -59 8q-159 -5 -381 -33q-31 -5 -39 -32q-72 -257 -233 -809q-1 -6 -4 -15.5t-3 -11.5q-6 -28 -14.5 -34t-36.5 -3q-76 12 -76 96q0 37 19 168q35 198 115 562q4 19 0 23t-21 -1
q-208 -53 -356 -127q-25 -12 -64 2.5t-49 40.5q-9 22 16 51q42 42 105 76q156 90 375 129q26 4 37.5 16t17.5 37q2 10 16.5 70t19 76.5t17.5 67.5t20.5 76.5t20.5 66.5t25 75t26 68q20 53 52 109q23 40 67 34q1 0 43 -6q55 -17 68.5 -40.5t1.5 -80.5q-23 -95 -73.5 -266.5
t-65.5 -224.5q-4 -17 -7 -21q-6 -15 -1 -20.5t22 -5.5q22 1 47 1t60.5 -0.5t58.5 -0.5q8 0 35 -0.5t40 -1t38 -2t42.5 -4t39.5 -7t42 -10.5z" />
    <glyph glyph-name="comma" unicode="," horiz-adv-x="579" 
d="M252 860q17 -17 20 -43q9 -139 4 -190q-6 -69 -61 -121q-65 -62 -139 -90q-20 -6 -41 0q-28 8 -32 17t11 34q20 31 49 119q-72 -3 -122 24q-81 47 -52 133q42 112 158 164q39 17 108 0.5t97 -47.5z" />
    <glyph glyph-name="hyphen" unicode="-" horiz-adv-x="1110" 
d="M913 1274q-12 -35 -43 -35q-33 0 -59 29q-15 18 -35 18q-88 8 -127 10q-285 21 -571 -57q-59 -16 -101 29q-19 17 -19 31.5t19 31.5q53 43 138 72q244 84 518 35q133 -24 192 -56q48 -23 70 -53q26 -30 18 -55z" />
    <glyph glyph-name="hyphen" unicode="&#xad;" horiz-adv-x="1110" 
d="M913 1274q-12 -35 -43 -35q-33 0 -59 29q-15 18 -35 18q-88 8 -127 10q-285 21 -571 -57q-59 -16 -101 29q-19 17 -19 31.5t19 31.5q53 43 138 72q244 84 518 35q133 -24 192 -56q48 -23 70 -53q26 -30 18 -55z" />
    <glyph glyph-name="period" unicode="." horiz-adv-x="495" 
d="M104 905q35 27 79.5 21.5t76.5 -35.5q49 -49 29 -125q-2 -7 -2.5 -27t-7.5 -30q-26 -50 -58.5 -76.5t-79.5 -22.5q-64 -6 -116 21q-67 34 -43 104q41 104 122 170z" />
    <glyph glyph-name="slash" unicode="/" horiz-adv-x="1497" 
d="M1714 2828q22 -12 25 -23.5t-10 -33.5q-235 -344 -324 -481q-525 -781 -830 -1403q-195 -400 -284 -637q-7 -14 -6 -27.5t18 -21.5q13 -6 10 -21q-1 -23 -36 -51.5t-60 -26.5q-63 6 -92.5 35.5t-20.5 89.5q13 93 78 295q179 542 563 1145q203 315 363 547.5t332 447.5
q80 103 133 152q64 62 141 14z" />
    <glyph glyph-name="zero" unicode="0" horiz-adv-x="1210" 
d="M248 -41q-107 36 -182 168q-84 152 -113 356q-44 276 53 654q196 778 524 1382q141 259 314 432q52 54 97.5 86.5t102.5 44.5q67 16 125 -4q34 -11 47.5 -31t10.5 -55q73 -6 123.5 -28.5t80 -62t44 -86t20.5 -110.5q13 -168 -14 -464q-59 -639 -295 -1358
q-134 -402 -350 -688q-102 -136 -201 -193q-187 -113 -387 -43zM221 1008q-74 -364 2 -668q43 -171 113 -256q37 -43 59 -47.5t70 24.5q102 57 205 191q195 252 319 602q289 825 303 1573q7 169 -14 297q-19 103 -66 155q-20 23 -49 17q-115 -31 -164 -74q-15 -12 -30 -12
q-36 2 -58 -39q-9 -15 -18 -27q-171 -261 -336 -663q-242 -589 -336 -1073z" />
    <glyph glyph-name="one" unicode="1" horiz-adv-x="1110" 
d="M121 -127q-40 -23 -93 -14.5t-83 41.5q-25 31 -6 67q18 33 71 82q111 93 232 141q16 6 22.5 15t9.5 28q31 272 108 546.5t196 592.5q36 98 73.5 194.5t84.5 211t76 185.5t88.5 210t79 184.5t90.5 209t83 190.5q9 23 8 32q-117 -82 -176 -127q-26 -19 -64.5 -13t-58.5 32
q-13 20 -4 41q13 25 49 61q156 161 375 275q25 13 33 26q17 35 59 25q19 -5 38.5 -6.5t51.5 -2.5t39 -1q35 0 62 -21q20 -12 18 -24q-2 -13 -24 -17q-5 -2 -33 -8.5t-41 -13.5q-19 -10 -25 -27q-48 -131 -101.5 -267.5t-133 -332t-107.5 -264.5q-377 -946 -553 -1551
q-13 -48 -40 -143t-40 -143q-6 -26 -2.5 -30t29.5 -1q173 17 303 -27q54 -19 78 -51q14 -19 8 -31t-31 -12q-20 0 -30 4q-51 22 -142 6q-122 -19 -247 -82q-32 -14 -7 -32q12 -9 9 -23q-11 -69 -59 -88t-101 25q-24 17 -47 2t-67 -40t-58 -34z" />
    <glyph glyph-name="two" unicode="2" horiz-adv-x="1726" 
d="M1468 244q-10 8 -30 8q-692 -20 -1205 -232q-22 -9 -64.5 -28.5t-64.5 -28.5q-45 -20 -103.5 -7.5t-92.5 46.5q-29 29 -8 64q17 27 61 61q73 56 201 113q27 11 37 26q26 37 53 73.5t58 77.5t54 71t59.5 76t55.5 69.5t61.5 75t56.5 68.5t62 74.5t58 70.5q510 614 790 1046
q219 339 301 612q35 126 35 222v32q-3 40 -13 48t-50 4q-195 -17 -447 -142q-384 -194 -598 -491q-89 -124 -102 -246q-5 -24 2 -57q3 -40 39 -35q23 5 26 -12q0 -14 -26 -19q-90 -11 -154 70q-53 67 -31 190q31 164 160 316q359 428 924 544q165 32 305 -14
q130 -43 180 -127t27 -219q-41 -221 -191 -492q-92 -168 -204.5 -329t-276.5 -375q-363 -475 -885 -1053q-25 -25 -32 -43q9 2 59.5 13t75.5 16q412 78 835 10q108 -18 170 -61q7 -4 25 -17q63 -58 -19 -92q-94 -42 -174 23z" />
    <glyph glyph-name="three" unicode="3" horiz-adv-x="1716" 
d="M1397 1896q-36 -37 -108.5 -109.5t-108.5 -109.5q-3 -4 -12 -12.5t-15 -15.5q167 29 297 18q115 -6 213 -55q201 -100 158 -320q-43 -218 -207 -452q-166 -246 -406 -418q-419 -303 -786 -447q-146 -56 -264 -77q-111 -15 -199 41q-70 47 -4 102q9 7 28.5 20.5t28.5 20.5
q50 43 121 8q21 -11 37 -4q274 135 484.5 253t398.5 255q372 272 530 700q38 93 29 181q-6 45 -25 64t-63 20q-229 11 -494 -107q-41 -18 -110 -55q-52 -24 -118.5 -4.5t-94.5 55.5q-25 31 4 63q41 52 123 134q366 366 534 563q285 335 426 606q45 85 61 158q6 25 3 28.5
t-25 -4.5q-609 -203 -967 -567q-165 -172 -217 -356q-13 -50 -10 -97q3 -43 39 -51q10 -2 29.5 -7t29.5 -7q28 -9 35 -15q14 -9 10 -16q-5 -10 -16 -6q-123 12 -182 49q-79 53 -68 172q7 135 109 299q136 210 379 385q341 250 673 361q199 65 363 -37q125 -77 82 -224
q-34 -110 -144 -276q-221 -337 -581 -707z" />
    <glyph glyph-name="four" unicode="4" horiz-adv-x="1060" 
d="M532 283q58 209 211 630q11 21 9 31q-9 1 -31 -12q-288 -147 -406 -199q-141 -66 -264 6q-77 48 -65 142q14 108 92 307q82 207 178.5 432.5t222.5 514t187 429.5q98 225 200 469q15 40 62 37q34 -7 59 -18q32 -15 42.5 -35.5t4.5 -57.5q-14 -80 -84 -262
q-86 -217 -260.5 -617.5t-210.5 -486.5q-198 -466 -262 -655q-9 -28 -20 -74q8 -3 26 6q97 46 292 138.5t292 138.5q31 15 41 45q129 340 264 684q23 61 59 129q19 33 40 39.5t59 -8.5q35 -12 45 -29.5t2 -54.5q-33 -143 -113 -373q-75 -208 -94 -262q-9 -19 -6 -31
q19 9 40.5 19.5t47 23t39.5 19.5q19 8 74 34q19 9 45 0t34 -26t-12 -33q-31 -25 -102 -72q-157 -98 -217 -133q-26 -19 -33 -39q-49 -139 -379 -1016l-3 -7q-3 -6 -3.5 -7.5t-1.5 -6.5t0 -8t3.5 -7t6.5 -7q5 -5 2 -12q-1 -2 -6.5 -13.5t-8.5 -16t-8.5 -12.5t-11.5 -13
t-14 -8q-34 -19 -79 10.5t-42 67.5q2 26 5.5 52t11 56.5t12 48t15 55t13.5 48.5z" />
    <glyph glyph-name="five" unicode="5" horiz-adv-x="1259" 
d="M1171 885q-410 -553 -958 -899q-81 -51 -152 -82q-52 -18 -100 8q-26 15 -16 41q14 31 39 20q5 -2 9.5 -2t9.5 2t7 3t8 5t7 5q366 243 708 614q319 345 488 645q200 358 182 762q-3 85 -33 143q-17 39 -61 33q-140 -18 -293 -110q-213 -132 -404 -373q-41 -52 -59 -72
q-18 -22 -35 -29q-41 -17 -110 7.5t-91 62.5q-10 18 -2 53q20 78 82 226q53 126 143 364.5t130 337.5q11 27 24 58t29.5 70.5t26.5 64.5q-32 -12 -86 -33t-64 -25q5 -7 12.5 -12.5t17 -11t13.5 -8.5q9 -4 6 -13q-3 -6 -12 -6h-4q-23 12 -77.5 23t-80.5 26q-83 45 -8 99
q101 78 295 147q432 147 956 104q103 -10 166 -53q24 -15 35 -36t2 -33q-28 -30 -74 -2q-31 22 -74 25.5t-77 -1.5q-343 -18 -684 -108q-28 -7 -37 -37q-18 -73 -44 -152.5t-61.5 -179t-52.5 -150.5q-18 -56 -53 -158t-49 -145q-9 -19 -6 -30q68 53 139 92q189 111 362 121
q109 6 213 -45q136 -68 152 -228q16 -154 -41 -389q-88 -367 -363 -739z" />
    <glyph glyph-name="six" unicode="6" horiz-adv-x="1259" 
d="M1681 2812q36 -294 -82 -553q-17 -35 -38 -86q-1 -1 -4 -9t-5 -11t-8 -5.5t-14 -1.5q-41 7 -43 37q-5 34 4 70q5 23 27.5 114.5t29.5 141.5q27 229 -12 360q-20 71 -59 121q-25 32 -62 21q-63 -13 -129 -66q-97 -74 -213 -211q-236 -289 -455 -727q-149 -302 -231 -563
q-4 -11 -8 -29q2 -2 2 -8q85 58 176 109q229 129 430 159q140 19 254 -20q109 -37 161.5 -108t53.5 -187q6 -158 -55 -328q-170 -495 -457 -833q-138 -164 -311 -244q-149 -69 -287.5 -19t-208.5 199q-67 139 -84 350q-21 209 13 480q3 17 0 34q-7 47 6 80q13 26 21.5 57.5
t16.5 73t13 60.5q126 517 436 1065q191 335 385 542q122 133 240 193q185 90 364 -18q112 -72 133 -240zM1008 1563q-342 -95 -678 -357q-15 -10 -19 -35q-72 -306 -75 -628q-2 -32 6 -142q15 -185 65 -292q22 -48 36 -69t36 -30t46.5 -3t72.5 26q160 64 311 243
q273 331 424 791q62 180 51 348q-3 68 -29 121q-24 49 -77 49q-94 0 -170 -22z" />
    <glyph glyph-name="seven" unicode="7" horiz-adv-x="1228" 
d="M1769 1481q0 -5 -2.5 -8.5t-8.5 -5.5t-9.5 -2.5t-12 -1.5t-10.5 -1q-351 -68 -686 -188q-29 -10 -45 -31q-215 -332 -366.5 -578.5t-284.5 -496.5q-8 -16 -22.5 -46t-22.5 -46q-8 -23 6 -35q26 -20 -8 -39q-20 -13 -43 -13.5t-38 4.5t-42 17q-55 25 -55 86q0 52 31 135
q111 298 317 641q43 74 133 218q0 2 -4 6q-73 -32 -84 -37q-12 -8 -8 -17q7 -21 -3.5 -26.5t-27.5 -1.5q-29 6 -86 -10q-56 -16 -108 32q-27 24 6 47q60 43 137 76q90 39 270 105q32 11 43 30q60 91 222 330.5t274.5 411t212.5 336.5q193 317 291 514q2 4 5.5 12t6.5 14
q-144 -32 -509 -92t-560 -113q28 -7 43 -12q13 -4 10 -14q-2 -6 -14 -6q-2 0 -8 1t-9 1q-21 2 -83 12.5t-97 11.5q-55 0 -106 41q-11 8 -16 12.5t-10.5 14t-4.5 20.5q1 5 3.5 9t5 6.5t8 5.5t7.5 3.5t9 3.5t8 3q176 64 342 105q115 28 337 62t255 40q87 15 442 80
q115 17 217 -49q43 -28 51 -54.5t-14 -70.5q-91 -189 -252 -445q-165 -266 -682 -1056q-4 -4 -7.5 -9.5t-7.5 -12.5t-7 -11q11 -1 14.5 -1t12.5 2.5t12 2.5q220 62 557 110h28q2 -1 12 -3.5t13.5 -4t10 -5t9 -8t2.5 -11.5z" />
    <glyph glyph-name="eight" unicode="8" horiz-adv-x="1259" 
d="M1591 3080q118 -36 170 -118t49 -238q-3 -128 -106 -354q-118 -256 -379 -584q-8 -10 -45 -56t-48 -59t-45 -55t-48 -59t-45 -54.5t-49 -58t-46 -54t-49.5 -57.5t-47.5 -53t-50 -55q-10 -13 -9 -19t9 -18q153 -179 233 -309q63 -107 86 -197q52 -201 -79 -363
q-103 -126 -277 -237q-138 -86 -257.5 -143.5t-244.5 -88.5q-147 -38 -282 33q-127 66 -133 213q-7 144 82 330q137 280 389 645q108 155 178 242q17 20 0 43q-183 242 -262 399q-84 168 -97 309q-22 242 160 453q125 147 330 274q352 213 682 293q127 29 231 -4zM940 770
q-25 67 -70 143.5t-74.5 117t-97.5 128.5q-6 6 -10.5 6.5t-6.5 -1.5t-5 -8t-4 -7q-236 -351 -342 -533q-50 -86 -74.5 -129t-60.5 -117.5t-58 -138.5q-44 -130 -26 -231q6 -35 14 -40.5t43 1.5q171 45 395 174q190 105 301 223q107 117 107 254q0 79 -31 158zM1599 2839v51
q-4 30 -8 47q-10 44 -21.5 52t-56.5 3l-30 -6q-222 -46 -531 -203q-246 -124 -413 -303q-242 -257 -148 -571q35 -120 99.5 -230.5t162.5 -240.5q8 -11 23 -8q45 12 88 -11q22 -10 41 13q56 76 160.5 215.5t140.5 187.5q90 123 131.5 181.5t108.5 163t114 194.5
q129 253 139 465z" />
    <glyph glyph-name="nine" unicode="9" horiz-adv-x="1099" 
d="M1602 3052q38 -10 38 -60q3 -231 -43 -457q-87 -403 -311 -1005q-181 -497 -448 -877q-224 -318 -568 -585q-66 -51 -110 -64q-55 -17 -103 0q-16 8 -16 19q0 9 14 14q7 1 13 3t12.5 5.5t11 5.5t11.5 7.5t9.5 7.5t10 9t9 8.5l9.5 9.5l9 9q264 243 532 639
q292 434 467 1045q39 130 84 289q4 12 6 20q-10 -7 -20 -31q-71 -140 -117.5 -228t-117.5 -207.5t-140 -215.5q-119 -162 -271 -287q-83 -62 -166.5 -58t-151 53t-93.5 118q-48 125 -45 297q9 370 194 739q183 361 402 596q165 179 327 240q169 64 326 -31q33 -23 41 -35
q21 -34 59 -8q53 36 136 15zM1356 2847q0 3 1.5 9.5t2 10t0 9t-3.5 10.5q-7 12 -27 46t-31 52q-18 27 -27 29.5t-38 -11.5q-117 -56 -240 -186q-282 -306 -497 -774q-146 -321 -164 -660q0 -115 22 -178q11 -32 19 -35.5t37 13.5q28 15 67 47q132 105 277 313q20 29 39 57.5
t39.5 64t33.5 57.5t35.5 65.5t31 59t33.5 67t29 60.5t32 67.5t30 62.5q109 229 180 399t119 345z" />
    <glyph glyph-name="colon" unicode=":" horiz-adv-x="534" 
d="M373 1786q57 -26 73 -81.5t-18 -109.5q-31 -53 -98 -110q-42 -36 -92 -33q-44 0 -76 14q-84 29 -84 117q-3 133 106 219q56 43 135 8q6 -3 17 -8t20 -9t17 -7zM209 1169q66 -21 72 -86q0 -8 1 -20t1 -14q1 -116 -93.5 -174.5t-191.5 -4.5q-68 35 -47 111q14 53 39 82
q40 53 82 92q28 26 66.5 26.5t70.5 -12.5z" />
    <glyph glyph-name="semicolon" unicode=";" horiz-adv-x="579" 
d="M350 1188q18 -18 21 -43q9 -140 4 -191q-6 -67 -62 -120q-67 -64 -139 -91q-21 -6 -41 0q-28 7 -31.5 17t11.5 35q21 32 49 118q-71 -3 -123 25q-80 47 -51 133q42 113 157 164q39 17 108 0.5t97 -47.5zM303 1827q35 27 79.5 21t76.5 -36q48 -48 28 -124
q-2 -7 -2.5 -27.5t-7.5 -30.5q-26 -50 -58 -76t-79 -22q-67 -6 -117 20q-67 34 -43 105q41 103 123 170z" />
    <glyph glyph-name="semicolon" unicode="&#x37e;" horiz-adv-x="579" 
d="M350 1188q18 -18 21 -43q9 -140 4 -191q-6 -67 -62 -120q-67 -64 -139 -91q-21 -6 -41 0q-28 7 -31.5 17t11.5 35q21 32 49 118q-71 -3 -123 25q-80 47 -51 133q42 113 157 164q39 17 108 0.5t97 -47.5zM303 1827q35 27 79.5 21t76.5 -36q48 -48 28 -124
q-2 -7 -2.5 -27.5t-7.5 -30.5q-26 -50 -58 -76t-79 -22q-67 -6 -117 20q-67 34 -43 105q41 103 123 170z" />
    <glyph glyph-name="less" unicode="&#x3c;" horiz-adv-x="1253" 
d="M1204 2574q63 -25 21 -82q-62 -88 -203 -233q-41 -43 -120.5 -125.5t-128.5 -133.5t-115.5 -123.5t-120.5 -135.5q-108 -128 -166 -223q-105 -178 -4 -355q11 -21 23 -41t28 -43.5t25.5 -38t29.5 -42.5t26.5 -37t31 -42t28.5 -38q104 -145 234 -322q42 -64 79 -94l3 -3
l3 -3t2.5 -3t2.5 -3t2 -3t1 -4v-4t-1 -4q-4 -11 -27 -16q-35 -5 -78 12q-76 32 -116 72q-347 342 -543 604q-96 126 -96 258q0 110 86 236q113 169 301 354q98 98 294 290t293 289q52 52 98.5 59t106.5 -22z" />
    <glyph glyph-name="equal" unicode="=" horiz-adv-x="1110" 
d="M932 1462q-12 -35 -43 -35q-34 0 -60 29q-16 19 -34 19q-88 8 -127 10q-283 21 -572 -58q-58 -16 -100 29q-35 32 0 64q51 42 137 71q244 84 518 35q2 0 21.5 -3.5t23 -4.5t21 -4.5t23 -5t20 -5t22.5 -6.5t20 -7t22 -9l20 -10q46 -22 69 -53q27 -31 19 -56zM852 1106
q-12 -35 -43 -35q-33 0 -59 29q-15 18 -35 18q-88 8 -127 10q-286 21 -572 -57q-58 -16 -100 29q-19 17 -19 31.5t19 31.5q54 44 137 72q244 84 518 35q48 -9 69 -13t58.5 -16t65.5 -27q48 -23 70 -53q26 -30 18 -55z" />
    <glyph glyph-name="greater" unicode="&#x3e;" horiz-adv-x="1347" 
d="M891 1671q24 -49 35 -80q29 -64 24.5 -130.5t-27 -120.5t-65.5 -115q-121 -167 -348 -387q-127 -123 -197 -190t-182 -166.5t-209 -176.5q-78 -64 -143 -57q-35 3 -70 18q-54 29 -18 76q47 62 141 164q21 23 260 282t359 396q92 110 145 194q79 131 12 267
q-19 38 -45 82.5t-44 73.5t-52.5 82t-48.5 75q-47 74 -68 109t-52.5 99t-47.5 120q-2 8 -6 24.5t-6 24.5q-24 141 110 141q51 0 101 -16q71 -25 81 -99q4 -40 22 -86.5t31.5 -71.5t45.5 -80q5 -9 8 -14q23 -39 81.5 -133.5t99 -165t73.5 -139.5z" />
    <glyph glyph-name="question" unicode="?" horiz-adv-x="1923" 
d="M1737 2697q-28 -143 -135 -332q-85 -148 -190 -288.5t-255 -321.5q-60 -71 -188 -219.5t-225.5 -265t-182.5 -226.5q-242 -309 -348 -546q-44 -101 -57 -181q-13 -78 22 -131q13 -21 6 -30q-7 -11 -32 -6q-36 6 -60 30q-92 95 -80 219q14 136 109 334q147 305 459 686
q69 84 195.5 234t229 274.5t189.5 239.5q192 250 291 471q52 125 55 231v17q-2 80 -34 113t-111 34h-29q-212 -5 -465 -129q-673 -331 -962 -1073q-64 -166 -76 -277q-2 -16 -2 -49q9 -99 106 -78q52 13 125 64q16 16 25 6q9 -9 -4 -27q-57 -60 -109 -92q-48 -26 -115 -4
q-110 31 -158.5 110t-25.5 191q57 266 211 535q231 410 563 645q164 114 322.5 188t328.5 101q246 42 422 -56q237 -129 185 -391zM449 4q35 -18 53 -43q17 -27 -13 -39l-18 -6q-87 -24 -167 -64.5t-185 -105.5q-5 -3 -15.5 -9t-15.5 -9q-61 -37 -124.5 -27.5t-110.5 63.5
q-34 43 -3 84q27 39 91 72q200 108 395 100q1 0 21 0.5t30 0t28.5 -4.5t33.5 -12z" />
    <glyph glyph-name="at" unicode="@" horiz-adv-x="1597" 
d="M877 956q-5 78 20 183q7 23 4 41q-27 -28 -79.5 -83.5t-78.5 -82.5q-88 -92 -149 -135q-64 -47 -145 -15q-69 30 -76 119q-6 102 28 193q120 315 355 481q104 75 194 65q61 -3 119 -39q60 -41 39 -108q-25 -87 -109 -158q-15 -15 -28 -10q-24 4 -17 25q19 51 19 137
q0 2 0.5 7t0.5 8t-2 6.5t-5 4.5q-2 2 -6 0.5t-6 -2.5t-6 -4t-5 -4q-186 -125 -309 -338q-89 -152 -107 -256q-7 -22 -2 -43q18 7 52 37q42 34 80 72.5t96.5 103.5t72.5 80q47 53 99 102q53 50 123 11q27 -14 35.5 -34t2.5 -58q-6 -39 -20 -109.5t-18 -93.5
q-18 -123 -13 -172q30 17 80 76q69 91 115 231q76 235 76 430q0 235 -232 358q-29 18 -74 11q-173 -37 -329 -174q-397 -344 -473 -856q-29 -196 22 -361q5 -20 37 -86q15 -24 43 -18q58 11 98 26q188 69 344 209q26 23 56.5 23.5t58.5 -21.5q21 -17 6 -35
q-207 -247 -452 -301q-133 -31 -245 30t-165 189q-73 187 -33 404q107 598 584 948q147 112 313 135q240 31 455 -161q124 -108 141 -256q10 -82 -10 -185q-42 -242 -117 -416q-78 -176 -192 -260q-66 -51 -144 -30q-59 15 -88 53.5t-34 105.5z" />
    <glyph glyph-name="A" unicode="A" horiz-adv-x="1939" 
d="M96 1163q-38 19 -10 54q20 24 107 106q157 145 331 250q36 22 49 55q282 549 541 899q217 296 432 463q37 28 59.5 43t59.5 29.5t72 15.5q70 3 131 -31q61 -38 61 -114q3 -6 0 -34.5t-1.5 -34t-3.5 -34.5t-5.5 -34.5t-6.5 -34t-7 -34t-7.5 -34t-7.5 -33.5
q-21 -90 -48 -188.5t-62.5 -221t-53.5 -186.5q-9 -32 -5 -36t36 2q94 16 146 16q46 0 69 -12q1 -1 5 -3t5.5 -3t4.5 -3.5t4 -4.5t1.5 -5t0.5 -6q-3 -10 -25 -14q-38 -8 -78 -19t-91.5 -26.5t-76.5 -22.5q-38 -10 -49 -49q-331 -1223 -561 -2216q-5 -22 -15 -32t-32 -7
q-64 6 -61 58q2 93 32 245q163 845 424 1876q0 2 1 4.5t1 3.5q0 3 2 9t2.5 9t-2.5 7q-6 2 -8 2t-7.5 -3t-6.5 -3q-121 -47 -152 -62q-305 -125 -637 -313q-35 -21 -51 -55q-62 -120 -185 -359.5t-184 -359.5q-6 -8 -5.5 -16t12.5 -13q8 -3 8 -9t-10 -9q-5 -1 -43 -23
q-17 -10 -44.5 -5t-41.5 20q-3 3 -5.5 6.5t-2.5 8t-0.5 7t1 8t2 7t3 7.5t2.5 7q28 87 94 223q29 59 88.5 177t89.5 177q14 23 12 35q-45 -32 -94 -63q-51 -29 -104 -64q-44 -27 -99 0zM1720 2925q-120 -95 -233.5 -210t-203.5 -225t-186.5 -250.5t-166.5 -254t-160 -267.5
l6 -6q6 3 18.5 8.5t18.5 8.5q295 140 655 231q35 8 43 43q6 28 35 137q14 57 52.5 205t64 254.5t45.5 206.5q17 84 12 119z" />
    <glyph glyph-name="B" unicode="B" 
d="M0 -43q-88 50 -123 136.5t-10 193.5q38 167 199 346q85 95 213 198q25 17 32 50q64 221 178 542q1 3 5 13t5 14.5t1.5 12.5t-2.5 14q0 8 2 12q25 37 43 81t37.5 103t29.5 86q32 82 115 313.5t135 354.5q12 35 41 80q20 32 66 33.5t69 -27.5q10 -14 2 -47
q-20 -88 -67 -230q-43 -135 -133 -405l-7 -21q79 69 175 179q323 367 489 665q72 137 96 215q10 47 8 82q-2 20 -10.5 28t-29.5 7q-110 -8 -238 -49q-750 -245 -1182 -846q-110 -154 -133 -291q-14 -87 8 -147q18 -55 80 -64q94 -15 193 4q28 7 47 -4q8 -4 8 -12
q0 -6 -10 -6q-13 -1 -52 -6t-57 -6.5t-49 -3.5t-57 -0.5t-51 6.5q-82 15 -127 69t-50 142q-8 135 70 301q109 223 313 424q412 400 961 546q157 42 287 39q106 -3 184 -43q110 -58 86 -178q-15 -78 -86 -205q-143 -256 -432 -592q-32 -38 -94.5 -108t-81.5 -92q64 16 106 26
q110 22 187 4q98 -20 148.5 -76.5t61.5 -156.5q26 -234 -88 -506q-129 -311 -403 -625q-280 -322 -573 -505q-161 -98 -295 -113q-135 -16 -240 45zM586 1081q-1 -3 -3.5 -10t-2.5 -10t2 -10h6q86 50 92 53q189 107 355 174t339 88q21 3 27 25q23 110 26 200q7 113 -18 187
q-12 34 -26.5 43t-49.5 6q-20 -2 -55 -10q-321 -87 -518 -287q-37 -42 -47 -72q-41 -127 -127 -377zM-4 270q-22 -73 -10 -143q13 -89 73 -129t148 -18q133 37 246 118q556 394 850 1014q43 90 73 193q-33 -3 -108 -29q-346 -115 -742 -406q-15 -11 -22 -36
q-86 -247 -107 -318q-24 -84 -32 -104q-11 -19 -23 -23q-50 -17 -87 12.5t-30 81.5q3 27 12.5 79t12.5 73q-66 -47 -147 -163.5t-107 -201.5z" />
    <glyph glyph-name="C" unicode="C" horiz-adv-x="1824" 
d="M61 399q3 219 95 502q318 1000 991 1745q206 228 371 348q115 86 213 88q77 3 145 -35q72 -41 72 -131q2 -73 -33 -196q-146 -489 -301 -803q-53 -105 -92 -156q-19 -30 -43 -35q-40 -6 -59.5 13.5t-10.5 56.5t23.5 80.5t25.5 74.5t30 81t28 75q156 429 217 686
q20 82 20 148q0 23 -5.5 25.5t-25.5 -9.5q-138 -82 -297 -241q-592 -598 -946 -1432q-164 -390 -221 -692q-36 -194 -14 -328q14 -83 55 -135q20 -26 49 -14q75 30 148 100q34 32 67 65.5t71.5 77t59.5 67.5t68.5 80.5t60.5 72.5q29 35 113.5 137.5t127 153t112 129
t129.5 141.5q36 36 90 16q21 -9 23.5 -18.5t-11.5 -26.5q-2 -3 -297 -391q-27 -35 -90.5 -119.5t-99 -131t-90 -114t-101.5 -121.5q-78 -92 -151 -147q-103 -77 -230.5 -68.5t-206.5 97.5q-66 76 -80 213v71z" />
    <glyph glyph-name="D" unicode="D" horiz-adv-x="1796" 
d="M160 1657q-5 1 -38 8.5t-43.5 11t-34.5 12t-40 19t-31 25.5q-52 49 -34 143q24 148 129 342q249 463 671 739q226 148 451 162q197 13 346 -76q185 -106 219 -374q37 -288 -47 -662q-118 -535 -455 -1089q-250 -412 -471 -680q-132 -157 -247 -230q-115 -74 -226 -74
q-112 0 -182 62t-84 172q-21 169 59 371q57 156 177 301q18 27 18 41q1 141 29.5 281t81.5 325q144 504 292 872q23 64 54 111q42 66 114 31q29 -13 19 -43q-144 -447 -221 -709q-106 -355 -183 -670q-1 -3 -3.5 -14.5t-4.5 -20.5q130 108 221 168q226 153 480 179
q27 3 51 -9q18 -9 18 -20q-1 -9 -22 -14q-115 -24 -172 -48q-202 -80 -420 -280q-98 -88 -180 -186q-27 -30 -27 -62q0 -9 -4 -39.5t-2.5 -49.5t10.5 -38q6 -12 -16 -16q-39 -3 -72 20q-15 12 -25 -4q-140 -237 -137 -450q0 -88 37 -150q17 -28 31 -33t45 4q82 22 174 103
q137 118 278 323q385 569 578 1041q171 424 213 803q33 316 -23 520q-22 83 -71 143q-57 75 -148 72q-154 -9 -299 -86q-628 -338 -895 -973q-39 -90 -39 -164q0 -72 62 -94q11 -4 29 -14t20 -11q12 -4 10 -14q-1 -4 -14 -8h-6z" />
    <glyph glyph-name="E" unicode="E" horiz-adv-x="1828" 
d="M96 1087q-134 62 -102 211q12 41 33.5 86t38 73t47.5 77q294 425 725 805q434 373 852 577q177 90 309 109q127 17 225 -35q62 -29 79.5 -80.5t-13.5 -113.5q-44 -77 -113 -150q-15 -16 -94 -106t-107 -122t-87.5 -101.5t-104 -124.5t-88.5 -111q-8 -10 -30 -38
t-32.5 -42t-27.5 -37.5t-30 -43.5t-24 -40q-11 -19 -12.5 -22.5t2.5 -16.5q15 -15 8 -26.5t-14.5 -16t-15.5 -6.5q-41 -11 -80.5 22t-36.5 76q2 43 41 119q72 129 231 330q22 28 145 179t183 235q56 79 72 122l6 17q1 -1 -3 -3q-7 -3 -10 -5q-163 -39 -382 -164
q-650 -367 -1158 -957q-180 -206 -282 -372q-57 -94 -66 -158v-33q3 -22 7.5 -26t27.5 -5q30 -1 60.5 0.5t68.5 7t56.5 8.5t68 13t59.5 12q50 10 250 53.5t309 61.5q102 15 166 -18q41 -21 49 -52t-20 -67q-32 -37 -65.5 -71t-90 -86t-69.5 -64q-312 -290 -455 -457
q-111 -127 -162 -234q-27 -65 -16 -106q3 -22 5 -23.5t24 3.5q67 14 143 51q341 165 621 354q48 34 106 4q22 -10 26 -29t-16 -38q-62 -59 -143 -117q-220 -156 -445 -273q-151 -79 -262 -79q-90 0 -151 30q-76 33 -106 96t-7 144q14 47 41 96.5t49 80t62 81.5
q36 44 75 86.5t86.5 89.5t78 76.5t89.5 85.5t82 78q20 20 106.5 103t133.5 130q10 6 10.5 2.5t-2.5 -16.5q-109 -25 -166 -37q-43 -9 -141.5 -30.5t-172.5 -36t-144 -23.5q-153 -18 -259 10q-9 2 -51 18z" />
    <glyph glyph-name="F" unicode="F" horiz-adv-x="1777" 
d="M57 2267q-57 31 -16 84q39 54 133 119q157 107 420 209q561 216 1206 280q266 27 414 25q132 -4 201 -39q12 -6 18 -10t15 -11t11.5 -15.5t0.5 -18.5q-1 -6 -3.5 -10.5t-7.5 -7t-8.5 -4.5t-10.5 -2.5t-10 -0.5h-12h-10q-30 1 -60 0t-65 -4.5t-57.5 -6.5t-64.5 -9.5
t-58 -8.5q-307 -44 -684 -133q-37 -8 -45 -43q-40 -140 -145.5 -494t-157.5 -548q-8 -32 -24.5 -94t-24.5 -94q-1 -4 -2 -14t-2 -15q20 6 67.5 21t73.5 22q140 45 221 49q50 3 88 -25q15 -11 10 -24q-2 -14 -20 -14q-23 2 -45.5 -3t-54.5 -17t-43 -15q-52 -18 -312 -121
q-25 -12 -30 -37q-3 -13 -23 -99.5t-25 -109.5t-21.5 -96.5t-23 -109.5t-18 -96.5t-19.5 -110.5t-14 -101q-31 -239 -6 -420q31 50 88 29q32 -16 12 -41q-4 -4 -10 -14.5t-10 -14.5q-32 -51 -88 -51t-90 51q-34 49 -45 150q-35 301 20 635q28 151 62 297q4 12 0 22
q-170 -95 -275 -188q-1 -2 -4 -5.5t-4 -5.5q-1 -3 -0.5 -5.5t1.5 -5.5t2 -5.5t-1 -4.5t-6 -3q-30 -7 -72 6q-51 19 -24 68q25 43 86 100q128 120 317 199q26 13 33 36q114 437 381 1268q1 5 4 15.5t4 15.5q-3 3 -6 3.5t-4.5 0t-5 -2t-4.5 -1.5q-552 -153 -918 -352
q-45 -25 -57 -31q-67 -34 -142 8z" />
    <glyph glyph-name="G" unicode="G" horiz-adv-x="1619" 
d="M43 1083q-23 105 10 267q56 267 234 604q289 548 651 934q70 76 164 141q94 62 190 35q108 -31 74 -133q-7 -26 -17 -51.5t-27 -64t-22 -50.5q-7 -17 -19.5 -18.5t-25.5 3.5q-26 5 -14 37q27 104 23 164q0 19 -7 23q-4 1 -7 -0.5t-7 -5.5t-6 -5q-106 -81 -246 -247
q-463 -563 -702 -1168q-81 -205 -99 -370q-7 -80 9 -142q5 -16 12 -19t22 5q65 41 119 92q89 86 167.5 186.5t172.5 235.5q156 226 297.5 474t308.5 570q10 18 28 52t24 45q51 94 61 166q3 28 16.5 38.5t42.5 8.5q49 -1 71 -24t20 -73q-6 -162 -66 -440q-15 -76 -32.5 -152
t-41.5 -164t-39.5 -146t-47 -161.5t-44 -144t-50 -161t-46.5 -148.5q-11 -35 -34.5 -104.5t-35.5 -104.5q-7 -14 -4.5 -23t21.5 -6h12q37 -9 39 -24q1 -6 -1 -9.5t-7 -6t-7.5 -3t-10.5 -1.5t-9 -1q-65 -8 -90 -82q-125 -340 -281 -573q-118 -178 -266 -279q-82 -58 -160 -69
q-60 -8 -124 20q-71 29 -74 115q0 64 37 158q75 186 231 342q239 246 483 356q12 5 21 31q88 253 225 735q110 381 150 557q0 2 1 6.5t1 7.5q-1 0 -2 1t-2 1q-87 -160 -101 -186q-265 -497 -510 -821q-147 -193 -262 -289q-47 -43 -96 -66q-93 -44 -195 -2q-81 33 -100 127z
M868 836q2 2 2 16q-15 -11 -39 -31t-32 -26q-310 -257 -449 -549q-41 -83 -43 -146q-5 -24 6 -30q7 -5 27 10q120 66 233 207q88 114 156 245.5t139 303.5z" />
    <glyph glyph-name="H" unicode="H" horiz-adv-x="2183" 
d="M-186 1380q27 34 96 84q169 110 473 238q54 23 180 72q19 6 29 16.5t16 30.5q77 227 140 390t141 316q76 152 141 219q29 31 69 34.5t75 -19.5q28 -14 12 -39q-33 -57 -66.5 -128t-53.5 -118.5t-55.5 -138t-49.5 -125.5q-17 -45 -113 -303q-10 -24 -8 -33q4 -2 5.5 -2.5
t5 1.5t5.5 3q400 129 809 221q39 8 53 45q251 581 430 940q53 105 90 156q23 34 74.5 35.5t79.5 -31.5q13 -15 4 -45q-8 -21 -24.5 -61t-24.5 -60q-305 -693 -381 -878q-1 -2 -3.5 -8t-3.5 -8t-2 -9t1 -10q29 5 86 16.5t86 16.5q110 20 179 30.5t167.5 19.5t181.5 7
q44 0 68 -12t22 -27q0 -3 -1 -5t-3 -4t-4 -3t-5 -1.5t-4.5 -1t-5.5 -1t-5 -0.5q-127 -11 -211 -25q-193 -32 -586 -123q-20 -6 -29 -27q-218 -538 -362 -962t-229 -852q-6 -30 -17.5 -90t-17.5 -90q-4 -21 2 -35q6 -13 -5.5 -28.5t-29.5 -18.5q-47 -8 -78.5 17.5t-32.5 72.5
q-1 36 0 72.5t5.5 78.5t7.5 68.5t10 78t10 71.5q40 307 133.5 610.5t241.5 675.5q21 52 61 149.5t56 138.5q-36 -11 -98 -28.5t-111 -31.5t-92 -28q-224 -67 -547 -180q-28 -11 -35 -31q-17 -49 -80 -222.5t-101 -287t-71 -225.5q-29 -106 -29 -151q0 -30 15 -45
q14 -14 10 -25q-6 -8 -25 -8q-41 -3 -76.5 27t-43.5 73q-11 74 16 201q54 249 147 559l3.5 7t3 7.5l1.5 7.5t-1 7q-3 4 -15 0q-259 -103 -448 -211q-80 -47 -109 -78q-15 -20 -12 -27q1 -3 2.5 -5t4.5 -3t6 -1t7 0.5t6 0.5q60 -9 154 -2q84 7 131 -10q1 0 4.5 -1t5 -1.5
t5 -1.5t5 -2t4.5 -2.5t4 -3t3 -3.5t2.5 -4t0.5 -4.5t-1 -5.5q-3 -10 -17 -10.5t-24 2.5q-12 4 -26.5 4.5t-24.5 -1t-27.5 -4t-25.5 -3.5q-153 -18 -254 10q-36 9 -64 29q-72 44 -18 110z" />
    <glyph glyph-name="I" unicode="I" horiz-adv-x="1171" 
d="M20 -12q-61 30 -18 78q71 79 186 133q26 12 35.5 27.5t9.5 45.5q-8 276 82 650q182 794 592 1644q87 180 105 217q10 14 6 25q-59 -24 -160 -80q-63 -35 -90 -47q-50 -22 -104 8q-25 12 -27.5 25.5t16.5 33.5q5 4 15.5 12.5t15.5 12.5q289 203 688 246q45 7 121 -13
q1 0 8.5 -2t11.5 -4l8 -4t9 -5t5 -6.5t1 -10.5q-2 -15 -29 -15q-28 0 -54 -3t-60 -11.5t-48.5 -13t-58.5 -19t-51 -16.5q-18 -4 -23 -21q-15 -59 -39 -128.5t-41 -111.5t-53.5 -128.5t-48.5 -114.5q-339 -824 -514 -1499q-56 -209 -151 -590q-6 -26 -3.5 -28.5t27.5 4.5
q43 12 75 19t71.5 12t77.5 3t75 -12q53 -15 74 -41q24 -30 -14 -39q-22 -4 -33 -2q-6 2 -12.5 3t-11.5 1.5t-12.5 0t-11 -0.5t-12 -2t-11 -2.5t-11.5 -3t-10.5 -3t-12.5 -4.5l-10 -3q-168 -58 -448 -213q-59 -33 -132 -4z" />
    <glyph glyph-name="J" unicode="J" horiz-adv-x="2185" 
d="M154 614q-116 -212 -127 -385q-14 -167 63 -272q74 -95 201 -74q115 19 264 109q232 140 494 420q608 667 813 1542q58 256 61 479q-4 257 -80 412q-103 222 -336 256q-127 20 -288 -21q-338 -86 -613 -346q-210 -198 -282 -422q-36 -111 -27 -227q18 -184 207 -260
q1 -1 4.5 -2t5.5 -2q26 -4 31 -19q5 -5 2 -18q-5 -11 -21 -17q-15 -8 -53 5q-55 21 -129 67q-111 71 -141 193q-26 96 -8 204q40 231 233 455q254 292 590 414q273 101 524 61q357 -59 486 -373q89 -214 65 -509q-55 -600 -401 -1211q-310 -544 -736 -930
q-197 -179 -393 -266q-110 -51 -215 -63q-46 -4 -69 -4q-156 0 -265.5 80t-152.5 227q-61 200 30 438q80 212 263 416q364 403 780 651q117 70 360 170q46 18 99 -6q26 -10 26 -29q0 -14 -20 -24q-4 0 -4 -2l-21 -9q-188 -99 -223 -120q-314 -192 -637 -523
q-237 -240 -360 -465z" />
    <glyph glyph-name="K" unicode="K" horiz-adv-x="1658" 
d="M104 51q-45 5 -66.5 24t-27.5 60q-12 79 4 236q18 222 74 438q2 7 2 39q-6 46 14 80q9 14 16.5 29t14 34.5t10 30.5t10.5 36t9 32q180 589 457 1333q82 228 149 389q25 58 55 72t90 -5q46 -15 58 -36t0 -68q-12 -45 -29 -98t-30.5 -90.5t-36 -98t-33.5 -92.5
q-191 -532 -361 -1055q-1 -4 -3 -11t-3 -11q4 -4 6 -4q137 118 164 141q687 592 1122 1108q48 57 143.5 171.5t143.5 172.5q31 37 75.5 42.5t82.5 -23.5q27 -19 10 -52q-32 -68 -115 -182q-318 -429 -811 -887q-134 -125 -387 -346.5t-352 -310.5q-121 -114 -180 -184
q-18 -20 -29 -45t-21 -63t-14 -50q-4 -14 19 -37q22 -19 76 -43q42 -17 89.5 -31.5t107.5 -31t91 -25.5q86 -24 194.5 -62t162 -59t190.5 -76q56 -21 80 -24q13 0 25 -6q1 -1 7 -3t8 -3t6.5 -4t6.5 -5.5t3 -6.5t1 -9q-1 -6 -3.5 -9.5t-7.5 -6t-8 -3t-11 -1.5t-9 -1
q-36 -7 -96 9q-136 34 -295 92q-97 32 -283.5 81.5t-215.5 57.5q-87 23 -158 55q-24 12 -31 -12q-75 -261 -106 -453q-5 -13 -2.5 -27.5t20.5 -19.5q21 -5 10 -32q-18 -39 -35 -51.5t-47 -8.5z" />
    <glyph glyph-name="L" unicode="L" horiz-adv-x="1513" 
d="M338 264q15 7 17.5 12t-5.5 21q-41 68 -41 201q-2 233 103 551q141 417 446 1038q21 44 84 173.5t94.5 193.5t82.5 165.5t95 184.5q43 85 76 131q25 36 53 33q38 0 64 -13q26 -10 31 -21.5t-4 -37.5q-9 -28 -9 -76q-2 -11 -6 -16t-14 -4q-17 2 -29 -21
q-46 -98 -251 -521.5t-306 -655.5q-231 -536 -325 -857q-62 -202 -54 -370q1 -54 10.5 -60.5t61.5 7.5q387 105 745 116q94 0 150 -16q64 -19 80 -53q15 -34 -19 -39q-42 -7 -67 10q-25 18 -72 14q-331 -37 -649 -137q-274 -82 -602 -262l-25.5 -15t-25.5 -13t-28.5 -10
t-28 -2t-31.5 5q-34 11 -35 12q-21 9 -29 19.5t-4.5 23t20.5 29.5q110 107 289 195q75 37 158 65z" />
    <glyph glyph-name="M" unicode="M" horiz-adv-x="2777" 
d="M2212 3176q37 37 87 40.5t93 -25.5q31 -21 35 -82q1 -41 -17 -172q-28 -202 -84.5 -444.5t-99.5 -394.5t-127 -437q-33 -111 -94 -324t-70 -243q-6 -30 -8 -37q6 4 10 9t8.5 13t6.5 11q199 348 366 548q74 82 129 121q37 26 88.5 23.5t85.5 -31.5q27 -21 27 -72
q-3 -157 -43 -305q-25 -105 -77 -313.5t-77 -312.5q-41 -167 -36 -285q1 -14 2.5 -20t9 -11t22.5 -4q13 3 27.5 -2t15.5 -18q1 -7 -5 -12.5t-10.5 -7t-15.5 -4.5q-2 -1 -3 -1q-47 -20 -92 2t-56 70q-17 96 4 233q23 137 73.5 429t76.5 446q5 25 0 39q-10 -12 -29 -31
q-167 -193 -360 -543q-19 -35 -99 -186.5t-127 -231.5q-26 -49 -59.5 -58.5t-97.5 13.5q-45 17 -39 66q30 196 63 352q14 66 29.5 132.5t36 142t35 127t41.5 140.5t38.5 126.5t44.5 140t41 129.5q182 585 267 1034q8 56 16 82q-69 -73 -172 -221q-255 -358 -532 -948
q-325 -693 -494 -1135q-100 -255 -186 -561q-7 -30 -20 -38.5t-46 -10.5q-32 0 -72 14q-30 12 -37 25t-4 45q19 153 58 332t71.5 301.5t90.5 324.5q50 172 164 533t167 549q97 330 125 569q16 168 -4 252q-6 26 -11.5 28.5t-31.5 -8.5q-149 -66 -291 -198
q-570 -532 -772 -1180q-52 -159 -61 -307q-7 -68 12 -123q9 -29 22.5 -38t47.5 -11q10 -1 27 0t31 0t26 -6l5 -2q4 -2 5.5 -3t4 -3.5t3.5 -5.5t0 -7q-1 -5 -4 -6.5t-11 -2.5t-9 -1q-57 -3 -103 2q-80 9 -126.5 54.5t-55.5 123.5q-19 175 43 383q131 473 506 936
q200 245 387 381q133 92 235 115q94 21 189 -15q126 -42 133 -194q9 -150 -47 -406q-19 -84 -42 -170.5t-52.5 -186t-49 -163t-57.5 -184.5t-53 -168q-4 -15 -27.5 -88t-34.5 -113q0 -1 -3 -6.5t-3 -7.5t2 -8q8 5 17 28q7 15 47 97.5t50 102.5t46.5 95t50.5 103t47.5 94.5
t52 101.5t49.5 94t54.5 101t52 92.5t56.5 97.5q193 326 436 637q4 7 45 53z" />
    <glyph glyph-name="N" unicode="N" horiz-adv-x="2146" 
d="M1096 2515q-14 -78 -33 -164.5t-34 -150t-43 -167t-40.5 -148t-47.5 -165.5t-44 -153q-5 -19 -37.5 -132t-50.5 -173q16 29 49 89t59.5 106t51.5 87q448 727 1016 1264q82 79 176 137q56 37 129 14q66 -23 63 -92q-2 -64 -37 -178q-40 -130 -121.5 -366t-113.5 -334
q-75 -229 -117 -362.5t-98.5 -333.5t-93.5 -369q-72 -328 -60 -566q1 -11 4 -31t4 -28q4 -19 7.5 -28.5t14 -18t27.5 -8.5q5 0 17 -6q16 -12 14 -23q-2 -7 -20 -12q-59 -12 -109.5 14.5t-73.5 81.5q-14 35 -22 80.5t-9.5 72t-2.5 83.5q-3 290 86 618q60 216 142 473
t141 430.5t161 468.5q18 50 51.5 150.5t50.5 150.5q10 30 9 37h-9t-7.5 -5t-6.5 -5q-134 -100 -305 -285q-492 -528 -819 -1098q-181 -313 -350 -804q-68 -180 -76 -197q-15 -31 -31.5 -40.5t-50.5 -6.5q-58 4 -80.5 31t-19.5 86q4 75 21 167.5t28.5 139t42.5 162.5
q32 120 135 492t153 575q89 358 117 567q12 110 8 168q-7 0 -12.5 -3t-12.5 -10t-9 -8q-117 -103 -277 -323q-305 -423 -436 -875q-29 -100 -29 -168q0 -33 9.5 -44t45.5 -19q2 -1 20 -4t25 -9t5 -18q-2 -9 -11 -11t-26 0.5t-21 2.5q-6 0 -26 4q-72 15 -102 54.5t-25 113.5
q8 131 69 303q180 520 523 963q69 85 147 143q116 82 248 29q83 -38 98 -125q16 -111 -18 -291z" />
    <glyph glyph-name="O" unicode="O" horiz-adv-x="1775" 
d="M1620 2828q146 -113 156 -346v-61q-9 -189 -97 -496q-224 -782 -663 -1446q-129 -192 -271 -334q-80 -76 -145 -112q-68 -37 -138.5 -40.5t-127.5 24t-99 84t-55 132.5q-27 151 23 385q32 159 106 363q6 11 4 20.5t-18 14.5q-137 54 -188 149.5t-33 241.5q22 185 139 428
q237 511 602 840q166 149 320 211q267 109 485 -58zM1528 2048q67 260 65 442q-4 170 -75 273q-43 60 -88.5 77t-116.5 -1q-27 -7 -49 -15q-171 -63 -344 -229q-425 -396 -641 -998q-71 -199 -62 -333q7 -130 94 -189q13 -10 22 -8t15 20q50 127 86 205q99 216 172 318
q49 70 94 98q38 22 85 9t59 -48q8 -25 0 -35q-6 -7 -17 -8t-18 4q-10 6 -18.5 7.5t-15 -3.5t-10.5 -9.5t-11 -14.5q-68 -113 -166 -355q-9 -23 -80 -208q38 11 41 12q68 22 129 59t137 94q36 26 74 5q28 -11 4 -29q-7 -6 -21.5 -18.5t-21.5 -18.5q-91 -73 -171.5 -115.5
t-174.5 -50.5q-3 0 -5.5 -0.5t-4.5 -1.5t-3.5 -2t-3 -3t-2.5 -3.5t-2 -4t-1.5 -4l-1.5 -4.5t-1 -4q-60 -186 -84 -288q-63 -272 -45 -439q10 -80 45 -133q15 -21 37 -10q50 22 113 74q164 146 321 383q445 675 662 1503z" />
    <glyph glyph-name="P" unicode="P" horiz-adv-x="1796" 
d="M428 614q-21 8 -27 -16q-99 -307 -120 -481q-1 -7 -2.5 -20.5t-2.5 -20.5q-4 -30 21 -35q21 -5 18 -21q0 -4 -2 -6.5t-3.5 -3.5t-6.5 -3t-6 -3q-40 -20 -82 3.5t-51 72.5q-12 60 0 180q25 192 100 455q20 83 21 98q6 47 24 90q29 65 56.5 139.5t58 167t47.5 140.5
q11 29 47.5 128.5t51.5 139t47.5 124t53.5 137.5t51 123t58 132q52 107 74 139q20 32 43 37q49 7 80 -20q6 -6 6.5 -14.5t-1 -14t-6 -15.5t-5.5 -14q-29 -78 -106 -281.5t-129.5 -348.5t-98.5 -283q0 -2 -3 -10t-3 -11.5t2 -13.5q75 50 190 92q35 11 70 -4q18 -9 18 -18
q1 -4 -1 -7t-4 -4.5t-6.5 -3t-6.5 -2.5q-51 -23 -57 -26q-148 -73 -267 -217q-9 -11 -22 -45q-16 -51 -50.5 -153t-50.5 -153q-10 -31 7 -49q15 -17 49 -4q126 40 256 156q209 182 411 506q256 404 361 759q67 233 57 414q-7 121 -47 195q-68 137 -221 119
q-186 -19 -385 -136q-619 -361 -764 -1048q-19 -86 -16 -168q3 -25 24 -14q62 37 78 47q27 16 57 0q21 -13 2 -21q-14 -5 -26.5 -14t-28.5 -23.5t-22 -19.5q-27 -23 -63 -28t-67.5 6t-54.5 41t-26 71q-10 108 26 258q176 736 858 1055q234 111 457 84q201 -27 309 -146
q101 -108 111 -307q10 -216 -86 -496q-211 -606 -647 -1085q-150 -167 -320 -248q-163 -78 -307 -33z" />
    <glyph glyph-name="Q" unicode="Q" horiz-adv-x="1624" 
d="M1300 293q-179 16 -389 -21q-350 -60 -647 -225q-55 -30 -86 -55q4 -2 8 -6q8 -3 11.5 -4.5t8 -6t3.5 -10.5q-4 -11 -31 -6q-24 3 -51 -4q-52 -13 -115 18q-56 35 -24 90q31 55 110 115q66 47 154 92q13 7 15 12t-7 19q-65 81 -72 225q-7 119 12 241t58 273q13 53 41 151
t35 124q8 25 -2 37q-72 83 -76 237q-5 202 76 436q184 505 489 867q155 180 303 258q240 131 461 -23q123 -87 137 -272q14 -166 -51 -416q-133 -502 -389 -1069q-230 -505 -399 -782q-51 -85 -115 -166q141 12 319 2q146 -10 256 -43q58 -16 103 -49q21 -14 29 -33
q21 -47 -29 -53q-67 -7 -109 30q-18 14 -37 17zM483 381q100 95 205 266q155 258 367 719q272 601 409 1120q64 238 54 404q-10 118 -68 188q-37 43 -88 27q-54 -20 -113 -53q-138 -87 -262 -234q-331 -386 -528 -913q-80 -210 -66 -402q2 6 6.5 18.5t6.5 18.5
q90 269 182 485q81 192 135 271q49 79 129 37q31 -15 18 -47q-11 -30 -34 -87.5t-27 -66.5q-27 -66 -115 -326q-76 -223 -151 -489q-6 -17 -2 -24.5t24 -8.5q49 -4 68 -14q13 -13 10 -21q-1 -5 -16 -10q-33 -5 -78 6q-16 2 -23 -2.5t-10 -19.5q-80 -299 -108 -510
q-22 -185 2 -307q0 -1 2.5 -19.5t6.5 -26t13 -10.5q6 -2 13.5 1t12.5 6.5t13.5 12z" />
    <glyph glyph-name="R" unicode="R" horiz-adv-x="2074" 
d="M936 979q-13 -12 -23 -29t-14 -30t-10.5 -36t-9.5 -32v-8t3.5 -4t5.5 -1t6.5 0.5t6.5 0.5q162 0 309 -23q349 -42 564 -112q125 -46 188 -109q25 -16 20 -33q-2 -6 -4.5 -9.5t-7 -5.5t-7 -3t-9 -1.5t-8.5 -0.5q-41 0 -60 14q-61 40 -128.5 60.5t-162.5 37.5
q-408 70 -718 62q-24 0 -37.5 -10t-20.5 -35q-41 -134 -60.5 -200.5t-45 -178t-37.5 -205.5q-4 -35 14 -45q22 -8 8 -39q-25 -46 -67 -43q-76 8 -103 55q-20 39 -20 95q-7 226 57 532q6 32 2.5 36.5t-32.5 0.5q-157 -33 -254 -64q-2 -1 -11 -4t-13.5 -8.5t-4.5 -15.5
q1 -11 -6 -14t-19 -3q-59 0 -102 35q-19 17 -20 32t16 32q24 27 76 49q117 52 299 88q52 7 90.5 44t56.5 89q63 204 154.5 447.5t155 397t182.5 435.5q32 75 96.5 224.5t95.5 224.5q6 13 41 75q32 54 96 60t105 -41q18 -20 2 -60q-46 -125 -182 -477q-170 -445 -334 -868
q-10 -20 -6 -33q2 1 5 3t5 3q19 19 86 86.5t92.5 93.5t83 85.5t90 96t79.5 89.5t85.5 101.5t75.5 98.5q224 305 286 633q28 157 5 271q-23 101 -86.5 162t-157.5 71q-214 25 -453 -76q-766 -316 -1106 -1149q-35 -95 -39 -149q-2 -23 2.5 -33.5t24.5 -13.5q25 -10 23 -25
q-1 -5 -3 -8.5t-6 -4.5t-7 -1.5t-8.5 0t-6.5 0.5q-15 0 -39 4q-138 21 -123 176q19 139 104 320q283 629 912 946q319 159 618 145q252 -13 420 -145q202 -159 166 -447q-38 -300 -235 -620q-100 -164 -230 -313t-299 -310q-168 -164 -477 -436z" />
    <glyph glyph-name="S" unicode="S" horiz-adv-x="1695" 
d="M1272 674q-32 -65 -111 -148q-395 -386 -923 -538q-85 -23 -162 -15q-21 3 -31.5 5t-24 11t-18.5 23q-1 12 -2 17.5t6 14.5t10.5 13t12.5 12t12 11q4 3 13 11t13 11t13.5 10t14.5 8.5t15.5 6t16.5 3t18 -0.5q27 -5 31 -8q25 -13 6 -29q-2 -3 -6 -7t-6.5 -7t-5.5 -7.5
t-4 -9.5q3 -1 20 5q459 193 813 550q56 60 80 111q25 51 16 89t-53 75q-66 54 -194 100q-64 23 -194.5 68.5t-194.5 68.5q-106 38 -197 99q-168 116 -162 317q2 141 78 324q140 318 457 651q234 244 454 371q208 120 404 112q62 -3 104 -16q90 -26 127.5 -88t18.5 -154
q-20 -102 -109 -262q-59 -109 -133 -211.5t-178 -230.5q-39 -47 -74 -101q-30 -38 -20 -65q3 -12 -13 -16q-37 -18 -77 0q-13 4 -9 24q15 62 62 133q23 34 78.5 115.5t94.5 142.5t71 121q97 183 120 313q11 78 -6 125q-32 93 -123 66q-133 -47 -258 -139
q-487 -362 -745 -834q-110 -201 -125 -364q-19 -209 156 -310q21 -12 45.5 -23.5t41.5 -19t49 -20t43 -16.5t50 -17.5t45 -15.5q251 -85 360 -140q97 -49 148 -96q110 -97 41 -229z" />
    <glyph glyph-name="T" unicode="T" horiz-adv-x="1406" 
d="M2134 2935q24 -24 -4 -43q-20 -15 -31.5 -22t-31 -12t-39.5 -1q-10 1 -22 -0.5t-20 -4t-22 -7t-20 -6.5q-414 -95 -734 -193q-11 -4 -16 -6.5t-12 -9t-11 -15.5q-43 -108 -163 -387.5t-179 -435.5q-208 -528 -315 -971q-77 -328 -63 -610q0 -47 12 -96q4 -25 26 -25
q44 0 46 -22q0 -6 -2.5 -10t-5 -6.5t-9 -5t-9.5 -3.5t-10.5 -2.5t-9.5 -1.5q-41 -7 -78 13.5t-57 60.5q-30 63 -37 168q-33 380 70 780q121 484 395 1091q2 5 176 385q2 3 3.5 7.5t4.5 11.5t5 12q-29 -7 -62 -18q-454 -155 -723 -326q-88 -52 -190 6q-51 26 -12 74
q58 65 174 133q210 121 534 232q170 59 342 108q55 15 82 59q20 36 44.5 43.5t62.5 -6.5q8 0 14 -6q7 -10 14 -15.5t17 -5.5t15 0.5t19 5t17 5.5q14 3 72.5 17t77 18.5t70.5 16.5t77 17.5t71 15t77.5 15.5t71.5 13t77 12q116 14 190 -25q18 -9 31 -22z" />
    <glyph glyph-name="U" unicode="U" horiz-adv-x="1955" 
d="M379 371q-39 -36 -89.5 -49t-97 -2.5t-87.5 41t-62 75.5q-72 158 -72 379q-2 225 72 555q115 517 262 873q55 139 133 249q23 34 64 70q62 54 145 18q11 -4 19 -12q30 -30 22 -51q-9 -20 -47 -10q-13 3 -22.5 -1.5t-12 -7.5t-12.5 -16q-85 -132 -152 -332
q-197 -567 -270 -1071q-47 -304 -8 -526q14 -77 39 -129q8 -22 28 -8q66 57 125 139q34 47 70.5 101t63.5 94.5t68 106t60.5 96.5t66 107t60.5 99q81 131 222.5 366t260.5 428.5t230 360.5q73 112 211 315.5t178 262.5q19 26 101 164q16 28 45 28t43 -4q47 -9 56.5 -27.5
t-9.5 -62.5q-272 -680 -480 -1260t-368 -1146q-81 -291 -111 -465q-4 -40 -6 -58q-4 -32 17 -41q15 -4 12 -16q-2 -9 -17 -14q-46 -15 -83.5 9t-40.5 71q-6 104 28 280q137 689 443 1503q146 400 188 517q9 23 8 32q-6 -4 -10.5 -9t-8.5 -12.5t-7 -10.5
q-75 -111 -160.5 -248t-139.5 -228t-155 -262.5t-141 -238.5q-13 -22 -96.5 -161.5t-112 -186.5t-93.5 -152t-115.5 -183.5t-103.5 -156.5q-72 -106 -151 -182z" />
    <glyph glyph-name="V" unicode="V" horiz-adv-x="1427" 
d="M223 2103q27 53 90 47q25 -2 49.5 -13.5t39 -23t38.5 -32.5q15 -18 -8 -25q-23 -8 -47 2q-24 11 -27 -16q-16 -68 -53 -293q-111 -659 -153 -985q-48 -324 -41 -516q0 -4 1 -16t1 -23q50 57 65 80q73 95 154.5 220t126.5 200.5t137 232.5q53 90 153.5 265t163.5 283
t154 256t172 269q97 146 292 436.5t292 436.5q14 21 41.5 62t49 73t42.5 59q37 49 90 41q26 -3 29.5 -12.5t-9.5 -32.5q-20 -32 -52 -94.5t-44 -83.5q-37 -64 -79.5 -135t-76 -124.5t-86 -135t-79 -122.5t-88 -134t-82.5 -125q-269 -414 -641 -1086q-126 -230 -228.5 -401
t-216.5 -326q-84 -119 -168 -200q-65 -59 -153 -41q-101 18 -121 114q-30 130 -12 342q10 119 30 266t32.5 224t47.5 277t41 237q51 297 94 463q12 57 39 110z" />
    <glyph glyph-name="W" unicode="W" horiz-adv-x="2148" 
d="M559 2271q-216 -654 -307 -1237q-60 -401 -51 -663q3 -111 26 -211q0 -1 1 -5.5t2 -7t3 -5t5 -3.5t5.5 0.5t4 3.5t3.5 6t3 5q63 80 149 260q29 65 126.5 297.5t156.5 355.5q150 310 272 522q34 56 86.5 67t108.5 -26q32 -21 39 -69q9 -72 -4 -248q-5 -56 -17.5 -194.5
t-19 -213.5t-12.5 -188.5t-6 -208.5q0 -152 16 -272q0 -15 6 -21q5 4 9 9t8.5 13.5t5.5 10.5q31 59 61 120.5t63.5 136.5t53 119t59.5 137.5t53 123.5q351 815 834 1669q202 360 405 723q17 26 21 39q7 32 45 22q38 -13 27 -49q-12 -43 -66 -149q-86 -172 -257.5 -488.5
t-205.5 -380.5q-331 -629 -706 -1540q-144 -344 -228 -510q-61 -111 -86 -143q-30 -38 -78.5 -47.5t-93.5 11t-65 64.5q-37 79 -53 236q-11 95 -11 208t4.5 190t14.5 208q5 55 17.5 185t19.5 200q-4 -2 -7.5 -6t-6.5 -10t-5 -8q-196 -361 -403 -891q-66 -167 -131 -273
q-22 -37 -45 -65q-48 -61 -118 -78.5t-136.5 12.5t-104.5 99q-54 98 -72 264q-26 220 25 586q107 724 393 1460q74 185 142 299q3 6 43 63q64 80 155 35q39 -19 39 -57q-1 -27 -3 -82.5t-3 -83.5q0 -13 -12 -19q-21 -6 -43 4.5t-29 32.5q-49 -120 -125 -344z" />
    <glyph glyph-name="X" unicode="X" horiz-adv-x="1871" 
d="M-121 -78q59 218 211 514q354 695 766 1274q23 34 18 72q-84 556 -110 856q-26 314 -8 504q4 46 22 62t64 18h35q37 -5 50.5 -18.5t16.5 -49.5q6 -63 37 -418q32 -329 88 -706q0 -1 4 -25q29 34 78 94.5t66 81.5q524 643 1157 1202q83 72 149 111q63 37 127 20
q10 -2 15.5 -4.5t10.5 -9.5t5 -18q-2 -25 -33 -29q-7 0 -12.5 -1.5t-11 -5.5t-8 -6.5l-8.5 -8.5l-7 -7q-214 -203 -539 -567q-537 -597 -921 -1139q-22 -36 -17 -67q112 -718 174 -1016q64 -329 156 -559q8 -19 13.5 -23.5t25.5 2.5l8 4q46 8 61.5 -9t2.5 -60
q-17 -55 -77 -70.5t-114 21.5q-42 29 -86 108q-104 201 -190 506q-11 37 -20.5 73.5t-19.5 80t-17 71.5t-17 80.5t-14 72t-15 81t-13 72.5t-13.5 80.5t-12.5 74.5q-12 79 -24 156q-5 0 -9 -2.5t-5.5 -4.5t-3.5 -6.5t-3 -5.5q-487 -765 -794 -1386q-16 -33 -99 -219
q-20 -43 -57.5 -57t-81.5 5q-26 10 -26 43q0 43 26 158z" />
    <glyph glyph-name="Y" unicode="Y" horiz-adv-x="1771" 
d="M1520 2736q12 23 82 164.5t114 212.5q1 2 3 5t3 5l13.5 22.5t16.5 25t19.5 15.5t30.5 9q92 0 144 -55q22 -24 22 -88q0 -158 -39 -328q-97 -449 -330 -1022q-328 -817 -811 -1481q-154 -219 -280 -334q-45 -39 -100 -69q-24 -12 -56.5 -8t-52.5 24q-19 16 -2 33
q64 65 131.5 153t105.5 144.5t111 169.5q609 941 938 1997q59 181 96 372q-19 -36 -39 -65q-66 -110 -201 -328.5t-202 -327.5q-84 -137 -230.5 -394.5t-183.5 -321.5q-159 -270 -297 -428q-89 -100 -161 -146q-69 -40 -137 -40.5t-127.5 41t-88.5 112.5q-44 107 -41 264
q2 214 86 553q135 537 299 938q61 144 119 227q28 40 56.5 49t74.5 -6q83 -26 80 -110q-3 -23 -29 -19q-24 2 -34 -24q-312 -798 -428 -1370q-55 -271 -39 -439q6 -61 26 -114q8 -22 31 -13q64 30 129 95q156 146 317 415q88 143 239.5 412t217.5 379q36 61 127.5 212.5
t156 263t120.5 218.5z" />
    <glyph glyph-name="Z" unicode="Z" horiz-adv-x="2048" 
d="M272 307q-50 -78 -63 -145q-6 -28 -2 -32.5t31 -2.5q52 3 106.5 9t129.5 16t106 14q78 9 261 31.5t285 34t253.5 22.5t277.5 12q45 3 74 -12q1 -1 7 -4.5t8 -5.5t6 -5.5t5 -7t0 -8.5t-3 -8.5t-6.5 -5l-7.5 -2.5t-9.5 -1.5t-8.5 -0.5q-215 -25 -258 -31
q-245 -30 -669 -100q-40 -6 -141 -23.5t-174.5 -27t-143.5 -13.5h-27q-140 -3 -235 56q-95 56 -66 163q20 82 98 197q65 99 155 215.5t144 180.5t173 202q584 681 970 1239q68 98 103.5 151t88 139t89.5 161q43 84 53 157q3 15 -2.5 20t-21.5 3q-163 -22 -353 -86
q-618 -204 -1087 -559q-101 -75 -156 -135q-4 -5 -12 -16.5t-12 -16.5q-18 -24 8 -35q26 -13 22 -29q-8 -18 -37 -8q-54 9 -94 49q-29 29 -12 70q24 63 82 121q192 210 502 393q410 247 835 356q212 56 354 29q115 -20 191 -82q74 -65 55 -168q-21 -99 -108 -240
q-66 -105 -153.5 -225t-152.5 -202.5t-171 -213.5q-160 -198 -462.5 -553t-410.5 -485q-286 -342 -414 -551z" />
    <glyph glyph-name="bracketleft" unicode="[" horiz-adv-x="1253" 
d="M1575 3181q-34 3 -117 -5q-212 -28 -463 -34q-15 0 -22 -4.5t-8 -20.5q-20 -201 -101 -532q-264 -1103 -467 -2192q-2 -10 -17 -91t-17.5 -96.5t-16.5 -88.5t-18.5 -96.5t-17.5 -88.5t-20 -96t-19 -88t-21 -95.5t-21 -87t-24 -93.5q-3 -19 0.5 -24.5t21.5 -2.5q9 1 80 6
q109 -5 152.5 -7t129.5 -13t152 -29q49 -12 88 -41q35 -26 31 -51q-2 -12 -11 -20t-16 -10t-22 -5q-32 -8 -133 -12q-44 -3 -131 -6t-156 -7.5t-131 -11.5q-37 -5 -111.5 -17.5t-111.5 -17.5q-124 -14 -199 25q-3 2 -8 5t-9 6t-7 7q-22 17 -22 32t22 32q67 53 184 88
q21 6 30 17.5t11 33.5q34 397 82 692q55 319 158 844q167 832 327 1464q13 51 39.5 157.5t42 170t36.5 154t36 166.5q0 1 1 3t1 3q6 32 1.5 38.5t-36.5 10.5q-56 6 -98 31q-25 17 -23 32q0 21 29 29q50 18 121 25q20 2 29 9.5t10 26.5q6 57 31.5 73.5t82.5 2.5
q51 -13 54 -59q1 -20 10 -25.5t28 -3.5q267 25 453 37q98 9 184 -14q41 -10 64 -33q16 -14 16.5 -29t-16.5 -26q-27 -17 -41 -25t-38.5 -16t-47.5 -6z" />
    <glyph glyph-name="backslash" unicode="\" horiz-adv-x="1497" 
d="M131 2828q77 48 141 -14q45 -39 136 -152q289 -363 692 -995q380 -592 563 -1145q66 -191 80 -295q7 -61 -22 -90t-93 -35q-25 -1 -59 27t-37 51q0 14 10 21q18 8 19 21.5t-7 27.5q-82 219 -282 637q-305 622 -830 1403q-215 319 -325 481q-13 22 -10.5 33.5t24.5 23.5z
" />
    <glyph glyph-name="bracketright" unicode="]" horiz-adv-x="1171" 
d="M678 3475q51 -26 45 -84q-9 -109 -47 -292q-35 -174 -115 -489.5t-102 -409.5q-142 -611 -289 -1350q-26 -125 -83.5 -416.5t-103 -507t-94.5 -413.5q-16 -71 -36 -136q-3 -12 0 -16.5t16 -5.5q78 -7 133 -43q4 -1 27 -19q47 -47 -17 -69q-17 -6 -36.5 -8t-43 -2.5
t-36.5 -1.5q-67 -7 -187.5 -21.5t-219.5 -24.5t-187 -14q-75 -4 -121 8q-5 2 -15.5 6.5t-15.5 6.5q-29 15 -34 27q-1 4 -1 9q1 6 3 10t7 7t8.5 4.5t11 4t9.5 3.5q142 47 420 92q6 0 8 2q56 7 66 17.5t16 68.5q40 360 109 768q29 172 64.5 365.5t63 335.5t75 374t69 334.5
t79 374t73.5 344.5q87 429 233 924q8 28 4.5 32t-31.5 1q-339 -27 -524 -27q-78 0 -127 29q-2 1 -9.5 6t-12.5 8q-38 35 8 59q56 25 143 39q225 46 463 52h121q25 -3 31 20q10 43 63 43q59 3 119 -25z" />
    <glyph glyph-name="asciicircum" unicode="^" horiz-adv-x="1153" 
d="M250 2382q-61 -61 -125 -67.5t-137 40.5q-42 27 -48 50t21 65q47 71 110 150.5t106.5 130t123.5 139.5q29 31 85.5 88.5t74.5 75.5q52 52 133 49q92 0 194 -45q155 -68 168 -254q3 -41 6 -141t7 -154q0 -5 1 -36.5t3.5 -42t8 -33t18.5 -37.5t32 -27q8 -5 11 -14.5
t-1 -18.5q-8 -21 -45 -25q-72 -10 -131 15t-94 66.5t-64 105t-41.5 110.5t-24.5 104t-15 66q-7 21 -17 66q-180 -246 -360 -426z" />
    <glyph glyph-name="underscore" unicode="_" horiz-adv-x="1409" 
d="M1196 14q-15 -34 -61 -34q-45 0 -84 28q-22 19 -50 19q-123 8 -182 10q-404 21 -813 -57q-85 -16 -145 28q-25 17 -24.5 32t26.5 32q74 42 196 71q347 84 738 35q3 0 33.5 -4t36.5 -5t33 -5t37 -6t32.5 -6t36.5 -8t32.5 -9.5t34.5 -11.5q65 -22 98 -53q5 -5 6 -5.5
t6 -5.5t6 -6.5t4.5 -6t4 -7.5t1.5 -7.5t0 -8.5t-3 -9z" />
    <glyph glyph-name="grave" unicode="`" horiz-adv-x="661" 
d="M309 3064q123 -97 207 -234q2 -4 5 -11t5 -11q19 -43 4 -60q-16 -19 -59 -10q-12 4 -18 4q-30 8 -62 27q-159 104 -239 184q-46 43 -68 88q-7 17 -10 24.5t-3 21.5t7 26q12 17 32 20.5t37 -0.5q85 -8 162 -69z" />
    <glyph glyph-name="a" unicode="a" horiz-adv-x="868" 
d="M-299 842q-45 27 -64.5 75t-9.5 109q17 110 99 238q172 276 405 428q111 73 221 39q53 -15 77.5 -45t27.5 -84v-5q-1 -5 2 -16t1 -19t-16 -12q-20 -7 -52 1.5t-40 23.5q-4 7 -3 23t-3 26q-14 32 -41 10q-103 -74 -227 -227q-142 -175 -219 -334q-37 -75 -39 -135
q15 5 41 31q151 139 338 407q21 30 39 60q28 40 90 40t90 -38q6 -9 8 -19.5t2 -17t-2 -20t-2 -17.5q-6 -46 -23.5 -132.5t-19.5 -96.5q-1 -8 -4.5 -25.5t-5.5 -28.5t-3.5 -27t-0.5 -30q27 27 53.5 56t60.5 70t47 56q10 12 40.5 49.5t52.5 62t45 46.5q53 50 104 31
q20 -8 23 -16t-9 -27q-13 -19 -89 -131t-120 -170q-66 -83 -129 -133q-41 -34 -91.5 -37.5t-96.5 24.5q-43 22 -57 88q-8 48 4 140q3 13 -2 26q-28 -37 -64 -80q-113 -146 -190 -211q-56 -47 -120.5 -54t-127.5 28z" />
    <glyph glyph-name="b" unicode="b" horiz-adv-x="966" 
d="M205 1982q-99 -320 -168 -589q-1 -5 -6 -35q2 0 2 -2q18 23 45 61q107 139 209 228q97 87 192 94q67 6 131 -25q67 -34 76 -108q12 -116 -37 -220q-118 -258 -284 -430q-68 -71 -160 -106q-135 -49 -252 39q-10 8 -13.5 10t-7.5 -1.5t-6 -16.5q-58 -325 -55 -594
q0 -101 18 -174q7 -32 25 -47q1 -1 5 -4.5t5 -4.5t3 -5t-1 -7q-7 -10 -26 -6q-59 13 -82 63q-30 61 -37 160q-43 410 49 877q131 666 463 1507q26 74 63 127q18 30 48.5 38t62.5 -7q26 -11 29 -43q1 -9 -4.5 -14.5t-9 -6t-13.5 -2.5q-6 -3 -9.5 -7.5t-5.5 -13t-3 -10.5
q-121 -314 -246 -725zM424 1599q-215 -170 -397 -442q-9 -12 -9 -24q0 -112 56 -207q13 -26 41 -15q67 26 127 93q132 146 247 378q41 87 41 183q-6 71 -6 73q0 25 -24 13q-40 -21 -76 -52z" />
    <glyph glyph-name="c" unicode="c" horiz-adv-x="806" 
d="M444 1788q14 -49 11 -102v-44v-7v-7.5t-1 -6t-3.5 -6t-6.5 -2.5t-10 -1q-1 0 -5 0.5t-5.5 0.5t-4.5 0.5t-4.5 1.5t-4 2t-3.5 2.5t-3 3.5t-2.5 5t-1.5 6.5t-1 7.5q-6 94 -65 179q-18 26 -39 0q-56 -65 -119 -179q-184 -346 -252 -610q-26 -100 -20 -194q0 -5 6 -47
q8 -26 15 -29.5t30 8.5q122 69 268 197q16 14 158.5 140t220.5 187q34 29 82 62q26 18 68 4q34 -11 8 -35q-15 -14 -41.5 -42.5t-40.5 -43.5q-43 -41 -134 -132.5t-163 -159t-143 -124.5q-101 -78 -166 -110q-87 -46 -174 -29q-134 21 -152 158q-18 129 33 297
q104 346 332 661q24 38 59 68q48 42 106 45.5t104.5 -30.5t63.5 -95z" />
    <glyph glyph-name="d" unicode="d" horiz-adv-x="854" 
d="M391 838q-95 -392 -117 -832q-3 -28 7 -51q5 -11 -2 -25t-21 -20q-25 -9 -51.5 5t-30.5 40q-6 26 -9 58.5t-4 49.5t-2 62t-1 53q-10 386 114 895q5 11 9 29q-4 0 -4 2q-17 -24 -60 -87.5t-67 -96.5q-58 -82 -91 -119q-32 -39 -82.5 -50.5t-95.5 7.5q-47 19 -65 86
q-17 76 0 182q59 377 284 633q115 131 275 125q54 -4 88 -21q15 -8 23 -5t14 20q67 186 207 495q195 430 426 803q6 11 14.5 23t19 25.5t15.5 21.5q22 31 59 28h4q46 -4 55 -22q2 -3 3 -8q8 -53 -31 -72q-1 0 -10 -14q-36 -74 -163 -324.5t-190 -390.5q-353 -800 -520 -1505
zM37 965q46 62 150.5 215.5t166.5 232.5q48 61 60 129q13 72 -17 133q-12 26 -25 29t-36 -12q-50 -34 -107 -109q-144 -190 -206 -424q-46 -157 -41 -266q9 13 27.5 36t27.5 36z" />
    <glyph glyph-name="e" unicode="e" horiz-adv-x="706" 
d="M616 1266q4 -3 1.5 -8t-4 -7t-6.5 -6t-7 -6q-210 -200 -418 -336q-110 -75 -211 -88q-43 -4 -65 0q-84 12 -120 62t-36 161q3 103 84 262q111 220 277 386q52 52 96 77q90 52 186 6q73 -34 58 -110q-29 -126 -134 -264q-71 -92 -182 -172q-100 -77 -192 -11
q-13 10 -19 -6q-64 -150 -57 -260v-2q6 -56 25.5 -69t70.5 6q119 43 283 157q64 46 305 226q19 14 29 16q29 0 36 -14zM307 1702q-168 -125 -315 -371q66 28 110 8q4 -2 8 0t7.5 6t5.5 5q121 121 176 278q13 50 8 74z" />
    <glyph glyph-name="f" unicode="f" horiz-adv-x="811" 
d="M-162 1063q-10 -7 -24 -25q13 0 41 4q115 12 194.5 -52.5t93.5 -180.5q11 -119 -26 -254q-129 -533 -207 -776q-21 -75 -57 -139q-46 -86 -125.5 -93.5t-141.5 68.5q-60 75 -88 201q-48 206 -20 503q23 257 87 516t169 580q255 761 534 1348q33 75 72 127q29 42 82 30
q37 -9 39 -28q4 -38 -19 -53q-5 -5 -14 -23q-371 -900 -551 -1495q-8 -28 -24.5 -85.5t-24.5 -86.5q10 0 29 14q319 208 626 291q22 5 97 19q2 2 8 2q40 0 45 -19q1 -8 -4 -12t-18 -7l-13 -3q-367 -104 -760 -371zM-92 1001q-16 -1 -32 -4t-35.5 -7.5t-30.5 -6.5
q-18 -3 -26 -12t-13 -27q-94 -367 -125 -678q-25 -270 4 -459q18 -115 57 -182q20 18 43 56q39 65 76 174q27 79 56 177.5t44.5 154.5t50.5 187.5t43 162.5q37 128 39 215q7 137 -63 215q-37 40 -88 34z" />
    <glyph glyph-name="g" unicode="g" horiz-adv-x="1187" 
d="M1069 1362q-25 10 -51 -10q-162 -105 -393 -310q-93 -76 -129 -118q-18 -21 -24 -48.5t-6 -63.5t-3 -54q-57 -324 -240 -699q-122 -255 -250 -428q-62 -82 -125 -127q-72 -51 -161 -39q-82 12 -109 86q-39 93 -14 242q37 214 192 457q206 322 539 639q25 25 22 55
q-4 173 -32 289q-2 9 -8.5 26.5t-8.5 22.5q-20 -22 -59 -80q-11 -16 -50 -73.5t-57 -83.5t-50 -68.5t-60 -75.5q-44 -51 -80 -82q-80 -69 -193 -43q-72 18 -81 92q-7 67 20 176q107 399 381 680q97 104 201 127q80 15 157 -6q57 -16 86.5 -56t46.5 -103q5 -15 -14 -23
q-42 -16 -70 20q-36 49 -81 80q-37 23 -72 -2q-64 -55 -125 -129q-248 -298 -334 -676q-4 -11 -8 -41q13 0 27 19q74 81 184 250q72 109 96 137q70 81 191 61q77 -13 110 -98q22 -60 37 -172q0 -23 6 -53q22 18 61.5 50.5t57.5 47.5q173 136 291 209q95 58 168 51
q36 -3 63 -24q27 -17 -2 -27q-22 -11 -47 -4zM174 295q93 234 125 436q-5 -5 -13 -12t-10 -10q-230 -238 -409 -519q-138 -214 -176 -413q-25 -138 16 -226q13 -31 39 -8q71 62 127 154q161 252 301 598z" />
    <glyph glyph-name="h" unicode="h" horiz-adv-x="1017" 
d="M961 1360q-141 -205 -310 -291q-70 -32 -125 -25q-76 13 -115.5 62.5t-45.5 138.5q-5 89 18 236q-11 -3 -25 -27q-63 -101 -123.5 -207.5t-148 -267t-115.5 -211.5q-4 -8 -11 -23.5t-11 -23.5q-19 -32 -39 -41.5t-55 -3.5q-92 15 -101 82q-11 90 8 192q9 54 21 109
t29.5 118t29.5 103t35.5 117t32.5 106q221 707 487 1309q97 215 207 391q23 40 72 31q34 -7 42.5 -23t-3.5 -47q-28 -63 -84.5 -189t-83.5 -190q-320 -751 -557 -1628q-22 -75 -45 -166l8 -4q27 48 121 203q162 268 305 481q22 31 41.5 37t54.5 -6q29 -9 41 -27t14 -53
q0 -49 -10 -137t-12 -113q-12 -143 10 -223q5 -21 14 -26t31 3q131 56 258 187q44 44 64 67q32 32 69 6q17 -11 7 -26z" />
    <glyph glyph-name="i" unicode="i" horiz-adv-x="585" 
d="M72 1690q45 104 155 65q34 -12 29 -49q-4 -28 -12 -58.5t-19 -68.5t-16 -57q-2 -7 -15.5 -50.5t-16.5 -54.5t-14.5 -50t-15.5 -54.5t-13.5 -49.5t-14 -55t-11 -50.5t-11.5 -56t-9 -52.5q-16 -104 2 -158q7 -26 15 -29t30 12q14 9 29 20t26 19.5t27 23t24 21.5t26 25
t23 22.5t25 25.5t22.5 24t24.5 26.5t23 24.5q46 51 199 246q16 22 43 22q20 -2 24 -9t-6 -24q-78 -139 -182 -264q-95 -118 -203 -217q-84 -75 -194 -69q-68 6 -111.5 47t-52.5 108q-1 8 -2 26t-2 25q8 165 63 357q57 210 111 336zM252 1911q-17 -20 -46.5 -25t-51.5 10
q-26 15 -2 43q54 54 139 74q12 2 32.5 4t24.5 2t21.5 0.5t24.5 -3t9 -13.5t-4.5 -14.5t-20.5 -7t-18 -3.5q-61 -17 -108 -67z" />
    <glyph glyph-name="j" unicode="j" horiz-adv-x="706" 
d="M-135 1507q2 -5 -8 -10q-54 -15 -107 -36.5t-109 -54t-92.5 -55t-101 -66.5t-92.5 -62q-125 -82 -277 -207q-24 -16 -30 -51q-102 -593 -322 -1151q-110 -276 -280 -465q-93 -103 -201 -154q-74 -36 -150 -22q-144 26 -170 204q-26 188 70 422q111 267 342 586
q246 342 561 602q20 14 23 41q40 285 90 660q2 8 2 22q3 32 13 40t42 5q46 -3 64 -24t16 -68q-3 -51 -9 -102.5t-18 -128.5t-16 -103q-4 -28 -8.5 -60.5t-10.5 -72t-10 -63.5q13 1 35 18q294 206 506 311q117 60 195 64q34 0 45 -8q8 -4 8 -11zM-1425 -264
q73 166 135.5 376.5t92.5 345.5t83 392q-4 -4 -13.5 -12.5t-13.5 -12.5q-410 -383 -704 -911q-124 -221 -148 -385q-18 -148 25 -246q23 -54 53 -65t82 14q89 43 174 135q145 158 234 369zM-1004 1972q68 77 139 117.5t160 36.5q38 -4 58 -19q11 -7 10 -15.5t-14 -12.5
q-22 -7 -43.5 -18t-36 -21t-35.5 -29.5t-30 -28.5t-31.5 -34t-28.5 -31q-30 -34 -64 -31q-40 3 -63 15q-25 14 -31.5 33t10.5 38z" />
    <glyph glyph-name="k" unicode="k" horiz-adv-x="956" 
d="M319 760q-93 -61 -217 -45q-133 18 -247 94q-65 43 -86.5 95t-6.5 128q5 18 -8 21q-6 4 -10 0.5t-5 -5.5t-2 -8.5t-1 -7.5q-117 -406 -164 -639q-68 -342 -61 -590q0 -68 16 -120q7 -28 27 -45q13 -13 10 -21q-4 -10 -25 -10q-30 -3 -61.5 19t-46.5 57q-31 66 -35 182
q-11 303 63 663q215 1012 727 2018q118 237 201 358q27 39 66 31q45 -9 26 -49q-20 -45 -61 -136.5t-62 -136.5q-94 -201 -149.5 -323.5t-130.5 -300t-131 -330.5q-12 -31 -25 -66t-28 -76.5t-23 -64.5q26 23 82 75.5t88 78.5q130 99 235 129q85 25 162 -9
q38 -15 48.5 -39.5t-3.5 -62.5q-22 -62 -98 -145q-32 -35 -65.5 -68.5t-81 -76.5t-66.5 -60.5t-84 -74t-72 -62.5l-8 -5q-7 -5 -8 -7t-1.5 -8t3.5 -13q1 -6 1 -7t-6 -6t-7 -6q-59 -35 -82 -43q-18 -5 -21 -26q-6 -122 84 -187q153 -106 285 -34q24 13 61 2q19 -5 21 -17
q1 -5 -1 -8.5t-8.5 -7t-7.5 -4.5zM-203 1151q49 22 225.5 189.5t210.5 224.5q-147 -107 -252.5 -202.5t-183.5 -211.5z" />
    <glyph glyph-name="l" unicode="l" horiz-adv-x="698" 
d="M516 1333q36 9 45 -4q5 -5 2.5 -11t-4.5 -8.5t-8 -7t-8 -6.5q-27 -30 -53.5 -63t-53.5 -72.5t-45 -66t-49.5 -75.5t-44.5 -69q-59 -91 -113.5 -185.5t-135.5 -246t-103 -190.5q-44 -83 -86 -135q-60 -68 -154 -56q-59 6 -74 66q-21 82 -14 194q14 368 121 760
q191 717 538 1469q17 37 58 129.5t71.5 159t61.5 128.5q19 38 51 92q52 83 146 64q26 -6 32.5 -18t-4.5 -35q-7 -15 -19 -41t-21.5 -47t-18.5 -39q-183 -380 -416 -975q-255 -648 -369 -1239q-47 -227 -63 -477v-56q27 33 57 88q34 58 132 232t157 266l33 49.5t35.5 53.5
t32 47.5t37 52.5t34.5 46.5t38.5 51t37 45t41.5 47.5q38 41 74 68q11 11 22 14z" />
    <glyph glyph-name="m" unicode="m" horiz-adv-x="1368" 
d="M721 1096q-6 102 29 290q6 36 8 44q-15 -10 -43 -48q-21 -26 -39 -53t-40.5 -66t-31 -54t-36.5 -69t-31 -59q-20 -45 -60 -98q-25 -34 -69 -46t-82 3q-28 11 -35 49q-14 80 16 207q28 118 119 387q2 6 7.5 21.5t8.5 23.5q-68 -86 -157 -250q-41 -75 -115 -227t-115 -227
q-31 -61 -61 -101q-29 -39 -74.5 -55.5t-93.5 -5.5q-48 12 -57 61q-14 86 8 217q44 299 170 605q24 66 67 120q52 66 144 50q21 -3 26.5 -13.5t-0.5 -32.5q-2 -16 -10 -43q-5 -19 -12 -20q-10 -2 -17.5 -8.5t-10 -11t-6.5 -17t-5 -14.5q-121 -362 -170 -656q0 -12 -2 -22
q5 2 9 6t6 7.5t5 9.5l4 8q44 72 126 220.5t126 221.5q172 272 265 389q37 48 102 45q28 -3 38.5 -14t10.5 -39q-3 -66 -47 -227q-84 -298 -107 -396q-4 -17 0 -24q78 116 86 127q87 121 150 178q42 39 90 39q28 0 42 -12t17 -39q3 -21 3 -123q-5 -66 -4.5 -150.5
t12.5 -148.5q0 -23 8 -25q5 -2 8 0t7 7.5t5 6.5q90 93 312 361q23 27 45 27q18 4 26 -9q4 -5 -6 -24q-44 -75 -127 -180q-44 -59 -188 -242q-57 -70 -144 -64q-56 6 -77 56q-27 62 -33 127z" />
    <glyph glyph-name="n" unicode="n" horiz-adv-x="991" 
d="M973 1438q18 0 24 -8q5 -8 -10 -23q-49 -59 -102 -117q-76 -82 -232 -250q-56 -59 -127 -59q-97 -3 -127 88q-6 17 -9.5 34t-5 40t-2 32.5t0 40.5t0.5 35q2 49 2 154q-56 -61 -139 -178q-31 -46 -63 -98t-71.5 -119.5t-58.5 -98.5q-7 -13 -22.5 -37t-22.5 -38
q-52 -87 -168 -74q-40 3 -58 23t-20 61q-5 95 33 241q9 34 21 70.5t21 64.5t25 71t24 63.5t28 70t25 62.5t28.5 69t26.5 64q20 56 41 96q17 35 68 49t85 -6q19 -12 15 -39q-5 -30 -13 -60t-23 -72.5t-20 -57.5q-90 -272 -133 -434q-10 -28 -8 -39q11 4 23 24
q158 221 333 408q38 44 107 37q41 -3 47 -43q8 -59 10 -84q1 -41 3 -122t3 -122q0 -55 21 -98q12 9 23 19.5t26.5 26.5t20.5 21q22 23 69.5 72t75.5 77.5t69.5 68t77.5 71.5q29 26 58 23z" />
    <glyph glyph-name="o" unicode="o" horiz-adv-x="673" 
d="M260 1616q108 9 125 -96q2 -14 2.5 -30.5t0.5 -28t-2.5 -32t-4 -27.5t-5.5 -31t-5 -28q-40 -228 -174 -380q-77 -89 -199 -86q-130 0 -139 131q-2 20 -2 61q38 270 186 487q60 88 145 93q3 0 11.5 0.5t12 0t10.5 -2t10.5 -4t7 -8t4.5 -13.5q1 -5 3 -6.5t7 -0.5t6 1z
M223 1399q4 82 -4 123q-5 21 -14 22q-11 0 -18 -15q-1 -2 -1 -3q-5 -13 -21 -50.5t-24 -58.5q-73 -188 -86 -346q-4 -61 13 -92q19 23 24 31q117 144 131 389z" />
    <glyph glyph-name="p" unicode="p" horiz-adv-x="874" 
d="M330 1667q84 -21 84 -108q3 -98 -58 -216q-127 -248 -333 -430q-171 -151 -365 -100q-11 4 -15 0.5t-7 -15.5q-1 -2 -1 -3q-72 -277 -112 -547q-48 -337 -12 -651q6 -61 9 -86.5t16.5 -72t35.5 -79.5q11 -19 -10 -23q-38 -8 -58 13q-42 39 -61 102q-28 86 -39.5 175.5
t-19.5 213.5q-19 243 18 489t117 537q12 45 8 68q-6 35 18 59q18 18 25 49q202 645 364 1031q13 29 33 63q13 25 37.5 33.5t50.5 -2.5q10 -5 11 -6q11 -9 5.5 -56t-18.5 -53q-11 -4 -18 -22q-37 -106 -104.5 -305t-96.5 -283q-2 -2 -2 -10q17 15 57 52t64 56q64 52 119 84.5
t118 46.5q76 16 140 -4zM227 1518q0 51 -6 53q-6 0 -12 -2.5t-12.5 -7.5t-10.5 -7q-2 -1 -16 -10q-275 -179 -455 -502q-13 -20 9 -36q30 -20 4 -31q-8 -4 -11.5 -7.5t-1.5 -8.5t3 -7t6 -8q33 -39 41 -42q10 -5 39 11q15 8 20 11t14.5 9t14.5 9q212 169 325 397
q42 89 49 179z" />
    <glyph glyph-name="q" unicode="q" horiz-adv-x="1103" 
d="M1034 1360q29 0 33 -12q2 -6 -1.5 -9.5t-12 -6t-9.5 -3.5q-322 -128 -540 -260q-103 -66 -125 -158q-14 -46 -45 -132t-35 -97q-8 -21 6 -31q165 -111 139 -329q-34 -248 -172 -467q-34 -52 -73 -86q-55 -46 -126 -29.5t-100 82.5q-30 68 -26 172q0 192 71 440
q14 52 74 248q0 2 2.5 9.5t2 9.5l-2.5 10q-24 34 2 71q42 60 74 136t63 169t54 146q18 40 20 76q-3 -4 -6.5 -9.5t-8 -12.5t-7.5 -11q-158 -223 -226 -305q-43 -50 -75 -78q-30 -24 -67.5 -28.5t-70.5 7.5t-57.5 40.5t-30.5 66.5q-16 98 31 219q77 223 258 369
q78 64 171.5 71t178.5 -49q27 -17 41 21q8 16 22.5 46t22.5 46q10 21 31 58.5t29 54.5q26 49 57 58.5t94 -11.5q34 -12 41.5 -30t-6.5 -52q-238 -578 -244 -592q-4 -11 -12 -31.5t-8 -21.5q123 60 317 139q100 42 226 80q10 2 26 6zM348 377q16 122 -55 213q-18 25 -27 -2
q-3 -9 -17.5 -58t-18.5 -62t-16.5 -56.5t-17.5 -62t-15.5 -57t-16 -62.5t-13 -57t-13.5 -62.5t-11 -59.5q-21 -119 -14 -211q12 12 32 37q164 213 203 500zM336 1509q12 12 0 27q-21 34 -57 14q-46 -25 -89 -65q-131 -125 -210 -318q-31 -74 -41 -133q5 2 9 5t8.5 8.5
t6.5 7.5q53 61 176.5 217.5t196.5 236.5z" />
    <glyph glyph-name="r" unicode="r" horiz-adv-x="856" 
d="M-168 887q-18 14 -22 57q-7 82 26 203q70 239 199 485q4 7 12 20.5t12 20.5q16 28 43.5 39t51.5 9t47 -11q35 -11 18 -47q-76 -171 -149 -379q122 150 194 225l23 23q55 49 103 51t106 -41q46 -34 82 -35.5t86 27.5q35 20 59 10q32 -10 8 -31q-53 -47 -121 -53
q-111 -6 -194 53q-23 18 -43 -2q-58 -54 -152 -176q-116 -153 -201 -360q-10 -28 -22 -51q-22 -47 -73.5 -58t-92.5 21z" />
    <glyph glyph-name="s" unicode="s" horiz-adv-x="1060" 
d="M-82 1157q-45 22 -60 53t-5 80q17 84 84 187q176 265 436 477q98 76 180 71q58 -3 98 -24q39 -20 48 -45.5t-9 -63.5q-7 -17 -22.5 -47t-22.5 -47q-27 -63 -33 -102q0 -2 -0.5 -9t-1.5 -10.5t-3 -8t-7 -6.5t-12 -1q-45 0 -58 29q-32 64 -22 155q-78 -57 -188.5 -180
t-194 -245t-92.5 -177q5 -1 10 0.5t11 5t9 4.5q28 12 100.5 45.5t112.5 49.5q144 59 240 28q43 -12 64 -32t38 -64q52 32 66 39q174 94 309 125q37 10 66 -2q22 -13 22 -23q2 -11 -18 -15q0 -1 -1 -1h-1q-106 -37 -203 -94t-221 -142q-22 -14 -25 -41q-67 -442 -456 -784
q-27 -24 -70 -45q-59 -29 -123 -4q-60 22 -57 102q6 78 35 164q77 232 292 434q129 115 213 172q38 25 35 70q-7 63 -14 66.5t-59 -19.5q-35 -13 -71 -29.5t-86 -41t-69 -33.5q-134 -60 -227 -33q-2 0 -37 12zM14 369q69 35 174 166.5t183.5 275.5t77.5 211
q-180 -155 -277 -281q-107 -147 -143 -272q-17 -69 -15 -100z" />
    <glyph glyph-name="t" unicode="t" horiz-adv-x="636" 
d="M2101 2820q-2 -14 -35 -20q-17 -1 -35 1t-38.5 6t-30.5 5q-215 21 -551 14q-345 -5 -778 -22q-28 0 -38 -11q-4 -4 -7 -10q-23 -43 -104.5 -193t-116.5 -216t-97.5 -185.5t-110.5 -218t-93 -196.5q-263 -580 -422 -1127q-49 -166 -56 -276q-3 -57 11 -92q8 -25 36 -11
q66 37 177 144q13 14 39 40.5t40 39.5q20 20 37 20q36 5 43 -8q1 -5 1.5 -8t-3 -8t-6 -7.5t-7.5 -7t-7 -6.5q-124 -142 -205 -203q-53 -41 -115 -53q-70 -11 -115 18t-57 93q-16 106 17 282q36 194 141 529q220 684 709 1501q15 24 40.5 69t36.5 64q9 13 8 19.5t-20 6.5
q-87 -6 -261 -17t-261 -17q-22 -1 -79.5 -4t-87 -5t-76.5 -6t-87.5 -8.5t-79.5 -11.5q-10 -1 -32.5 -5t-32 -5t-32 -2.5t-32.5 2.5q-14 0 -20 2q-21 10 -21 20q1 4 2.5 7t5 5.5t6 3.5l7.5 3t6 2q78 21 221 36q362 37 899 66q23 2 35 27q77 130 217 356q20 32 60 41.5
t65 -10.5q14 -12 6 -45q-16 -45 -76 -162q-56 -110 -92 -170q-7 -19 -3.5 -22t20.5 -3q488 15 583 15q382 7 641 -15q100 -6 187 -30q2 -1 7.5 -2.5t7.5 -2t6.5 -3t3.5 -5.5t-1 -8z" />
    <glyph glyph-name="u" unicode="u" horiz-adv-x="880" 
d="M420 1034q-13 217 26 410l3 18q-24 -39 -103 -180q-114 -219 -192 -326q-21 -30 -56 -65q-69 -72 -176 -35q-53 15 -67 86q-15 88 8 242q37 215 153 442q18 34 43.5 51t53 17t59.5 -6q26 -6 32 -18t-1 -38q-13 -45 -43.5 -148t-51 -179.5t-36.5 -149.5q-27 -109 -31 -180
q81 90 139 188q38 62 143.5 242t165.5 276q25 38 46 43q51 12 72 -7t11 -68q-57 -297 -75 -523q0 -10 -1 -30.5t-1 -32.5v-33q22 25 43 51.5t46.5 61t37.5 49.5q27 34 75.5 98.5t63.5 83.5q3 7 10 15q18 24 47 10q17 -10 4 -41q-52 -107 -149 -236q-79 -105 -119 -143
q-31 -28 -59 -35q-54 -12 -86 11.5t-35 78.5z" />
    <glyph glyph-name="v" unicode="v" horiz-adv-x="745" 
d="M-47 791q-32 21 -39 69q-15 81 0 223q29 292 98 594q4 22 8 33q14 43 56.5 52t73.5 -25q10 -10 11.5 -27.5t-1.5 -30.5q-2 -40 -6.5 -87t-8.5 -78t-11.5 -88t-10.5 -80q-27 -223 -33 -293v-23q2 -2 6 -2q26 43 77.5 130t78.5 130q251 399 600 758q65 65 115 94
q59 30 100 17q20 -4 23 -17q2 -6 -0.5 -9.5t-10 -6t-8.5 -2.5q-17 -10 -31.5 -21t-33 -30t-24 -25t-28.5 -31q-376 -431 -645 -934q-10 -18 -34 -63t-37 -68.5t-34.5 -59t-41.5 -63.5q-38 -57 -95 -66.5t-114 30.5z" />
    <glyph glyph-name="w" unicode="w" horiz-adv-x="1173" 
d="M2 836q-109 17 -137 98q-37 102 -2 254q12 56 34 123t36 104t50 124t44 108q27 70 61 137q20 41 42.5 52t66.5 1q18 -3 41 -14q28 -12 33.5 -25.5t-3.5 -42.5q-21 -67 -83.5 -252t-92.5 -286q-17 -57 -20 -103q4 10 22 41q114 199 268 373q42 50 109 31q31 -9 44.5 -26.5
t16.5 -49.5q5 -63 5 -228q2 -83 14 -251q0 -19 8 -25q5 11 19.5 43.5t21.5 50.5q162 425 543 834q21 22 82 71q22 13 35 11q1 0 10 -2.5t12.5 -3.5t8.5 -5t7 -10q3 -4 0.5 -9t-5.5 -8t-8 -7t-7 -7q-390 -452 -569 -895q-48 -115 -76 -161t-79.5 -46t-80.5 44q-40 61 -55 188
q-25 178 -23 299q0 2 -0.5 4l-1.5 6l-2 8q-82 -113 -125 -200q-22 -41 -61.5 -120t-57.5 -112q-3 -9 -24 -45q-47 -81 -121 -71z" />
    <glyph glyph-name="x" unicode="x" horiz-adv-x="974" 
d="M242 1389q-92 -108 -174 -222q-18 -25 -13 -43q25 -113 49 -186q6 -17 13 -19t20 9q64 53 203 196q199 214 459 373q56 31 92 35q25 4 45 -4q24 -5 27 -21q1 -6 -2 -10t-10 -7.5l-9 -4.5q-190 -141 -440 -395q-172 -177 -221 -222q-42 -39 -94 -52t-99 -2t-87 43.5
t-60 80.5q-2 3 -13 20q-40 -61 -121 -184q-10 -15 -30.5 -43.5t-30.5 -42.5q-22 -25 -51 -16q-23 6 -28.5 15.5t3.5 31.5q16 34 34 68t41 73t37.5 63.5t43 72t39.5 65.5q16 30 10 65q-63 290 -14 574q6 36 21 49t48 10q45 -5 65 -21.5t21 -51.5q6 -151 9 -308
q1 -5 1.5 -17.5t1.5 -23t5 -20.5q6 4 11 10t10.5 13.5t8.5 11.5q312 409 777 682q66 39 155 65q39 8 60 -4q12 -4 12 -14q0 -9 -12 -13q-96 -45 -190 -107t-168 -121t-162 -144.5t-146 -147t-147 -159.5z" />
    <glyph glyph-name="y" unicode="y" horiz-adv-x="1339" 
d="M1374 1440q-16 -7 -33 -16.5t-29.5 -17t-32 -20.5t-28 -19.5t-30.5 -22.5t-29 -21q-157 -108 -350 -281q-22 -22 -27 -49q-112 -562 -356 -1042q-84 -169 -203 -309q-62 -66 -109 -91q-69 -39 -143 0q-50 23 -57 95q-9 116 41 295q108 371 389 749q146 202 309 352
q17 17 21 31q54 321 51 563q0 8 -4 58q-86 -95 -168 -205q-38 -49 -79.5 -111t-68.5 -106t-72.5 -120t-66.5 -110q-39 -65 -92 -124q-67 -76 -170 -48q-101 28 -119 127q-19 88 6 217q33 190 96 332q22 51 53 65t83 -1q41 -11 53.5 -32.5t-2.5 -59.5q-15 -41 -26.5 -86.5
t-25.5 -109.5t-20 -89q-26 -114 -31 -189v-32q15 7 37 37q38 45 73.5 95t85.5 126.5t67 101.5q153 225 231 320q32 40 78 80q21 19 55.5 23.5t67.5 -4.5t59.5 -35t32.5 -62q12 -72 0 -215q-4 -50 -39 -289q11 -2 25 12q231 171 368 244q71 42 127 49q9 -2 8.5 -23t-6.5 -30
v-2zM586 596q36 112 73 260q-7 -7 -15.5 -16t-10.5 -11q-147 -166 -293 -393q-205 -321 -274 -608q-8 -38 -10.5 -53t-7 -46.5t-4 -56t4.5 -49.5q3 -23 8.5 -24.5t22.5 14.5q61 52 135 168q230 365 371 815z" />
    <glyph glyph-name="z" unicode="z" horiz-adv-x="1017" 
d="M823 1397q0 -3 -0.5 -5.5t-1.5 -4t-3 -3t-3.5 -2.5t-5 -1.5t-5 -1t-5 -1t-4.5 -0.5q-58 -14 -136 -69q-86 -60 -198 -158q-15 -11 -15 -27q-1 -117 -34 -228.5t-93 -252.5q-146 -338 -376 -616q-81 -95 -160 -148q-89 -58 -186 -35q-77 18 -80 101q-2 60 28 153
q95 273 326 578q193 257 451 473q18 15 18.5 29.5t-14.5 40.5q-15 27 -52 10q-103 -47 -161 -119q-28 -34 -68 -43t-78 8q-21 9 -23.5 18.5t11.5 28.5q159 218 264 439q47 104 53 161q-5 4 -16 -2q-264 -174 -367 -444q-3 -9 -8 -27.5t-8 -27.5q-19 -69 37 -105q1 -1 4 -2.5
t4.5 -2.5t4 -3.5t2 -4.5t-0.5 -5q-5 -11 -24 -6q-89 29 -109 38q-47 21 -43 97q5 59 37 135q7 16 26.5 50t36 62t17.5 31h2q109 156 280 262q90 56 175 48q63 -6 86 -37t8 -92q-27 -108 -113 -275q-32 -61 -74 -133q65 11 103 6q53 -4 76 -33q8 -9 15 -11t11 0t15 9
q74 59 163 111q92 49 162 51h17q30 0 32 -14zM326 936q18 68 14 102q-13 -13 -25 -22q-53 -53 -176 -189q-142 -168 -246 -324t-174 -325q-51 -116 -63 -203q-3 -16 -2.5 -36.5t12.5 -28.5q5 -2 9 -2t10.5 4t10.5 7.5t10.5 9t10.5 8.5q105 79 226 237q283 368 383 762z" />
    <glyph glyph-name="braceleft" unicode="{" horiz-adv-x="980" 
d="M1124 3391q-65 -69 -100 -129q-95 -158 -129 -385q-74 -477 -164 -739q-86 -253 -217 -414q-71 -88 -149 -141q-1 -1 -4.5 -3t-5 -3.5t-3.5 -4t-1.5 -4.5t2.5 -5.5t7 -6.5q88 -58 99 -200q1 -19 1.5 -39.5t0.5 -38t-2 -40.5t-3 -37t-4.5 -39.5t-5 -37t-6.5 -39.5
t-6.5 -37t-7 -39.5t-6.5 -37.5q-21 -110 -79.5 -309.5t-78.5 -288.5q-11 -46 -35.5 -138t-41.5 -165.5t-27 -141.5q-40 -267 35 -495q1 -3 18 -37q10 -16 33 -10q47 13 102 -23q23 -16 6 -39q-33 -51 -69 -65t-97 -2q-93 16 -178 88q-55 48 -78 161q-59 305 33 654
q123 451 205 774q52 200 55 414q0 75 -16 135q-8 23 -35 26q-65 3 -117 43q-20 19 -17 37.5t28 26.5q30 9 56 23.5t51 39t38.5 39.5t40.5 47q146 180 225 467q19 64 36 142.5t27.5 134.5t27 149t24.5 138q38 206 65 291q24 76 58 139q88 164 225 256q121 82 258 4
q76 -43 45 -129q-3 -10 -12 -31t-12 -31q-6 -27 -31 -24q-2 0 -6 1l-6 1.5t-5.5 1t-5.5 1.5l-5 2.5t-5 3t-4 3.5t-3.5 4.5t-2.5 6t-2 7.5q-4 54 -19 88z" />
    <glyph glyph-name="bar" unicode="|" horiz-adv-x="1021" 
d="M950 3682q54 -10 70 -31.5t8 -74.5q-31 -206 -106 -457q-305 -1028 -672 -2462q-52 -201 -142 -572.5t-124 -506.5q-43 -179 -99 -309q-22 -46 -61 -41q-30 0 -57 10q-43 14 -46 64q0 165 56 462q21 117 49.5 249.5t48.5 222t62 255t56.5 220t67 253.5t60.5 228
q38 143 101 390.5t117.5 454.5t106.5 388q41 140 88 285.5t118 352t96 281.5q75 222 98 297q14 45 65 45q15 0 39 -4z" />
    <glyph glyph-name="braceright" unicode="}" horiz-adv-x="1132" 
d="M629 1536q52 -4 78 -33q26 -26 -2 -41q-13 -7 -41 -49q-34 -58 -66.5 -134t-48 -120.5t-47.5 -142.5q-133 -394 -185 -854q-34 -308 -98 -541q-8 -29 -51 -151q-6 -14 -16 -28.5t-18 -23.5t-24 -25l-22 -22q-170 -182 -373 -114q-41 11 -75 41l-7 7t-6 7.5t-4 9t0 10.5
q9 17 31 17q39 6 45 4q14 -4 27 -5t26 3.5t21 7.5t22 13.5t18 14.5t19 17q49 46 74 105.5t43 144.5q23 93 44 206t32 191t29.5 213.5t27.5 196.5q70 465 299 880q36 65 94 123q9 9 8.5 15.5t-12.5 13.5q-130 73 -133 244q-9 270 74 551q20 68 61 200t72 237.5t55 201.5
q64 248 39 436q-7 58 -25 98q-12 28 -41 25q-44 -3 -77 -13q-27 -7 -50 5q-22 9 -24 24q0 17 20 25q76 49 181 28q97 -20 150.5 -82t72.5 -174q10 -56 10 -135q-5 -193 -84 -485q-13 -44 -52 -178t-63.5 -224.5t-42.5 -179.5q-47 -217 -53 -434q0 -41 2 -64q4 -41 14 -49.5
t52 -13.5z" />
    <glyph glyph-name="asciitilde" unicode="~" horiz-adv-x="1280" 
d="M90 1182q-32 -28 -76.5 -27t-76.5 29q-28 21 -13 55q90 184 217 260q43 26 92 30.5t89 -5.5t92 -31q37 -14 73.5 -43t56.5 -50.5t56 -64.5q9 -9 18.5 -20t13.5 -16.5t11 -11.5t9 -8.5t9 -3.5t9 -0.5t11.5 4t14.5 6.5t19.5 11t25.5 13q102 55 187 153q26 32 72.5 33.5
t74.5 -29.5q15 -15 4 -39q-69 -184 -250 -286q-47 -29 -124 -29q-242 15 -379 207q-20 25 -35.5 26.5t-38.5 -18.5q-35 -28 -162 -145z" />
    <glyph glyph-name="exclamdown" unicode="&#xa1;" horiz-adv-x="925" 
d="M-94 -399q-26 13 -31 26t4 41q209 613 248 735q261 833 395 1452q83 384 96 691q3 68 -2 120q-4 25 -14 41q-11 17 -7 25.5t26 11.5q44 8 94.5 -21t70.5 -73q28 -61 35 -164q8 -121 6 -190q-8 -507 -170 -1086q-208 -746 -467 -1337q-71 -162 -116 -231q-64 -99 -168 -41
zM428 2998q-17 6 -25.5 9.5t-17.5 14.5t-6 25q2 9 9 14t15.5 5.5t18.5 1t18 0.5h17q33 -5 68.5 3t56 17t59.5 29q13 7 40 21.5t40 21.5q111 61 231 -18q32 -22 31.5 -48t-31.5 -51q-68 -54 -200 -80q-155 -32 -324 35z" />
    <glyph glyph-name="brokenbar" unicode="&#xa6;" horiz-adv-x="1021" 
d="M186 1448l45 170q110 437 215 807q94 316 226 698q18 49 76 221l18 54q12 36 25.5 76t29.5 89.5t25 77.5q15 48 65 45q15 0 39 -4q52 -9 72 -32q15 -21 6 -74q-40 -246 -106 -457q-231 -790 -467 -1671q-134 18 -269 0zM416 1300q-163 -629 -166 -643q-93 -364 -166 -671
q-76 -314 -100 -408q-36 -162 -99 -309q-20 -44 -61 -41q-30 0 -57 10q-46 15 -46 64q6 228 56 462q124 636 305 1280q20 81 39 148l22 86q141 22 273 22z" />
    <glyph glyph-name="dieresis" unicode="&#xa8;" horiz-adv-x="774" 
d="M88 3060q30 24 69 19t66 -32q46 -43 27 -108q-3 -7 -3.5 -24.5t-4.5 -26.5q-25 -45 -52.5 -67.5t-68.5 -18.5q-62 -3 -103 18q-59 29 -36 92q35 89 106 148zM446 3060q30 24 68.5 19t67.5 -32q43 -43 24 -108q-1 -5 -1.5 -23.5t-6.5 -27.5q-49 -93 -121 -86
q-61 -3 -102 18q-60 31 -37 92q35 90 108 148z" />
    <glyph glyph-name="macron" unicode="&#xaf;" horiz-adv-x="1409" 
d="M1356 2890q-15 -35 -62 -35q-44 0 -84 29q-21 18 -49 18q-123 8 -182 10q-404 21 -813 -57q-85 -16 -146 29q-25 17 -24 31.5t27 31.5q76 44 196 72q347 84 737 35q193 -25 277 -56q65 -22 98 -53q27 -23 28 -38q1 -8 -3 -17z" />
    <glyph glyph-name="plusminus" unicode="&#xb1;" horiz-adv-x="1460" 
d="M1257 1632q45 -12 78 -41q21 -21 17 -37q-9 -25 -37 -28q-37 -4 -62 10q-20 8 -59 8q-159 -5 -381 -33q-31 -5 -39 -32q-72 -257 -233 -809q-3 -15 -6 -27q-6 -27 -15 -33.5t-37 -3.5q-75 12 -75 96q0 44 18 168q35 198 115 562q4 19 0 23t-21 -1q-208 -53 -356 -127
q-25 -12 -64 2.5t-49 40.5q-9 21 17 51q43 43 104 76q156 90 375 129q26 4 37.5 16t17.5 37q1 6 13 54.5t14.5 59t13.5 53.5t15.5 59t14.5 53t17 58t17 52.5t20 58t21 52.5q22 58 51 109q23 40 67 34q1 0 43 -6q55 -17 68.5 -40.5t1.5 -80.5q-23 -95 -73.5 -266.5
t-65.5 -224.5q-5 -19 -6 -21q-6 -15 -1.5 -20.5t21.5 -5.5h166q8 0 35 -0.5t40 -1t38 -2t42.5 -4t39.5 -7t42 -10.5zM934 332q-12 -35 -43 -35q-34 0 -60 29q-15 18 -34 18q-88 8 -127 10q-286 21 -572 -57q-58 -16 -100 29q-19 17 -19 31.5t19 31.5q54 44 137 72
q244 84 518 35q48 -9 69 -13t58.5 -16t65.5 -27q46 -22 69 -53q27 -31 19 -55z" />
    <glyph glyph-name="acute" unicode="&#xb4;" horiz-adv-x="661" 
d="M299 3064q77 61 162 69q17 4 37 0.5t32 -20.5q7 -12 7 -26t-3 -21.5t-10 -24.5q-23 -47 -67 -88q-78 -78 -240 -184q-33 -20 -61 -27q-7 0 -19 -4q-43 -9 -59 10q-15 17 4 60q2 4 5 11t5 11q84 137 207 234z" />
    <glyph glyph-name="periodcentered" unicode="&#xb7;" horiz-adv-x="495" 
d="M84 1491q35 27 79.5 21.5t76.5 -35.5q48 -48 28 -125q-2 -7 -2.5 -27.5t-7.5 -30.5q-26 -50 -58 -76t-79 -22q-65 -6 -117 21q-67 34 -43 104q41 103 123 170z" />
    <glyph glyph-name="periodcentered" unicode="&#x2219;" horiz-adv-x="495" 
d="M84 1491q35 27 79.5 21.5t76.5 -35.5q48 -48 28 -125q-2 -7 -2.5 -27.5t-7.5 -30.5q-26 -50 -58 -76t-79 -22q-65 -6 -117 21q-67 34 -43 104q41 103 123 170z" />
    <glyph glyph-name="cedilla" unicode="&#xb8;" horiz-adv-x="446" 
d="M147 514q42 -19 65.5 -43.5t29.5 -64.5q6 -39 -9.5 -83t-46.5 -65q-22 -15 -54.5 -25.5t-53 -16t-38.5 -28.5t-24 -65q-4 -34 -34 -48.5t-57 -0.5t-23 49q13 110 69 170q34 34 72 43q6 1 18.5 3t18.5 3q25 -3 32.5 13.5t-1.5 50.5q-51 25 -77 53.5t-30 64.5t1 67.5
t14 81.5t10 87q2 35 31 49.5t57 0t26 -49.5q-1 -22 -18 -83t-16 -103.5t38 -59.5z" />
    <glyph glyph-name="questiondown" unicode="&#xbf;" horiz-adv-x="1923" 
d="M-295 158q27 141 135 331q85 149 191 290.5t254 320.5q63 74 189.5 220t224.5 263t182 227q241 308 348 545q45 106 57 182q13 78 -22 132q-1 2 -5.5 10t-4 10l2.5 10q7 11 33 6q36 -6 60 -30q92 -95 80 -219q-14 -136 -109 -334q-152 -315 -459 -686
q-69 -84 -195.5 -234t-229 -274.5t-189.5 -239.5q-198 -263 -289 -471q-54 -122 -57 -231v-17q2 -80 34 -113t111 -36h29q224 8 465 131q671 328 962 1073q65 166 76 276q2 16 2 50q-6 98 -106 77q-56 -14 -123 -63q-1 -1 -4.5 -4t-5.5 -4.5t-5 -2.5t-6 0.5t-6 4.5
q-2 2 -3 3.5t-1 3.5t0.5 4t2 4t2 3.5t2.5 4t3 3.5q53 60 107 93q45 22 116 4q109 -31 157.5 -110t25.5 -191q-52 -255 -209 -535q-235 -411 -565 -645q-332 -237 -652 -289q-245 -42 -422 56q-233 127 -184 391zM995 2851q-38 19 -55 43q-16 26 12 37q5 3 19 8
q140 38 352 168q5 3 15.5 10t15.5 10q61 37 124.5 26.5t110.5 -65.5q34 -36 4 -82q-27 -36 -92 -73q-198 -107 -395 -99q-3 0 -16.5 -0.5t-22 0t-22 1.5t-26 5t-24.5 11z" />
    <glyph glyph-name="Agrave" unicode="&#xc0;" horiz-adv-x="1939" 
d="M96 1163q-38 19 -10 54q20 24 107 106q157 145 331 250q36 22 49 55q282 549 541 899q217 296 432 463q37 28 59.5 43t59.5 29.5t72 15.5q70 3 131 -31q61 -38 61 -114q3 -6 0 -34.5t-1.5 -34t-3.5 -34.5t-5.5 -34.5t-6.5 -34t-7 -34t-7.5 -34t-7.5 -33.5
q-21 -90 -48 -188.5t-62.5 -221t-53.5 -186.5q-9 -32 -5 -36t36 2q94 16 146 16q46 0 69 -12q1 -1 5 -3t5.5 -3t4.5 -3.5t4 -4.5t1.5 -5t0.5 -6q-3 -10 -25 -14q-38 -8 -78 -19t-91.5 -26.5t-76.5 -22.5q-38 -10 -49 -49q-331 -1223 -561 -2216q-5 -22 -15 -32t-32 -7
q-64 6 -61 58q2 93 32 245q163 845 424 1876q0 2 1 4.5t1 3.5q0 3 2 9t2.5 9t-2.5 7q-6 2 -8 2t-7.5 -3t-6.5 -3q-121 -47 -152 -62q-305 -125 -637 -313q-35 -21 -51 -55q-62 -120 -185 -359.5t-184 -359.5q-6 -8 -5.5 -16t12.5 -13q8 -3 8 -9t-10 -9q-5 -1 -43 -23
q-17 -10 -44.5 -5t-41.5 20q-3 3 -5.5 6.5t-2.5 8t-0.5 7t1 8t2 7t3 7.5t2.5 7q28 87 94 223q29 59 88.5 177t89.5 177q14 23 12 35q-45 -32 -94 -63q-51 -29 -104 -64q-44 -27 -99 0zM1720 2925q-120 -95 -233.5 -210t-203.5 -225t-186.5 -250.5t-166.5 -254t-160 -267.5
l6 -6q6 3 18.5 8.5t18.5 8.5q295 140 655 231q35 8 43 43q6 28 35 137q14 57 52.5 205t64 254.5t45.5 206.5q17 84 12 119zM1868 3420q124 -98 207 -233q2 -4 5 -11.5t5 -11.5q19 -42 4 -59q-16 -19 -59 -10q-12 4 -19 4q-31 8 -61 26q-159 104 -240 185q-46 43 -68 88
q-17 39 -12 56q1 8 6 15q18 25 70 21q84 -8 162 -70z" />
    <glyph glyph-name="Aacute" unicode="&#xc1;" horiz-adv-x="1939" 
d="M96 1163q-38 19 -10 54q20 24 107 106q157 145 331 250q36 22 49 55q282 549 541 899q217 296 432 463q37 28 59.5 43t59.5 29.5t72 15.5q70 3 131 -31q61 -38 61 -114q3 -6 0 -34.5t-1.5 -34t-3.5 -34.5t-5.5 -34.5t-6.5 -34t-7 -34t-7.5 -34t-7.5 -33.5
q-21 -90 -48 -188.5t-62.5 -221t-53.5 -186.5q-9 -32 -5 -36t36 2q94 16 146 16q46 0 69 -12q1 -1 5 -3t5.5 -3t4.5 -3.5t4 -4.5t1.5 -5t0.5 -6q-3 -10 -25 -14q-38 -8 -78 -19t-91.5 -26.5t-76.5 -22.5q-38 -10 -49 -49q-331 -1223 -561 -2216q-5 -22 -15 -32t-32 -7
q-64 6 -61 58q2 93 32 245q163 845 424 1876q0 2 1 4.5t1 3.5q0 3 2 9t2.5 9t-2.5 7q-6 2 -8 2t-7.5 -3t-6.5 -3q-121 -47 -152 -62q-305 -125 -637 -313q-35 -21 -51 -55q-62 -120 -185 -359.5t-184 -359.5q-6 -8 -5.5 -16t12.5 -13q8 -3 8 -9t-10 -9q-5 -1 -43 -23
q-17 -10 -44.5 -5t-41.5 20q-3 3 -5.5 6.5t-2.5 8t-0.5 7t1 8t2 7t3 7.5t2.5 7q28 87 94 223q29 59 88.5 177t89.5 177q14 23 12 35q-45 -32 -94 -63q-51 -29 -104 -64q-44 -27 -99 0zM1720 2925q-120 -95 -233.5 -210t-203.5 -225t-186.5 -250.5t-166.5 -254t-160 -267.5
l6 -6q6 3 18.5 8.5t18.5 8.5q295 140 655 231q35 8 43 43q6 28 35 137q14 57 52.5 205t64 254.5t45.5 206.5q17 84 12 119zM1976 3490q77 61 162 69q17 4 37.5 0.5t32.5 -20.5q7 -12 7 -26t-3 -21.5t-10 -24.5q-22 -45 -68 -88q-78 -78 -240 -184q-33 -20 -61 -27
q-6 0 -18 -4q-43 -9 -60 10q-15 17 4 60q2 4 5 11t5 11q84 137 207 234z" />
    <glyph glyph-name="Acircumflex" unicode="&#xc2;" horiz-adv-x="1939" 
d="M96 1163q-38 19 -10 54q20 24 107 106q157 145 331 250q36 22 49 55q282 549 541 899q217 296 432 463q37 28 59.5 43t59.5 29.5t72 15.5q70 3 131 -31q61 -38 61 -114q3 -6 0 -34.5t-1.5 -34t-3.5 -34.5t-5.5 -34.5t-6.5 -34t-7 -34t-7.5 -34t-7.5 -33.5
q-21 -90 -48 -188.5t-62.5 -221t-53.5 -186.5q-9 -32 -5 -36t36 2q94 16 146 16q46 0 69 -12q1 -1 5 -3t5.5 -3t4.5 -3.5t4 -4.5t1.5 -5t0.5 -6q-3 -10 -25 -14q-38 -8 -78 -19t-91.5 -26.5t-76.5 -22.5q-38 -10 -49 -49q-331 -1223 -561 -2216q-5 -22 -15 -32t-32 -7
q-64 6 -61 58q2 93 32 245q163 845 424 1876q0 2 1 4.5t1 3.5q0 3 2 9t2.5 9t-2.5 7q-6 2 -8 2t-7.5 -3t-6.5 -3q-121 -47 -152 -62q-305 -125 -637 -313q-35 -21 -51 -55q-62 -120 -185 -359.5t-184 -359.5q-6 -8 -5.5 -16t12.5 -13q8 -3 8 -9t-10 -9q-5 -1 -43 -23
q-17 -10 -44.5 -5t-41.5 20q-3 3 -5.5 6.5t-2.5 8t-0.5 7t1 8t2 7t3 7.5t2.5 7q28 87 94 223q29 59 88.5 177t89.5 177q14 23 12 35q-45 -32 -94 -63q-51 -29 -104 -64q-44 -27 -99 0zM1720 2925q-120 -95 -233.5 -210t-203.5 -225t-186.5 -250.5t-166.5 -254t-160 -267.5
l6 -6q6 3 18.5 8.5t18.5 8.5q295 140 655 231q35 8 43 43q6 28 35 137q14 57 52.5 205t64 254.5t45.5 206.5q17 84 12 119zM1724 3176q-67 -65 -147 -14q-23 15 -26 28t12 36q60 91 190 233q18 22 88 92q30 30 74 27q45 0 108 -25q90 -43 93 -141q2 -27 4 -82t4 -82
q0 -3 0.5 -17t1 -19t3 -16.5t5.5 -17.5t9.5 -14t15.5 -14q12 -8 6 -19q-6 -14 -25 -14q-101 -3 -164 72q-32 40 -59 135q-1 3 -4 15t-4 20q-50 -43 -185 -183z" />
    <glyph glyph-name="Atilde" unicode="&#xc3;" horiz-adv-x="1939" 
d="M96 1163q-38 19 -10 54q20 24 107 106q157 145 331 250q36 22 49 55q282 549 541 899q217 296 432 463q37 28 59.5 43t59.5 29.5t72 15.5q70 3 131 -31q61 -38 61 -114q3 -6 0 -34.5t-1.5 -34t-3.5 -34.5t-5.5 -34.5t-6.5 -34t-7 -34t-7.5 -34t-7.5 -33.5
q-21 -90 -48 -188.5t-62.5 -221t-53.5 -186.5q-9 -32 -5 -36t36 2q94 16 146 16q46 0 69 -12q1 -1 5 -3t5.5 -3t4.5 -3.5t4 -4.5t1.5 -5t0.5 -6q-3 -10 -25 -14q-38 -8 -78 -19t-91.5 -26.5t-76.5 -22.5q-38 -10 -49 -49q-331 -1223 -561 -2216q-5 -22 -15 -32t-32 -7
q-64 6 -61 58q2 93 32 245q163 845 424 1876q0 2 1 4.5t1 3.5q0 3 2 9t2.5 9t-2.5 7q-6 2 -8 2t-7.5 -3t-6.5 -3q-121 -47 -152 -62q-305 -125 -637 -313q-35 -21 -51 -55q-62 -120 -185 -359.5t-184 -359.5q-6 -8 -5.5 -16t12.5 -13q8 -3 8 -9t-10 -9q-5 -1 -43 -23
q-17 -10 -44.5 -5t-41.5 20q-3 3 -5.5 6.5t-2.5 8t-0.5 7t1 8t2 7t3 7.5t2.5 7q28 87 94 223q29 59 88.5 177t89.5 177q14 23 12 35q-45 -32 -94 -63q-51 -29 -104 -64q-44 -27 -99 0zM1720 2925q-120 -95 -233.5 -210t-203.5 -225t-186.5 -250.5t-166.5 -254t-160 -267.5
l6 -6q6 3 18.5 8.5t18.5 8.5q295 140 655 231q35 8 43 43q6 28 35 137q14 57 52.5 205t64 254.5t45.5 206.5q17 84 12 119zM1536 3172q-23 -20 -55.5 -20t-55.5 20q-20 17 -10 41q66 136 158 189q31 19 67 22.5t65 -3.5t67 -23q9 -4 18 -8.5t17.5 -10.5t15.5 -10.5
t15.5 -12.5t13.5 -12.5t14.5 -14.5t13.5 -14t14 -15t13 -15q7 -8 14 -17t11 -12.5t7 -9t7 -5.5t6 -2t9 2t10.5 5t15.5 8t20 11q81 44 135 110q20 23 54.5 24.5t54.5 -20.5q9 -11 2 -28q-52 -135 -180 -209q-40 -22 -93 -19q-171 9 -274 148q-13 19 -24.5 19.5t-28.5 -13.5
q-18 -15 -37.5 -32.5t-43 -39t-36.5 -33.5z" />
    <glyph glyph-name="Adieresis" unicode="&#xc4;" horiz-adv-x="1939" 
d="M96 1163q-38 19 -10 54q20 24 107 106q157 145 331 250q36 22 49 55q282 549 541 899q217 296 432 463q37 28 59.5 43t59.5 29.5t72 15.5q70 3 131 -31q61 -38 61 -114q3 -6 0 -34.5t-1.5 -34t-3.5 -34.5t-5.5 -34.5t-6.5 -34t-7 -34t-7.5 -34t-7.5 -33.5
q-21 -90 -48 -188.5t-62.5 -221t-53.5 -186.5q-9 -32 -5 -36t36 2q94 16 146 16q46 0 69 -12q1 -1 5 -3t5.5 -3t4.5 -3.5t4 -4.5t1.5 -5t0.5 -6q-3 -10 -25 -14q-38 -8 -78 -19t-91.5 -26.5t-76.5 -22.5q-38 -10 -49 -49q-331 -1223 -561 -2216q-5 -22 -15 -32t-32 -7
q-64 6 -61 58q2 93 32 245q163 845 424 1876q0 2 1 4.5t1 3.5q0 3 2 9t2.5 9t-2.5 7q-6 2 -8 2t-7.5 -3t-6.5 -3q-121 -47 -152 -62q-305 -125 -637 -313q-35 -21 -51 -55q-62 -120 -185 -359.5t-184 -359.5q-6 -8 -5.5 -16t12.5 -13q8 -3 8 -9t-10 -9q-5 -1 -43 -23
q-17 -10 -44.5 -5t-41.5 20q-3 3 -5.5 6.5t-2.5 8t-0.5 7t1 8t2 7t3 7.5t2.5 7q28 87 94 223q29 59 88.5 177t89.5 177q14 23 12 35q-45 -32 -94 -63q-51 -29 -104 -64q-44 -27 -99 0zM1720 2925q-120 -95 -233.5 -210t-203.5 -225t-186.5 -250.5t-166.5 -254t-160 -267.5
l6 -6q6 3 18.5 8.5t18.5 8.5q295 140 655 231q35 8 43 43q6 28 35 137q14 57 52.5 205t64 254.5t45.5 206.5q17 84 12 119zM1626 3398q30 24 69 19t66 -32q46 -43 27 -108q-3 -7 -3.5 -24.5t-4.5 -26.5q-25 -45 -52.5 -67.5t-68.5 -18.5q-62 -3 -103 18q-59 29 -36 92
q35 89 106 148zM1985 3398q30 24 68 19t67 -32q43 -43 24 -108q-1 -5 -1.5 -23.5t-6.5 -27.5q-49 -93 -121 -86q-61 -3 -102 18q-60 31 -37 92q35 89 109 148z" />
    <glyph glyph-name="Aring" unicode="&#xc5;" horiz-adv-x="1939" 
d="M96 1163q-38 19 -10 54q20 24 107 106q157 145 331 250q36 22 49 55q282 549 541 899q217 296 432 463q37 28 59.5 43t59.5 29.5t72 15.5q70 3 131 -31q61 -38 61 -114q3 -6 0 -34.5t-1.5 -34t-3.5 -34.5t-5.5 -34.5t-6.5 -34t-7 -34t-7.5 -34t-7.5 -33.5
q-21 -90 -48 -188.5t-62.5 -221t-53.5 -186.5q-9 -32 -5 -36t36 2q94 16 146 16q46 0 69 -12q1 -1 5 -3t5.5 -3t4.5 -3.5t4 -4.5t1.5 -5t0.5 -6q-3 -10 -25 -14q-38 -8 -78 -19t-91.5 -26.5t-76.5 -22.5q-38 -10 -49 -49q-331 -1223 -561 -2216q-5 -22 -15 -32t-32 -7
q-64 6 -61 58q2 93 32 245q163 845 424 1876q0 2 1 4.5t1 3.5q0 3 2 9t2.5 9t-2.5 7q-6 2 -8 2t-7.5 -3t-6.5 -3q-121 -47 -152 -62q-305 -125 -637 -313q-35 -21 -51 -55q-62 -120 -185 -359.5t-184 -359.5q-6 -8 -5.5 -16t12.5 -13q8 -3 8 -9t-10 -9q-5 -1 -43 -23
q-17 -10 -44.5 -5t-41.5 20q-3 3 -5.5 6.5t-2.5 8t-0.5 7t1 8t2 7t3 7.5t2.5 7q28 87 94 223q29 59 88.5 177t89.5 177q14 23 12 35q-45 -32 -94 -63q-51 -29 -104 -64q-44 -27 -99 0zM1720 2925q-120 -95 -233.5 -210t-203.5 -225t-186.5 -250.5t-166.5 -254t-160 -267.5
l6 -6q6 3 18.5 8.5t18.5 8.5q295 140 655 231q35 8 43 43q6 28 35 137q14 57 52.5 205t64 254.5t45.5 206.5q17 84 12 119zM2021 3469q68 6 80 -41q5 -22 -8 -75q-26 -99 -113 -166q-45 -37 -127 -37q-84 0 -90 57v27q23 111 119 211q42 37 94 39q31 0 35 -13q0 -2 10 -2z
M1997 3375q4 37 -2 53q-5 11 -8 11q-9 0 -13 -9q-15 -21 -28 -47q-48 -78 -56 -149q-4 -25 8 -39q3 2 8.5 6t8.5 6q75 65 82 168z" />
    <glyph glyph-name="AE" unicode="&#xc6;" horiz-adv-x="3112" 
d="M1710 2925q-309 -250 -532 -558q-220 -303 -418 -649q2 -2 4 -2q2 -2 2 -4l12 6q6 2 25 11q322 150 655 231q37 9 43 43q2 11 23 92l12 45q24 105 51 207q61 228 111 459q2 2 2 4q13 49 10 115zM1356 1425q86 346 94 377v4q2 2 2 4q0 7 2 9t2 8t-2 8t-8 2q-2 -1 -5.5 -2
t-4.5 -2l-4 -2q-5 -2 -15.5 -6t-15.5 -6q-49 -17 -121 -50q-324 -136 -637 -313q-33 -20 -51 -55q-62 -120 -184.5 -359.5t-184.5 -359.5q0 -2 -2 -2q-4 -12 -4 -14q0 -7 12 -13q9 -3 9 -8q0 -6 -11 -10q-8 -3 -32 -17q-10 -5 -11 -6q-18 -9 -45 -6q-23 2 -41 21
q-10 14 -8 24q0 12 6 21q0 4 2 6q44 124 95 223q86 173 104 207l74 147q1 1 2 3.5t2 3.5l6 12q2 4 2 16q-5 -3 -15.5 -10t-15.5 -10q-12 -7 -63 -43l-53 -33q-22 -12 -52 -31q-49 -27 -98 0q-41 18 -10 54q49 55 104 104l2 2q155 143 332 250q34 21 49 55q238 478 541 899
q191 270 432 463q82 76 190 88q71 3 132 -31q64 -40 61 -114q-3 -147 -39 -273q-56 -227 -113 -419q-27 -89 -51 -177v-2q-9 -31 -4 -34q4 -7 35 2q35 6 98 14q148 151 295 278q386 345 846 576q151 80 303 106q117 15 215 -32q110 -55 55 -166q-55 -91 -108 -146
q-17 -20 -51 -58t-52 -58q-171 -189 -380 -451q-4 -6 -12 -15.5t-9 -11.5q-63 -74 -125 -176q-1 -1 -2 -3t-2 -3q-8 -16 -10 -24q-3 -16 6 -31q6 -8 2 -12q-10 -5 -14 -5q-35 -8 -64 17q-29 22 -26 59q6 63 38 111q88 156 220 313l10 15q76 94 127 155q116 139 201 258
q46 57 73 129l2 2q1 3 3 10.5t3 10.5q0 8 -6 14q-3 6 -10 6q-3 -1 -7.5 -2t-6.5 -2l-8 -4q-209 -60 -388 -166q-664 -381 -1163 -960q-133 -150 -254 -332q-13 -48 -38 -145.5t-38 -145.5q12 -6 33 -6q153 3 295 37q3 1 11 2t12 2q97 19 209 45q170 39 350 70q83 16 153 -17
q69 -34 21 -88q-87 -96 -174 -172q-33 -33 -49 -47l-9 -8q-232 -207 -448 -449q-98 -104 -164 -239q-27 -55 -18 -119q3 -26 16 -33q7 -7 37 -4q75 18 147 53q321 154 625 357q42 26 86 2q29 -13 4 -35q-73 -66 -141 -115q-210 -149 -443 -270q-114 -69 -251 -78
q-72 0 -144 29q-141 64 -100 215q47 144 147 252q157 183 328 338q16 16 46 42.5t36 32.5q13 12 66 64.5t83 79.5l90 88l5 4q4 2 12 10q4 8 6 14q-49 -9 -70 -14t-64 -14.5t-65 -14.5q-31 -5 -104 -22q-180 -42 -352 -68q-124 -18 -240 8q-175 -673 -350 -1425
q-3 -19 -15 -31q-9 -11 -32 -8q-62 6 -62 58q6 122 33 245q138 701 274 1274q-9 42 3 94q24 76 53 131zM1747 1937l-35 -10q-40 -9 -49 -49q-2 -10 -7.5 -28.5t-6.5 -24.5q62 74 98 112z" />
    <glyph glyph-name="Ccedilla" unicode="&#xc7;" horiz-adv-x="1824" 
d="M219 55q-37 18 -76 60q-74 95 -80 213q-3 24 0 49v22q9 258 95 502q309 984 991 1745q168 191 371 348q95 79 213 88q77 3 145 -35q75 -47 72 -131q-3 -101 -33 -196q-117 -414 -301 -803q-43 -87 -92 -156q-9 -12 -19 -22t-24 -13q-41 -4 -58.5 13.5t-11.5 56.5
q42 145 78 234l29 77q132 351 217 686q17 66 20 148q0 23 -4 27q-4 2 -27 -11q-165 -103 -297 -241q-611 -623 -946 -1432q-149 -339 -221 -692q-36 -156 -14 -328v-4q6 31 33 43q28 12 55 0q26 -12 26 -49q-3 -40 -14 -78q-13 -49 -16 -65q14 0 20 4q88 40 148 100
q168 165 297 326q5 6 15 18.5t15 18.5q65 80 109 131q171 215 373 430q24 21 47 24q24 0 43 -8q21 -9 24 -18q4 -11 -12 -27q-57 -77 -104 -137l-193 -254l-74 -98q-151 -209 -307 -388q-66 -80 -151 -147q-107 -76 -230 -70q2 -1 7.5 -4t7.5 -4q79 -28 94 -108
q6 -41 -8 -82q-16 -47 -48 -66q-42 -24 -73 -31q-38 -10 -62 -26q-26 -20 -35 -78q-6 -36 -34 -49q-28 -12 -56 0q-27 12 -24 49q6 98 69 170q14 14 33 25q21 12 39 18q6 1 18.5 3t18.5 3q26 -1 34 14.5t-3 49.5q-96 47 -105 106q-7 27 -4 49z" />
    <glyph glyph-name="Egrave" unicode="&#xc8;" 
d="M125 1106q-120 56 -90 188q24 89 115 228q295 427 722 800q428 370 846 576q169 86 303 106q121 16 215 -32q112 -53 56 -166q-36 -66 -109 -146q-18 -20 -94.5 -106.5t-107 -121.5t-89 -103t-103.5 -124t-89 -112q-8 -10 -30 -38t-33 -42.5t-28 -37.5t-30 -43.5
t-25 -41.5q-1 -2 -3.5 -6t-3.5 -6l-3 -6t-3 -6.5t-1.5 -6.5t-0.5 -7t0.5 -7t2 -8t4.5 -8q9 -12 -12 -17q-34 -9 -63.5 16t-26.5 60q2 39 39 111q70 127 229 328q25 32 146.5 180.5t181.5 232.5q58 82 74 129q10 29 2 37q-7 8 -33 -2q-173 -44 -387 -166
q-652 -370 -1164 -960q-182 -212 -282 -377q-60 -93 -70 -166v-37q5 -28 16 -38t40 -11q26 -1 55 0.5t51.5 3.5t55 7.5t50 9t54.5 10.5t51 10q50 10 250 53.5t309 61.5q93 14 154 -17q34 -17 39 -38t-19 -50q-31 -36 -64 -69.5t-89.5 -85.5t-69.5 -64
q-101 -94 -161.5 -151.5t-145 -143.5t-150.5 -162q-116 -137 -164 -239q-29 -71 -18 -119q4 -28 14.5 -35t38.5 -2q66 13 148 53q333 160 624 357q37 26 86 2q29 -13 4 -35q-73 -66 -141 -115q-213 -151 -442 -270q-145 -78 -252 -78q-79 0 -144 29q-144 63 -100 215
q13 45 39 93t48 78.5t61 80.5q44 53 102.5 114t90.5 92.5t116 111t100 95.5q40 39 120 116t120 116q18 13 22 28q-38 -8 -104.5 -22.5t-93.5 -20.5q-43 -9 -141.5 -30.5t-172.5 -36t-143 -23.5q-148 -18 -250 11q-19 5 -49 16zM1769 3410q123 -97 207 -234l11 -22
q19 -42 4 -59q-17 -20 -60 -11q-12 4 -18 4q-30 8 -62 27q-159 104 -239 184q-46 43 -68 88q-7 17 -10 24.5t-3 21.5t7 26q18 25 70 21q82 -8 161 -70z" />
    <glyph glyph-name="Eacute" unicode="&#xc9;" 
d="M125 1106q-120 56 -90 188q24 89 115 228q295 427 722 800q428 370 846 576q169 86 303 106q121 16 215 -32q112 -53 56 -166q-36 -66 -109 -146q-18 -20 -94.5 -106.5t-107 -121.5t-89 -103t-103.5 -124t-89 -112q-8 -10 -30 -38t-33 -42.5t-28 -37.5t-30 -43.5
t-25 -41.5q-1 -2 -3.5 -6t-3.5 -6l-3 -6t-3 -6.5t-1.5 -6.5t-0.5 -7t0.5 -7t2 -8t4.5 -8q9 -12 -12 -17q-34 -9 -63.5 16t-26.5 60q2 39 39 111q70 127 229 328q25 32 146.5 180.5t181.5 232.5q58 82 74 129q10 29 2 37q-7 8 -33 -2q-173 -44 -387 -166
q-652 -370 -1164 -960q-182 -212 -282 -377q-60 -93 -70 -166v-37q5 -28 16 -38t40 -11q26 -1 55 0.5t51.5 3.5t55 7.5t50 9t54.5 10.5t51 10q50 10 250 53.5t309 61.5q93 14 154 -17q34 -17 39 -38t-19 -50q-31 -36 -64 -69.5t-89.5 -85.5t-69.5 -64
q-101 -94 -161.5 -151.5t-145 -143.5t-150.5 -162q-116 -137 -164 -239q-29 -71 -18 -119q4 -28 14.5 -35t38.5 -2q66 13 148 53q333 160 624 357q37 26 86 2q29 -13 4 -35q-73 -66 -141 -115q-213 -151 -442 -270q-145 -78 -252 -78q-79 0 -144 29q-144 63 -100 215
q13 45 39 93t48 78.5t61 80.5q44 53 102.5 114t90.5 92.5t116 111t100 95.5q40 39 120 116t120 116q18 13 22 28q-38 -8 -104.5 -22.5t-93.5 -20.5q-43 -9 -141.5 -30.5t-172.5 -36t-143 -23.5q-148 -18 -250 11q-19 5 -49 16zM1808 3410q78 62 162 70q52 4 70 -21
q7 -12 7 -26t-3 -21.5t-10 -24.5q-22 -45 -68 -88q-78 -78 -240 -184q-33 -20 -61 -27q-6 0 -18 -4q-43 -9 -60 11q-15 17 4 59l11 22q85 139 206 234z" />
    <glyph glyph-name="Ecircumflex" unicode="&#xca;" 
d="M125 1106q-120 56 -90 188q24 89 115 228q295 427 722 800q428 370 846 576q169 86 303 106q121 16 215 -32q112 -53 56 -166q-36 -66 -109 -146q-18 -20 -94.5 -106.5t-107 -121.5t-89 -103t-103.5 -124t-89 -112q-8 -10 -30 -38t-33 -42.5t-28 -37.5t-30 -43.5
t-25 -41.5q-1 -2 -3.5 -6t-3.5 -6l-3 -6t-3 -6.5t-1.5 -6.5t-0.5 -7t0.5 -7t2 -8t4.5 -8q9 -12 -12 -17q-34 -9 -63.5 16t-26.5 60q2 39 39 111q70 127 229 328q25 32 146.5 180.5t181.5 232.5q58 82 74 129q10 29 2 37q-7 8 -33 -2q-173 -44 -387 -166
q-652 -370 -1164 -960q-182 -212 -282 -377q-60 -93 -70 -166v-37q5 -28 16 -38t40 -11q26 -1 55 0.5t51.5 3.5t55 7.5t50 9t54.5 10.5t51 10q50 10 250 53.5t309 61.5q93 14 154 -17q34 -17 39 -38t-19 -50q-31 -36 -64 -69.5t-89.5 -85.5t-69.5 -64
q-101 -94 -161.5 -151.5t-145 -143.5t-150.5 -162q-116 -137 -164 -239q-29 -71 -18 -119q4 -28 14.5 -35t38.5 -2q66 13 148 53q333 160 624 357q37 26 86 2q29 -13 4 -35q-73 -66 -141 -115q-213 -151 -442 -270q-145 -78 -252 -78q-79 0 -144 29q-144 63 -100 215
q13 45 39 93t48 78.5t61 80.5q44 53 102.5 114t90.5 92.5t116 111t100 95.5q40 39 120 116t120 116q18 13 22 28q-38 -8 -104.5 -22.5t-93.5 -20.5q-43 -9 -141.5 -30.5t-172.5 -36t-143 -23.5q-148 -18 -250 11q-19 5 -49 16zM1726 3138q-68 -65 -147 -15q-23 15 -26 28
t12 36q60 91 190 233q18 22 88 92q30 30 74 27q45 0 108 -25q90 -43 93 -141q2 -27 4 -82t4 -82q0 -3 0.5 -17t1 -19t3 -16.5t5.5 -17.5t9.5 -14t15.5 -14q12 -8 6 -19q-6 -14 -25 -14q-101 -3 -164 72q-32 40 -59 135q-1 3 -4 15t-4 20q-56 -48 -185 -182z" />
    <glyph glyph-name="Edieresis" unicode="&#xcb;" 
d="M125 1106q-120 56 -90 188q24 89 115 228q295 427 722 800q428 370 846 576q169 86 303 106q121 16 215 -32q112 -53 56 -166q-36 -66 -109 -146q-18 -20 -94.5 -106.5t-107 -121.5t-89 -103t-103.5 -124t-89 -112q-8 -10 -30 -38t-33 -42.5t-28 -37.5t-30 -43.5
t-25 -41.5q-1 -2 -3.5 -6t-3.5 -6l-3 -6t-3 -6.5t-1.5 -6.5t-0.5 -7t0.5 -7t2 -8t4.5 -8q9 -12 -12 -17q-34 -9 -63.5 16t-26.5 60q2 39 39 111q70 127 229 328q25 32 146.5 180.5t181.5 232.5q58 82 74 129q10 29 2 37q-7 8 -33 -2q-173 -44 -387 -166
q-652 -370 -1164 -960q-182 -212 -282 -377q-60 -93 -70 -166v-37q5 -28 16 -38t40 -11q26 -1 55 0.5t51.5 3.5t55 7.5t50 9t54.5 10.5t51 10q50 10 250 53.5t309 61.5q93 14 154 -17q34 -17 39 -38t-19 -50q-31 -36 -64 -69.5t-89.5 -85.5t-69.5 -64
q-101 -94 -161.5 -151.5t-145 -143.5t-150.5 -162q-116 -137 -164 -239q-29 -71 -18 -119q4 -28 14.5 -35t38.5 -2q66 13 148 53q333 160 624 357q37 26 86 2q29 -13 4 -35q-73 -66 -141 -115q-213 -151 -442 -270q-145 -78 -252 -78q-79 0 -144 29q-144 63 -100 215
q13 45 39 93t48 78.5t61 80.5q44 53 102.5 114t90.5 92.5t116 111t100 95.5q40 39 120 116t120 116q18 13 22 28q-38 -8 -104.5 -22.5t-93.5 -20.5q-43 -9 -141.5 -30.5t-172.5 -36t-143 -23.5q-148 -18 -250 11q-19 5 -49 16zM1628 3359q30 24 69 19t66 -32q46 -43 27 -108
q-3 -7 -3.5 -24.5t-4.5 -26.5q-25 -45 -52.5 -67.5t-68.5 -18.5q-61 -3 -102 18q-60 29 -37 92q35 89 106 148zM1987 3359q30 24 68 19t67 -32q43 -43 24 -108q-1 -5 -1.5 -23.5t-6.5 -27.5q-49 -93 -121 -86q-61 -3 -102 18q-60 31 -37 92q35 89 109 148z" />
    <glyph glyph-name="Igrave" unicode="&#xcc;" horiz-adv-x="1171" 
d="M20 -12q-61 30 -18 78q71 79 186 133q26 12 35.5 27.5t9.5 45.5q-8 276 82 650q182 794 592 1644q87 180 105 217q10 14 6 25q-59 -24 -160 -80q-63 -35 -90 -47q-50 -22 -104 8q-25 12 -27.5 25.5t16.5 33.5q5 4 15.5 12.5t15.5 12.5q289 203 688 246q45 7 121 -13
q1 0 8.5 -2t11.5 -4l8 -4t9 -5t5 -6.5t1 -10.5q-2 -15 -29 -15q-28 0 -54 -3t-60 -11.5t-48.5 -13t-58.5 -19t-51 -16.5q-18 -4 -23 -21q-15 -59 -39 -128.5t-41 -111.5t-53.5 -128.5t-48.5 -114.5q-339 -824 -514 -1499q-56 -209 -151 -590q-6 -26 -3.5 -28.5t27.5 4.5
q43 12 75 19t71.5 12t77.5 3t75 -12q53 -15 74 -41q24 -30 -14 -39q-22 -4 -33 -2q-6 2 -12.5 3t-11.5 1.5t-12.5 0t-11 -0.5t-12 -2t-11 -2.5t-11.5 -3t-10.5 -3t-12.5 -4.5l-10 -3q-168 -58 -448 -213q-59 -33 -132 -4zM1204 3490q123 -97 207 -234q2 -4 5 -11t5 -11
q19 -43 4 -60q-16 -19 -59 -10q-12 4 -18 4q-30 8 -62 27q-159 104 -239 184q-46 43 -68 88q-7 17 -10 24.5t-3 21.5t7 26q12 17 32 20.5t37 -0.5q85 -8 162 -69z" />
    <glyph glyph-name="Iacute" unicode="&#xcd;" horiz-adv-x="1171" 
d="M20 -12q-61 30 -18 78q71 79 186 133q26 12 35.5 27.5t9.5 45.5q-8 276 82 650q182 794 592 1644q87 180 105 217q10 14 6 25q-59 -24 -160 -80q-63 -35 -90 -47q-50 -22 -104 8q-25 12 -27.5 25.5t16.5 33.5q5 4 15.5 12.5t15.5 12.5q289 203 688 246q45 7 121 -13
q1 0 8.5 -2t11.5 -4l8 -4t9 -5t5 -6.5t1 -10.5q-2 -15 -29 -15q-28 0 -54 -3t-60 -11.5t-48.5 -13t-58.5 -19t-51 -16.5q-18 -4 -23 -21q-15 -59 -39 -128.5t-41 -111.5t-53.5 -128.5t-48.5 -114.5q-339 -824 -514 -1499q-56 -209 -151 -590q-6 -26 -3.5 -28.5t27.5 4.5
q43 12 75 19t71.5 12t77.5 3t75 -12q53 -15 74 -41q24 -30 -14 -39q-22 -4 -33 -2q-6 2 -12.5 3t-11.5 1.5t-12.5 0t-11 -0.5t-12 -2t-11 -2.5t-11.5 -3t-10.5 -3t-12.5 -4.5l-10 -3q-168 -58 -448 -213q-59 -33 -132 -4zM1274 3490q77 61 162 69q17 4 37 0.5t32 -20.5
q7 -12 7 -26t-3 -21.5t-10 -24.5q-23 -47 -67 -88q-78 -78 -240 -184q-32 -19 -62 -27q-6 0 -18 -4q-43 -9 -59 10q-15 17 4 60q2 4 5 11t5 11q84 137 207 234z" />
    <glyph glyph-name="Icircumflex" unicode="&#xce;" horiz-adv-x="1171" 
d="M20 -12q-61 30 -18 78q71 79 186 133q26 12 35.5 27.5t9.5 45.5q-8 276 82 650q182 794 592 1644q87 180 105 217q10 14 6 25q-59 -24 -160 -80q-63 -35 -90 -47q-50 -22 -104 8q-25 12 -27.5 25.5t16.5 33.5q5 4 15.5 12.5t15.5 12.5q289 203 688 246q45 7 121 -13
q1 0 8.5 -2t11.5 -4l8 -4t9 -5t5 -6.5t1 -10.5q-2 -15 -29 -15q-28 0 -54 -3t-60 -11.5t-48.5 -13t-58.5 -19t-51 -16.5q-18 -4 -23 -21q-15 -59 -39 -128.5t-41 -111.5t-53.5 -128.5t-48.5 -114.5q-339 -824 -514 -1499q-56 -209 -151 -590q-6 -26 -3.5 -28.5t27.5 4.5
q43 12 75 19t71.5 12t77.5 3t75 -12q53 -15 74 -41q24 -30 -14 -39q-22 -4 -33 -2q-6 2 -12.5 3t-11.5 1.5t-12.5 0t-11 -0.5t-12 -2t-11 -2.5t-11.5 -3t-10.5 -3t-12.5 -4.5l-10 -3q-168 -58 -448 -213q-59 -33 -132 -4zM1130 3176q-67 -65 -147 -14q-23 15 -26 28t12 36
q60 91 190 233q18 22 88 92q30 30 74 27q47 0 109 -25q89 -42 92 -141q2 -27 4 -82t4 -82q0 -3 0.5 -17t1 -19t3 -16.5t5.5 -17.5t9.5 -14t15.5 -14q12 -8 6 -19q-6 -14 -25 -14q-101 -3 -164 72q-32 40 -59 135q-1 3 -4 15t-4 20q-50 -43 -185 -183z" />
    <glyph glyph-name="Idieresis" unicode="&#xcf;" horiz-adv-x="1171" 
d="M20 -12q-61 30 -18 78q71 79 186 133q26 12 35.5 27.5t9.5 45.5q-8 276 82 650q182 794 592 1644q87 180 105 217q10 14 6 25q-59 -24 -160 -80q-63 -35 -90 -47q-50 -22 -104 8q-25 12 -27.5 25.5t16.5 33.5q5 4 15.5 12.5t15.5 12.5q289 203 688 246q45 7 121 -13
q1 0 8.5 -2t11.5 -4l8 -4t9 -5t5 -6.5t1 -10.5q-2 -15 -29 -15q-28 0 -54 -3t-60 -11.5t-48.5 -13t-58.5 -19t-51 -16.5q-18 -4 -23 -21q-15 -59 -39 -128.5t-41 -111.5t-53.5 -128.5t-48.5 -114.5q-339 -824 -514 -1499q-56 -209 -151 -590q-6 -26 -3.5 -28.5t27.5 4.5
q43 12 75 19t71.5 12t77.5 3t75 -12q53 -15 74 -41q24 -30 -14 -39q-22 -4 -33 -2q-6 2 -12.5 3t-11.5 1.5t-12.5 0t-11 -0.5t-12 -2t-11 -2.5t-11.5 -3t-10.5 -3t-12.5 -4.5l-10 -3q-168 -58 -448 -213q-59 -33 -132 -4zM1071 3398q30 24 69 19t66 -32q46 -43 27 -108
q-3 -7 -3.5 -24.5t-4.5 -26.5q-25 -45 -52.5 -67.5t-68.5 -18.5q-62 -3 -103 18q-59 29 -36 92q35 89 106 148zM1430 3398q30 24 68 19t67 -32q43 -43 24 -108q-1 -5 -1.5 -23.5t-6.5 -27.5q-49 -93 -121 -86q-61 -3 -102 18q-60 31 -37 92q35 89 109 148z" />
    <glyph glyph-name="Eth" unicode="&#xd0;" horiz-adv-x="1884" 
d="M557 1409q-44 -159 -86 -330q-1 -3 -2 -9t-2 -9l-4 -17q114 97 221 168q221 152 479 179q27 3 51 -9q3 0 3 -2l12 -6q4 -4 4 -12q-2 -4 -6 -8q-8 -4 -13 -4q-2 0 -4 -2q-8 0 -14 -2q-59 -11 -158 -46q-235 -101 -420 -280q-114 -107 -180 -186q-23 -26 -26 -62
q0 -13 -4 -37q-2 -14 -2 -45q0 -22 10 -45q3 -7 2 -8t-4 -3t-4 -3q-4 -2 -11 -2q-38 -3 -71 20q-9 6 -13 6q-8 -4 -12 -10q-131 -204 -137 -450q-3 -80 37 -150q14 -25 33 -33q14 -6 43 4q100 35 174 103q161 145 278 323q343 489 578 1041q159 376 213 803q40 257 -23 520
q-21 81 -72 143q-57 75 -147 72q-160 -9 -299 -86q-620 -329 -895 -973q-36 -80 -39 -164q-3 -70 62 -94q14 -6 38 -18q8 -4 11 -7q1 -1 4 -2t4 -2q2 -2 2 -10l-4 -4q-1 -1 -4 -2t-4 -2h-9l-30 6q-86 12 -156 70q-56 62 -35 143q35 184 129 342q243 455 672 739
q211 141 451 162q184 15 346 -76q101 -62 155 -159q49 -98 64 -215q35 -339 -47 -662q-137 -580 -455 -1089q-217 -366 -471 -680q-110 -138 -248 -230q-103 -71 -225 -74q-232 6 -266 234q-15 198 59 371q66 168 176 301v2q9 9 15 18q4 12 4 21q3 159 37 307q17 86 49 215
q-155 -16 -297 -55q-55 -18 -101 28q-34 34 0 64q64 49 138 71q148 51 307 54q105 374 270 794q18 49 53 111q44 66 115 31q27 -9 18 -43q-107 -334 -221 -709l-57 -197q18 -3 33 -6q98 -12 192 -55q39 -15 70 -53q9 -9 16 -23q5 -13 2 -33q-15 -34 -43 -34q-31 0 -59 28
q-16 19 -35 19l-90 8q-12 2 -37 2q-58 4 -88 4z" />
    <glyph glyph-name="Ntilde" unicode="&#xd1;" horiz-adv-x="2267" 
d="M1055 2308q-14 -78 -33 -164.5t-34 -150t-43 -167t-40.5 -148t-47.5 -165.5t-44 -153q-5 -19 -37.5 -132t-50.5 -173q16 29 49 89t59.5 106t51.5 87q448 727 1016 1264q82 79 176 137q57 37 129 15q66 -23 63 -93q-2 -64 -37 -178q-40 -130 -121.5 -366t-113.5 -334
q-75 -229 -117 -362.5t-98.5 -333.5t-93.5 -369q-72 -328 -60 -565q1 -11 4 -31.5t4 -28.5q4 -18 7.5 -28t14.5 -18.5t28 -8.5q4 0 16 -6q16 -12 14 -23q-2 -7 -20 -12q-59 -12 -109.5 14.5t-73.5 81.5q-14 35 -22 80.5t-9.5 72t-2.5 83.5q-3 290 86 618q60 216 142 473
t141 430.5t161 468.5q18 50 51.5 150.5t50.5 150.5q10 30 9 37h-9t-7.5 -5t-6.5 -5q-134 -100 -305 -285q-493 -530 -819 -1097q-180 -311 -350 -805q-68 -180 -76 -197q-15 -31 -31.5 -40.5t-50.5 -6.5q-58 4 -80.5 31t-19.5 86q4 75 21 167.5t28.5 139t42.5 162.5
q32 120 135 492t153 575q89 358 117 567q12 110 8 168q-7 0 -12.5 -2.5t-13 -9.5t-8.5 -8q-115 -102 -277 -324q-305 -423 -436 -875q-29 -100 -29 -167q0 -33 10 -44.5t46 -19.5q2 -1 19.5 -4t24.5 -9t5 -18q-2 -9 -11 -11t-26 0.5t-21 2.5q-6 0 -26 4q-72 15 -102 54.5
t-25 113.5q8 131 69 303q180 520 523 963q69 85 147 143q116 82 248 29q83 -38 98 -125q16 -111 -18 -291zM1317 2894q-23 -20 -55.5 -20t-55.5 20q-20 17 -10 41q65 134 158 188q31 19 67 22.5t64.5 -3.5t66.5 -23q26 -11 54 -32.5t39 -33.5t43 -47q7 -8 14 -17t11 -12.5
t7 -9t7 -5.5t6 -2t9 2t10.5 5t15.5 8t20 11q80 44 135 111q20 23 54.5 24.5t54.5 -20.5q9 -11 2 -29q-52 -134 -181 -209q-39 -21 -92 -18q-172 9 -274 147q-13 19 -24.5 19.5t-28.5 -13.5q-11 -9 -117 -104z" />
    <glyph glyph-name="Ograve" unicode="&#xd2;" 
d="M1620 2828q146 -113 156 -346v-61q-9 -189 -97 -496q-224 -782 -663 -1446q-129 -192 -271 -334q-80 -76 -145 -112q-68 -37 -138.5 -40.5t-127.5 24t-99 84t-55 132.5q-27 151 23 385q32 159 106 363q6 11 4 20.5t-18 14.5q-137 54 -188 149.5t-33 241.5q22 185 139 428
q237 511 602 840q166 149 320 211q267 109 485 -58zM1528 2048q67 260 65 442q-4 170 -75 273q-43 60 -88.5 77t-116.5 -1q-27 -7 -49 -15q-171 -63 -344 -229q-425 -396 -641 -998q-71 -199 -62 -333q7 -130 94 -189q13 -10 22 -8t15 20q50 127 86 205q99 216 172 318
q49 70 94 98q38 22 85 9t59 -48q8 -25 0 -35q-6 -7 -17 -8t-18 4q-10 6 -18.5 7.5t-15 -3.5t-10.5 -9.5t-11 -14.5q-68 -113 -166 -355q-9 -23 -80 -208q38 11 41 12q68 22 129 59t137 94q36 26 74 5q28 -11 4 -29q-7 -6 -21.5 -18.5t-21.5 -18.5q-91 -73 -171.5 -115.5
t-174.5 -50.5q-3 0 -5.5 -0.5t-4.5 -1.5t-3.5 -2t-3 -3t-2.5 -3.5t-2 -4t-1.5 -4l-1.5 -4.5t-1 -4q-60 -186 -84 -288q-63 -272 -45 -439q10 -80 45 -133q15 -21 37 -10q50 22 113 74q164 146 321 383q445 675 662 1503zM1399 3361q123 -97 207 -234q2 -4 5 -11t5 -11
q19 -43 4 -60q-16 -19 -59 -10q-12 4 -19 4q-28 7 -61 27q-162 106 -240 184q-44 41 -67 88q0 1 -3 7.5t-3.5 8t-3 7.5t-3 8.5l-1.5 7.5t-0.5 8.5t1 8t2 8.5t4.5 8q12 17 32.5 20.5t37.5 -0.5q85 -8 162 -69z" />
    <glyph glyph-name="Oacute" unicode="&#xd3;" 
d="M1620 2828q146 -113 156 -346v-61q-9 -189 -97 -496q-224 -782 -663 -1446q-129 -192 -271 -334q-80 -76 -145 -112q-68 -37 -138.5 -40.5t-127.5 24t-99 84t-55 132.5q-27 151 23 385q32 159 106 363q6 11 4 20.5t-18 14.5q-137 54 -188 149.5t-33 241.5q22 185 139 428
q237 511 602 840q166 149 320 211q267 109 485 -58zM1528 2048q67 260 65 442q-4 170 -75 273q-43 60 -88.5 77t-116.5 -1q-27 -7 -49 -15q-171 -63 -344 -229q-425 -396 -641 -998q-71 -199 -62 -333q7 -130 94 -189q13 -10 22 -8t15 20q50 127 86 205q99 216 172 318
q49 70 94 98q38 22 85 9t59 -48q8 -25 0 -35q-6 -7 -17 -8t-18 4q-10 6 -18.5 7.5t-15 -3.5t-10.5 -9.5t-11 -14.5q-68 -113 -166 -355q-9 -23 -80 -208q38 11 41 12q68 22 129 59t137 94q36 26 74 5q28 -11 4 -29q-7 -6 -21.5 -18.5t-21.5 -18.5q-91 -73 -171.5 -115.5
t-174.5 -50.5q-3 0 -5.5 -0.5t-4.5 -1.5t-3.5 -2t-3 -3t-2.5 -3.5t-2 -4t-1.5 -4l-1.5 -4.5t-1 -4q-60 -186 -84 -288q-63 -272 -45 -439q10 -80 45 -133q15 -21 37 -10q50 22 113 74q164 146 321 383q445 675 662 1503zM1487 3361q77 61 162 69q17 4 37 0.5t32 -20.5
q7 -12 7 -26t-3 -21.5t-10 -24.5q-23 -47 -67 -88q-78 -78 -240 -184q-32 -19 -62 -27q-6 0 -18 -4q-43 -9 -59 10q-15 17 4 60q2 4 5 11t5 11q84 137 207 234z" />
    <glyph glyph-name="Ocircumflex" unicode="&#xd4;" 
d="M1620 2828q146 -113 156 -346v-61q-9 -189 -97 -496q-224 -782 -663 -1446q-129 -192 -271 -334q-80 -76 -145 -112q-68 -37 -138.5 -40.5t-127.5 24t-99 84t-55 132.5q-27 151 23 385q32 159 106 363q6 11 4 20.5t-18 14.5q-137 54 -188 149.5t-33 241.5q22 185 139 428
q237 511 602 840q166 149 320 211q267 109 485 -58zM1528 2048q67 260 65 442q-4 170 -75 273q-43 60 -88.5 77t-116.5 -1q-27 -7 -49 -15q-171 -63 -344 -229q-425 -396 -641 -998q-71 -199 -62 -333q7 -130 94 -189q13 -10 22 -8t15 20q50 127 86 205q99 216 172 318
q49 70 94 98q38 22 85 9t59 -48q8 -25 0 -35q-6 -7 -17 -8t-18 4q-10 6 -18.5 7.5t-15 -3.5t-10.5 -9.5t-11 -14.5q-68 -113 -166 -355q-9 -23 -80 -208q38 11 41 12q68 22 129 59t137 94q36 26 74 5q28 -11 4 -29q-7 -6 -21.5 -18.5t-21.5 -18.5q-91 -73 -171.5 -115.5
t-174.5 -50.5q-3 0 -5.5 -0.5t-4.5 -1.5t-3.5 -2t-3 -3t-2.5 -3.5t-2 -4t-1.5 -4l-1.5 -4.5t-1 -4q-60 -186 -84 -288q-63 -272 -45 -439q10 -80 45 -133q15 -21 37 -10q50 22 113 74q164 146 321 383q445 675 662 1503zM1346 3117q-68 -65 -148 -14q-23 15 -26 27.5
t12 35.5q62 95 190 234q18 22 88 92q29 29 74 26q49 0 109 -24q89 -42 92 -141q2 -27 4 -82t4 -82q0 -3 0.5 -17t1 -19t3 -16.5t5.5 -18t9.5 -14.5t15.5 -14q11 -8 6 -18q-6 -14 -25 -14q-102 -3 -164 71q-31 40 -59 136q-1 3 -4 14.5t-4 19.5q-50 -43 -184 -182z" />
    <glyph glyph-name="Otilde" unicode="&#xd5;" 
d="M1620 2828q146 -113 156 -346v-61q-9 -189 -97 -496q-224 -782 -663 -1446q-129 -192 -271 -334q-80 -76 -145 -112q-68 -37 -138.5 -40.5t-127.5 24t-99 84t-55 132.5q-27 151 23 385q32 159 106 363q6 11 4 20.5t-18 14.5q-137 54 -188 149.5t-33 241.5q22 185 139 428
q237 511 602 840q166 149 320 211q267 109 485 -58zM1528 2048q67 260 65 442q-4 170 -75 273q-43 60 -88.5 77t-116.5 -1q-27 -7 -49 -15q-171 -63 -344 -229q-425 -396 -641 -998q-71 -199 -62 -333q7 -130 94 -189q13 -10 22 -8t15 20q50 127 86 205q99 216 172 318
q49 70 94 98q38 22 85 9t59 -48q8 -25 0 -35q-6 -7 -17 -8t-18 4q-10 6 -18.5 7.5t-15 -3.5t-10.5 -9.5t-11 -14.5q-68 -113 -166 -355q-9 -23 -80 -208q38 11 41 12q68 22 129 59t137 94q36 26 74 5q28 -11 4 -29q-7 -6 -21.5 -18.5t-21.5 -18.5q-91 -73 -171.5 -115.5
t-174.5 -50.5q-3 0 -5.5 -0.5t-4.5 -1.5t-3.5 -2t-3 -3t-2.5 -3.5t-2 -4t-1.5 -4l-1.5 -4.5t-1 -4q-60 -186 -84 -288q-63 -272 -45 -439q10 -80 45 -133q15 -21 37 -10q50 22 113 74q164 146 321 383q445 675 662 1503zM1196 3113q-23 -20 -55.5 -20t-55.5 20
q-20 17 -10 41q65 134 158 188q31 19 67 22.5t65 -3.5t67 -23q8 -3 16.5 -7.5t15 -8.5t15 -10.5t13.5 -10t13.5 -11.5t12 -11.5l13 -13t12 -12.5t12.5 -14t12 -13q8 -9 20 -24q16 -21 24 -22t37 15l6 3l6 3t7 4q79 43 135 111q20 23 54.5 24.5t54.5 -20.5q9 -11 2 -29
q-52 -135 -180 -209q-39 -21 -93 -18q-172 9 -274 147q-13 19 -24.5 19.5t-28.5 -13.5q-11 -9 -117 -104z" />
    <glyph glyph-name="Odieresis" unicode="&#xd6;" 
d="M1620 2828q146 -113 156 -346v-61q-9 -189 -97 -496q-224 -782 -663 -1446q-129 -192 -271 -334q-80 -76 -145 -112q-68 -37 -138.5 -40.5t-127.5 24t-99 84t-55 132.5q-27 151 23 385q32 159 106 363q6 11 4 20.5t-18 14.5q-137 54 -188 149.5t-33 241.5q22 185 139 428
q237 511 602 840q166 149 320 211q267 109 485 -58zM1528 2048q67 260 65 442q-4 170 -75 273q-43 60 -88.5 77t-116.5 -1q-27 -7 -49 -15q-171 -63 -344 -229q-425 -396 -641 -998q-71 -199 -62 -333q7 -130 94 -189q13 -10 22 -8t15 20q50 127 86 205q99 216 172 318
q49 70 94 98q38 22 85 9t59 -48q8 -25 0 -35q-6 -7 -17 -8t-18 4q-10 6 -18.5 7.5t-15 -3.5t-10.5 -9.5t-11 -14.5q-68 -113 -166 -355q-9 -23 -80 -208q38 11 41 12q68 22 129 59t137 94q36 26 74 5q28 -11 4 -29q-7 -6 -21.5 -18.5t-21.5 -18.5q-91 -73 -171.5 -115.5
t-174.5 -50.5q-3 0 -5.5 -0.5t-4.5 -1.5t-3.5 -2t-3 -3t-2.5 -3.5t-2 -4t-1.5 -4l-1.5 -4.5t-1 -4q-60 -186 -84 -288q-63 -272 -45 -439q10 -80 45 -133q15 -21 37 -10q50 22 113 74q164 146 321 383q445 675 662 1503zM1327 3359q30 24 69 19t66 -32q46 -43 27 -108
q-3 -7 -3.5 -24.5t-4.5 -26.5q-25 -45 -52.5 -67.5t-68.5 -18.5q-62 -3 -103 18q-59 29 -36 92q35 89 106 148zM1686 3359q30 24 68 19t67 -32q43 -43 24 -108q-1 -5 -1.5 -23.5t-6.5 -27.5q-49 -93 -121 -86q-61 -3 -102 18q-60 31 -37 92q35 89 109 148z" />
    <glyph glyph-name="multiply" unicode="&#xd7;" horiz-adv-x="1228" 
d="M1092 1696q50 17 86 10q28 -4 34 -20q7 -27 -12 -46q-22 -19 -57 -26q-23 -5 -53 -27q-170 -127 -295 -241q-24 -21 -15 -50q24 -72 62 -205.5t86 -277.5q1 -6 4 -15l4 -12q10 -25 6 -35.5t-27 -21.5q-68 -33 -116 35q-38 54 -80 151l-105 211q-8 18 -13 19t-17 -12
q-152 -173 -222 -308q-13 -25 -53 -34t-63 6q-22 16 -15 53q6 43 41 123q78 161 236 315q20 18 23 35t-7 41l-110 338q-19 77 -21 121q-3 46 37 67q24 12 39 17q56 18 80.5 6.5t44.5 -64.5l113 -329q1 -3 4 -10.5t4 -10.5q6 -29 28 -10q21 15 66.5 45.5t71.5 48.5
q4 3 35 22.5t43 26.5t38.5 22t49 24.5t45.5 17.5z" />
    <glyph glyph-name="Oslash" unicode="&#xd8;" 
d="M530 987q-4 -2 -12 -2q-13 0 -16 -6q-1 -3 -4 -9t-4 -9v-3q-25 -76 -39 -127q7 15 33 71t42 85zM1583 2226l-16 -24q-506 -737 -920 -1557q-129 -256 -246 -532q1 -3 4.5 -8.5t4.5 -6.5q16 -22 36 -10q58 26 113 74q183 166 322 383q457 702 661 1503q30 110 41 178z
M201 207q-1 4 -3 13t-3 13q-27 195 22 385q37 170 107 363q4 16 4 20q-3 9 -19 15q-140 56 -188 153q-52 93 -33 238q35 227 139 428q212 477 602 840q146 136 320 211q261 108 485 -58q55 -45 80 -86q12 14 39 41q74 68 158 15q25 -13 28 -27q3 -16 -12 -37
q-23 -35 -70 -103.5t-71 -103.5q4 -28 4 -45v-61q-18 -244 -96 -496q-216 -769 -664 -1446q-119 -180 -270 -334q-58 -60 -146 -112q-136 -71 -254 -21l-28 -73q-6 -15 -6 -31t20 -25q12 -6 12 -20q-3 -17 -22 -39q-15 -17 -43 -35q-22 -14 -43 -14q-140 6 -125 139
q22 135 76 293zM1597 2603q-20 90 -65 160q-78 116 -205 76q-29 -6 -49 -15q-195 -80 -344 -229q-440 -419 -641 -998q-65 -165 -62 -333q0 -118 95 -189q16 -10 22 -8q8 3 14 20q44 110 87 205q70 168 172 318q38 59 94 98q37 19 86 10q42 -12 57 -49v-4q1 -3 3 -8t3 -8
q0 -9 -6 -15q-5 -8 -16 -8q-7 0 -19 4q-20 15 -32 6q-13 -10 -23 -26q-104 -184 -162 -346l-4 -9q-11 -26 -30 -78t-23 -61q-4 -12 -27 -69q3 1 9.5 3t9.5 3q10 2 22 6q1 0 3.5 1t4.5 1q122 228 267 448q345 558 759 1094z" />
    <glyph glyph-name="Ugrave" unicode="&#xd9;" horiz-adv-x="1955" 
d="M379 371q-39 -36 -89.5 -49t-97 -2.5t-87.5 41t-62 75.5q-72 158 -72 379q-2 225 72 555q115 517 262 873q55 139 133 249q23 34 64 70q62 54 145 18q11 -4 19 -12q30 -30 22 -51q-9 -20 -47 -10q-13 3 -22.5 -1.5t-12 -7.5t-12.5 -16q-85 -132 -152 -332
q-197 -567 -270 -1071q-47 -304 -8 -526q14 -77 39 -129q8 -22 28 -8q66 57 125 139q34 47 70.5 101t63.5 94.5t68 106t60.5 96.5t66 107t60.5 99q81 131 222.5 366t260.5 428.5t230 360.5q73 112 211 315.5t178 262.5q19 26 101 164q16 28 45 28t43 -4q47 -9 56.5 -27.5
t-9.5 -62.5q-272 -680 -480 -1260t-368 -1146q-81 -291 -111 -465q-4 -40 -6 -58q-4 -32 17 -41q15 -4 12 -16q-2 -9 -17 -14q-46 -15 -83.5 9t-40.5 71q-6 104 28 280q137 689 443 1503q146 400 188 517q9 23 8 32q-6 -4 -10.5 -9t-8.5 -12.5t-7 -10.5
q-75 -111 -160.5 -248t-139.5 -228t-155 -262.5t-141 -238.5q-13 -22 -96.5 -161.5t-112 -186.5t-93.5 -152t-115.5 -183.5t-103.5 -156.5q-72 -106 -151 -182zM1219 3322q121 -95 206 -234l11 -22q19 -43 4 -60q-17 -19 -60 -10q-12 4 -18 4q-30 8 -62 27
q-159 104 -239 184q-46 43 -68 88q-7 17 -10 24.5t-3 21.5t7 26q12 17 32.5 20.5t37.5 -0.5q85 -8 162 -69z" />
    <glyph glyph-name="Uacute" unicode="&#xda;" horiz-adv-x="1955" 
d="M379 371q-39 -36 -89.5 -49t-97 -2.5t-87.5 41t-62 75.5q-72 158 -72 379q-2 225 72 555q115 517 262 873q55 139 133 249q23 34 64 70q62 54 145 18q11 -4 19 -12q30 -30 22 -51q-9 -20 -47 -10q-13 3 -22.5 -1.5t-12 -7.5t-12.5 -16q-85 -132 -152 -332
q-197 -567 -270 -1071q-47 -304 -8 -526q14 -77 39 -129q8 -22 28 -8q66 57 125 139q34 47 70.5 101t63.5 94.5t68 106t60.5 96.5t66 107t60.5 99q81 131 222.5 366t260.5 428.5t230 360.5q73 112 211 315.5t178 262.5q19 26 101 164q16 28 45 28t43 -4q47 -9 56.5 -27.5
t-9.5 -62.5q-272 -680 -480 -1260t-368 -1146q-81 -291 -111 -465q-4 -40 -6 -58q-4 -32 17 -41q15 -4 12 -16q-2 -9 -17 -14q-46 -15 -83.5 9t-40.5 71q-6 104 28 280q137 689 443 1503q146 400 188 517q9 23 8 32q-6 -4 -10.5 -9t-8.5 -12.5t-7 -10.5
q-75 -111 -160.5 -248t-139.5 -228t-155 -262.5t-141 -238.5q-13 -22 -96.5 -161.5t-112 -186.5t-93.5 -152t-115.5 -183.5t-103.5 -156.5q-72 -106 -151 -182zM1247 3322q77 61 162 69q17 4 37.5 0.5t32.5 -20.5q7 -12 7 -26t-3 -21.5t-10 -24.5q-22 -45 -68 -88
q-78 -78 -240 -184q-33 -20 -61 -27q-7 0 -19 -4q-43 -9 -59 10q-15 17 4 60q2 4 5 11t5 11q84 137 207 234z" />
    <glyph glyph-name="Ucircumflex" unicode="&#xdb;" horiz-adv-x="1955" 
d="M379 371q-39 -36 -89.5 -49t-97 -2.5t-87.5 41t-62 75.5q-72 158 -72 379q-2 225 72 555q115 517 262 873q55 139 133 249q23 34 64 70q62 54 145 18q11 -4 19 -12q30 -30 22 -51q-9 -20 -47 -10q-13 3 -22.5 -1.5t-12 -7.5t-12.5 -16q-85 -132 -152 -332
q-197 -567 -270 -1071q-47 -304 -8 -526q14 -77 39 -129q8 -22 28 -8q66 57 125 139q34 47 70.5 101t63.5 94.5t68 106t60.5 96.5t66 107t60.5 99q81 131 222.5 366t260.5 428.5t230 360.5q73 112 211 315.5t178 262.5q19 26 101 164q16 28 45 28t43 -4q47 -9 56.5 -27.5
t-9.5 -62.5q-272 -680 -480 -1260t-368 -1146q-81 -291 -111 -465q-4 -40 -6 -58q-4 -32 17 -41q15 -4 12 -16q-2 -9 -17 -14q-46 -15 -83.5 9t-40.5 71q-6 104 28 280q137 689 443 1503q146 400 188 517q9 23 8 32q-6 -4 -10.5 -9t-8.5 -12.5t-7 -10.5
q-75 -111 -160.5 -248t-139.5 -228t-155 -262.5t-141 -238.5q-13 -22 -96.5 -161.5t-112 -186.5t-93.5 -152t-115.5 -183.5t-103.5 -156.5q-72 -106 -151 -182zM1145 3058q-69 -66 -148 -15q-23 15 -26 28t12 36q57 87 191 233q18 22 88 92q30 30 73 27q47 0 109 -25
q89 -42 92 -141q2 -27 4 -82t4 -82q0 -3 0.5 -17t1 -19t3 -16.5t5.5 -17.5t9.5 -14t15.5 -14q11 -7 6 -18q-6 -15 -24 -15q-101 -3 -164 72q-33 42 -60 135q-1 3 -4 15t-4 20q-50 -43 -184 -182z" />
    <glyph glyph-name="Udieresis" unicode="&#xdc;" horiz-adv-x="1955" 
d="M379 371q-39 -36 -89.5 -49t-97 -2.5t-87.5 41t-62 75.5q-72 158 -72 379q-2 225 72 555q115 517 262 873q55 139 133 249q23 34 64 70q62 54 145 18q11 -4 19 -12q30 -30 22 -51q-9 -20 -47 -10q-13 3 -22.5 -1.5t-12 -7.5t-12.5 -16q-85 -132 -152 -332
q-197 -567 -270 -1071q-47 -304 -8 -526q14 -77 39 -129q8 -22 28 -8q66 57 125 139q34 47 70.5 101t63.5 94.5t68 106t60.5 96.5t66 107t60.5 99q81 131 222.5 366t260.5 428.5t230 360.5q73 112 211 315.5t178 262.5q19 26 101 164q16 28 45 28t43 -4q47 -9 56.5 -27.5
t-9.5 -62.5q-272 -680 -480 -1260t-368 -1146q-81 -291 -111 -465q-4 -40 -6 -58q-4 -32 17 -41q15 -4 12 -16q-2 -9 -17 -14q-46 -15 -83.5 9t-40.5 71q-6 104 28 280q137 689 443 1503q146 400 188 517q9 23 8 32q-6 -4 -10.5 -9t-8.5 -12.5t-7 -10.5
q-75 -111 -160.5 -248t-139.5 -228t-155 -262.5t-141 -238.5q-13 -22 -96.5 -161.5t-112 -186.5t-93.5 -152t-115.5 -183.5t-103.5 -156.5q-72 -106 -151 -182zM1085 3248q30 24 69.5 19.5t66.5 -31.5q45 -43 26 -109q-3 -7 -3.5 -24.5t-4.5 -26.5q-25 -45 -52.5 -67.5
t-68.5 -18.5q-60 -3 -102 19q-60 29 -37 92q34 87 106 147zM1444 3248q30 24 68 19.5t67 -31.5q44 -44 25 -109q-1 -4 -2 -23t-7 -28q-49 -93 -120 -86q-60 -3 -103 19q-60 31 -37 92q34 87 109 147z" />
    <glyph glyph-name="Yacute" unicode="&#xdd;" horiz-adv-x="1978" 
d="M1520 2736q12 23 82 164.5t114 212.5q1 2 3 5t3 5l13.5 22.5t16.5 25t19.5 15.5t30.5 9q92 0 144 -55q22 -24 22 -88q0 -158 -39 -328q-97 -449 -330 -1022q-328 -817 -811 -1481q-154 -219 -280 -334q-45 -39 -100 -69q-24 -12 -56.5 -8t-52.5 24q-19 16 -2 33
q64 65 131.5 153t105.5 144.5t111 169.5q609 941 938 1997q59 181 96 372q-19 -36 -39 -65q-66 -110 -201 -328.5t-202 -327.5q-84 -137 -230.5 -394.5t-183.5 -321.5q-159 -270 -297 -428q-89 -100 -161 -146q-69 -40 -137 -40.5t-127.5 41t-88.5 112.5q-44 107 -41 264
q2 214 86 553q135 537 299 938q61 144 119 227q28 40 56.5 49t74.5 -6q83 -26 80 -110q-3 -23 -29 -19q-24 2 -34 -24q-312 -798 -428 -1370q-55 -271 -39 -439q6 -61 26 -114q8 -22 31 -13q64 30 129 95q156 146 317 415q88 143 239.5 412t217.5 379q36 61 127.5 212.5
t156 263t120.5 218.5zM1296 3430q78 62 162 70q17 4 37.5 0.5t32.5 -20.5q7 -12 7 -26t-3 -21.5t-10 -24.5q-22 -45 -68 -88q-81 -81 -240 -185q-30 -18 -61 -26q-6 0 -18 -4q-43 -9 -60 10q-15 17 4 59q2 4 5.5 11.5t5.5 11.5q84 137 206 233z" />
    <glyph glyph-name="agrave" unicode="&#xe0;" horiz-adv-x="868" 
d="M-299 842q-45 27 -64.5 75t-9.5 109q17 110 99 238q172 276 405 428q111 73 221 39q53 -15 77.5 -45t27.5 -84v-5q-1 -5 2 -16t1 -19t-16 -12q-20 -7 -52 1.5t-40 23.5q-4 7 -3 23t-3 26q-14 32 -41 10q-103 -74 -227 -227q-142 -175 -219 -334q-37 -75 -39 -135
q15 5 41 31q151 139 338 407q21 30 39 60q28 40 90 40t90 -38q6 -9 8 -19.5t2 -17t-2 -20t-2 -17.5q-6 -46 -23.5 -132.5t-19.5 -96.5q-1 -8 -4.5 -25.5t-5.5 -28.5t-3.5 -27t-0.5 -30q27 27 53.5 56t60.5 70t47 56q10 12 40.5 49.5t52.5 62t45 46.5q53 50 104 31
q20 -8 23 -16t-9 -27q-13 -19 -89 -131t-120 -170q-66 -83 -129 -133q-41 -34 -91.5 -37.5t-96.5 24.5q-43 22 -57 88q-8 48 4 140q3 13 -2 26q-28 -37 -64 -80q-113 -146 -190 -211q-56 -47 -120.5 -54t-127.5 28zM322 2122q121 -95 206 -234l11 -22q19 -43 4 -60
q-17 -19 -60 -10q-12 4 -18 4q-30 8 -62 27q-159 104 -239 184q-46 43 -68 88q-7 17 -10 24.5t-3 21.5t7 26q12 17 32.5 20.5t37.5 -0.5q85 -8 162 -69z" />
    <glyph glyph-name="aacute" unicode="&#xe1;" horiz-adv-x="868" 
d="M-299 842q-45 27 -64.5 75t-9.5 109q17 110 99 238q172 276 405 428q111 73 221 39q53 -15 77.5 -45t27.5 -84v-5q-1 -5 2 -16t1 -19t-16 -12q-20 -7 -52 1.5t-40 23.5q-4 7 -3 23t-3 26q-14 32 -41 10q-103 -74 -227 -227q-142 -175 -219 -334q-37 -75 -39 -135
q15 5 41 31q151 139 338 407q21 30 39 60q28 40 90 40t90 -38q6 -9 8 -19.5t2 -17t-2 -20t-2 -17.5q-6 -46 -23.5 -132.5t-19.5 -96.5q-1 -8 -4.5 -25.5t-5.5 -28.5t-3.5 -27t-0.5 -30q27 27 53.5 56t60.5 70t47 56q10 12 40.5 49.5t52.5 62t45 46.5q53 50 104 31
q20 -8 23 -16t-9 -27q-13 -19 -89 -131t-120 -170q-66 -83 -129 -133q-41 -34 -91.5 -37.5t-96.5 24.5q-43 22 -57 88q-8 48 4 140q3 13 -2 26q-28 -37 -64 -80q-113 -146 -190 -211q-56 -47 -120.5 -54t-127.5 28zM311 2122q77 61 162 69q17 4 37.5 0.5t32.5 -20.5
q7 -12 7 -26t-3 -21.5t-10 -24.5q-22 -45 -68 -88q-78 -78 -240 -184q-33 -20 -61 -27q-6 0 -18 -4q-43 -9 -60 10q-15 17 4 60q2 4 5 11t5 11q84 137 207 234z" />
    <glyph glyph-name="acircumflex" unicode="&#xe2;" horiz-adv-x="868" 
d="M-299 842q-45 27 -64.5 75t-9.5 109q17 110 99 238q172 276 405 428q111 73 221 39q53 -15 77.5 -45t27.5 -84v-5q-1 -5 2 -16t1 -19t-16 -12q-20 -7 -52 1.5t-40 23.5q-4 7 -3 23t-3 26q-14 32 -41 10q-103 -74 -227 -227q-142 -175 -219 -334q-37 -75 -39 -135
q15 5 41 31q151 139 338 407q21 30 39 60q28 40 90 40t90 -38q6 -9 8 -19.5t2 -17t-2 -20t-2 -17.5q-6 -46 -23.5 -132.5t-19.5 -96.5q-1 -8 -4.5 -25.5t-5.5 -28.5t-3.5 -27t-0.5 -30q27 27 53.5 56t60.5 70t47 56q10 12 40.5 49.5t52.5 62t45 46.5q53 50 104 31
q20 -8 23 -16t-9 -27q-13 -19 -89 -131t-120 -170q-66 -83 -129 -133q-41 -34 -91.5 -37.5t-96.5 24.5q-43 22 -57 88q-8 48 4 140q3 13 -2 26q-28 -37 -64 -80q-113 -146 -190 -211q-56 -47 -120.5 -54t-127.5 28zM178 1858q-68 -65 -147 -15q-23 15 -26.5 28t11.5 36
q57 87 191 233q18 22 88 92q30 30 74 27q45 0 108 -25q89 -42 92 -141q2 -27 4.5 -82t4.5 -82q0 -5 0.5 -17.5t1 -18.5t2.5 -16.5t5 -17t9.5 -14.5t15.5 -14q12 -8 6 -19q-6 -14 -24 -14q-101 -3 -164 72q-32 40 -59 135q-1 4 -4.5 15.5t-4.5 19.5q-50 -43 -184 -182z" />
    <glyph glyph-name="atilde" unicode="&#xe3;" horiz-adv-x="868" 
d="M-299 842q-45 27 -64.5 75t-9.5 109q17 110 99 238q172 276 405 428q111 73 221 39q53 -15 77.5 -45t27.5 -84v-5q-1 -5 2 -16t1 -19t-16 -12q-20 -7 -52 1.5t-40 23.5q-4 7 -3 23t-3 26q-14 32 -41 10q-103 -74 -227 -227q-142 -175 -219 -334q-37 -75 -39 -135
q15 5 41 31q151 139 338 407q21 30 39 60q28 40 90 40t90 -38q6 -9 8 -19.5t2 -17t-2 -20t-2 -17.5q-6 -46 -23.5 -132.5t-19.5 -96.5q-1 -8 -4.5 -25.5t-5.5 -28.5t-3.5 -27t-0.5 -30q27 27 53.5 56t60.5 70t47 56q10 12 40.5 49.5t52.5 62t45 46.5q53 50 104 31
q20 -8 23 -16t-9 -27q-13 -19 -89 -131t-120 -170q-66 -83 -129 -133q-41 -34 -91.5 -37.5t-96.5 24.5q-43 22 -57 88q-8 48 4 140q3 13 -2 26q-28 -37 -64 -80q-113 -146 -190 -211q-56 -47 -120.5 -54t-127.5 28zM49 1874q-23 -20 -55 -20t-55 20q-21 18 -11 41
q65 134 158 188q31 19 67 22.5t65 -3.5t67 -23q8 -3 16.5 -7.5t15 -8.5t15 -10.5t13.5 -10t13.5 -11.5t12 -11.5l13 -13t12 -12.5t12.5 -14t12 -13q8 -9 20 -24q16 -21 24 -22t37 15q12 6 19 10q80 44 135 111q20 23 54.5 24.5t54.5 -20.5q9 -11 2 -29q-52 -135 -180 -209
q-39 -21 -92 -18q-173 9 -275 147q-13 19 -24.5 19.5t-28.5 -13.5q-11 -9 -117 -104z" />
    <glyph glyph-name="adieresis" unicode="&#xe4;" horiz-adv-x="868" 
d="M-299 842q-45 27 -64.5 75t-9.5 109q17 110 99 238q172 276 405 428q111 73 221 39q53 -15 77.5 -45t27.5 -84v-5q-1 -5 2 -16t1 -19t-16 -12q-20 -7 -52 1.5t-40 23.5q-4 7 -3 23t-3 26q-14 32 -41 10q-103 -74 -227 -227q-142 -175 -219 -334q-37 -75 -39 -135
q15 5 41 31q151 139 338 407q21 30 39 60q28 40 90 40t90 -38q6 -9 8 -19.5t2 -17t-2 -20t-2 -17.5q-6 -46 -23.5 -132.5t-19.5 -96.5q-1 -8 -4.5 -25.5t-5.5 -28.5t-3.5 -27t-0.5 -30q27 27 53.5 56t60.5 70t47 56q10 12 40.5 49.5t52.5 62t45 46.5q53 50 104 31
q20 -8 23 -16t-9 -27q-13 -19 -89 -131t-120 -170q-66 -83 -129 -133q-41 -34 -91.5 -37.5t-96.5 24.5q-43 22 -57 88q-8 48 4 140q3 13 -2 26q-28 -37 -64 -80q-113 -146 -190 -211q-56 -47 -120.5 -54t-127.5 28zM150 2109q30 24 69 19.5t66 -31.5q45 -43 26 -108
q-3 -7 -3.5 -25t-4.5 -27q-25 -45 -52.5 -67.5t-68.5 -18.5q-60 -3 -102 19q-60 29 -37 92q34 86 107 147zM508 2109q30 24 68 19.5t67 -31.5q44 -44 25 -108q-1 -4 -2 -23.5t-7 -28.5q-49 -93 -120 -86q-60 -3 -103 19q-60 31 -37 92q34 87 109 147z" />
    <glyph glyph-name="aring" unicode="&#xe5;" horiz-adv-x="868" 
d="M-299 842q-45 27 -64.5 75t-9.5 109q17 110 99 238q172 276 405 428q111 73 221 39q53 -15 77.5 -45t27.5 -84v-5q-1 -5 2 -16t1 -19t-16 -12q-20 -7 -52 1.5t-40 23.5q-4 7 -3 23t-3 26q-14 32 -41 10q-103 -74 -227 -227q-142 -175 -219 -334q-37 -75 -39 -135
q15 5 41 31q151 139 338 407q21 30 39 60q28 40 90 40t90 -38q6 -9 8 -19.5t2 -17t-2 -20t-2 -17.5q-6 -46 -23.5 -132.5t-19.5 -96.5q-1 -8 -4.5 -25.5t-5.5 -28.5t-3.5 -27t-0.5 -30q27 27 53.5 56t60.5 70t47 56q10 12 40.5 49.5t52.5 62t45 46.5q53 50 104 31
q20 -8 23 -16t-9 -27q-13 -19 -89 -131t-120 -170q-66 -83 -129 -133q-41 -34 -91.5 -37.5t-96.5 24.5q-43 22 -57 88q-8 48 4 140q3 13 -2 26q-28 -37 -64 -80q-113 -146 -190 -211q-56 -47 -120.5 -54t-127.5 28zM475 2171q68 6 80 -41q5 -22 -8 -76q-26 -99 -113 -166
q-45 -37 -127 -37q-84 0 -90 58v26q23 111 119 211q42 37 94 39q32 0 35 -12q0 -2 10 -2zM451 2077q4 37 -2 53q-5 10 -9 10q-8 0 -12 -8q-18 -26 -29 -47q-47 -75 -55 -150q-4 -25 8 -39q3 2 8.5 6.5t8.5 6.5q75 65 82 168z" />
    <glyph glyph-name="ae" unicode="&#xe6;" horiz-adv-x="1202" 
d="M766 1702q-193 -151 -315 -371q51 29 110 8q7 -3 10 0l7 7l4 4q121 121 176 278v2q7 18 10 35q2 10 -2 37zM217 942q-15 24 -18 51q-8 67 4 140q2 6 -2 26q-3 -6 -11 -15t-10 -11q-7 -9 -21.5 -27t-21.5 -27q-92 -123 -190 -211q-116 -96 -248 -26q-92 56 -74 184
q24 127 99 238q157 259 405 428q105 72 221 39q102 -24 105 -129v-5q0 -10 2 -16q4 -12 2 -18v-2q66 81 110 125q32 34 97 77q92 53 186 6q72 -34 57 -110q-37 -145 -133 -264q-78 -97 -182 -172q-94 -76 -193 -11q-9 6 -10 5q-7 -7 -8 -11q-60 -126 -57 -260v-2
q3 -54 26 -67q20 -14 70 4q153 60 283 157q40 28 111 82t99 74l95 70q1 1 3 2t3 2q10 10 22 12q17 0 23 -2q11 -4 14 -12q4 -7 0 -11q-3 -7 -10 -10l-6 -6q-190 -184 -418 -336q-94 -67 -211 -88q-32 -3 -65 0q-121 9 -148 127zM455 1556q-2 -1 -6.5 -3t-6.5 -3
q-24 -7 -51 2q-31 6 -41 23q-4 13 -2 22q3 10 -4 27q-12 20 -16 21q-8 3 -25 -11q-128 -99 -227 -227q-131 -158 -219 -334q-36 -64 -39 -135q21 9 37 25q1 1 2 3t2 3q197 191 338 407q5 7 14 21.5t14 21.5q11 16 11 17q32 38 90 41q34 0 61 -15q24 39 68 94z" />
    <glyph glyph-name="ccedilla" unicode="&#xe7;" horiz-adv-x="806" 
d="M-166 705q-72 40 -84 137q-15 149 33 297q107 356 332 661q32 45 59 68q75 63 162 41q82 -24 113 -121q13 -46 10 -102v-48q3 -9 0 -18q-3 -8 -21 -8q-13 0 -22 6q-10 3 -13 24q-9 103 -65 179q-10 16 -19 16q-13 -4 -20 -16q-61 -74 -119 -179q-165 -291 -252 -610
q-12 -42 -18 -88q18 3 39 -6q26 -12 26 -49q-3 -40 -14 -78q-6 -24 -12 -45q2 0 10 4q137 79 268 197q89 75 148 129q150 134 231 198q48 41 82 62q35 18 68 4q15 -3 18 -12q3 -10 -10 -23q-12 -14 -37 -39q-14 -16 -45 -47q-20 -19 -60 -58t-59 -59q-154 -160 -321 -299
q-72 -60 -166 -110q-59 -33 -131 -33q9 -21 35 -37q79 -28 94 -108q6 -41 -8 -82q-16 -47 -48 -66q-42 -24 -73 -31q-38 -10 -62 -26q-26 -20 -35 -78q-6 -36 -34 -49q-28 -12 -56 0q-27 12 -24 49q6 98 69 170q12 12 33 24q25 14 39 19q6 1 18.5 3t18.5 3q26 -1 34 14.5
t-3 49.5q-96 47 -105 106q-7 33 -4 64z" />
    <glyph glyph-name="egrave" unicode="&#xe8;" horiz-adv-x="706" 
d="M616 1266q4 -3 1.5 -8t-4 -7t-6.5 -6t-7 -6q-210 -200 -418 -336q-110 -75 -211 -88q-43 -4 -65 0q-84 12 -120 62t-36 161q3 103 84 262q111 220 277 386q52 52 96 77q90 52 186 6q73 -34 58 -110q-29 -126 -134 -264q-71 -92 -182 -172q-100 -77 -192 -11
q-13 10 -19 -6q-64 -150 -57 -260v-2q6 -56 25.5 -69t70.5 6q119 43 283 157q64 46 305 226q19 14 29 16q29 0 36 -14zM307 1702q-168 -125 -315 -371q66 28 110 8q4 -2 8 0t7.5 6t5.5 5q121 121 176 278q13 50 8 74zM326 2171q121 -95 206 -234l11 -22q19 -43 4 -60
q-17 -19 -60 -10q-12 4 -18 4q-28 7 -61 27q-162 106 -240 184q-46 43 -68 88q-7 17 -10 24.5t-3 21.5t7 26q18 25 70 21q84 -8 162 -70z" />
    <glyph glyph-name="eacute" unicode="&#xe9;" horiz-adv-x="706" 
d="M616 1266q4 -3 1.5 -8t-4 -7t-6.5 -6t-7 -6q-210 -200 -418 -336q-110 -75 -211 -88q-43 -4 -65 0q-84 12 -120 62t-36 161q3 103 84 262q111 220 277 386q52 52 96 77q90 52 186 6q73 -34 58 -110q-29 -126 -134 -264q-71 -92 -182 -172q-100 -77 -192 -11
q-13 10 -19 -6q-64 -150 -57 -260v-2q6 -56 25.5 -69t70.5 6q119 43 283 157q64 46 305 226q19 14 29 16q29 0 36 -14zM307 1702q-168 -125 -315 -371q66 28 110 8q4 -2 8 0t7.5 6t5.5 5q121 121 176 278q13 50 8 74zM315 2171q78 62 162 70q52 4 70 -21q7 -12 7 -26
t-3 -21.5t-10 -24.5q-22 -45 -68 -88q-78 -78 -240 -184q-33 -20 -61 -27q-6 0 -18 -4q-43 -9 -60 10q-15 17 4 60l11 22q85 139 206 234z" />
    <glyph glyph-name="ecircumflex" unicode="&#xea;" horiz-adv-x="706" 
d="M616 1266q4 -3 1.5 -8t-4 -7t-6.5 -6t-7 -6q-210 -200 -418 -336q-110 -75 -211 -88q-43 -4 -65 0q-84 12 -120 62t-36 161q3 103 84 262q111 220 277 386q52 52 96 77q90 52 186 6q73 -34 58 -110q-29 -126 -134 -264q-71 -92 -182 -172q-100 -77 -192 -11
q-13 10 -19 -6q-64 -150 -57 -260v-2q6 -56 25.5 -69t70.5 6q119 43 283 157q64 46 305 226q19 14 29 16q29 0 36 -14zM307 1702q-168 -125 -315 -371q66 28 110 8q4 -2 8 0t7.5 6t5.5 5q121 121 176 278q13 50 8 74zM252 1858q-69 -66 -148 -15q-23 15 -26 28t12 36
q57 87 191 233q18 22 88 92q30 30 73 27q46 0 109 -25q89 -42 92 -141q2 -27 4 -82t4 -82q0 -3 0.5 -17t1 -19t3 -16.5t5.5 -17.5t9.5 -14t15.5 -14q12 -8 6 -19q-6 -14 -24 -14q-101 -3 -164 72q-33 42 -60 135q-1 3 -4 15t-4 20q-50 -43 -184 -182z" />
    <glyph glyph-name="edieresis" unicode="&#xeb;" horiz-adv-x="706" 
d="M616 1266q4 -3 1.5 -8t-4 -7t-6.5 -6t-7 -6q-210 -200 -418 -336q-110 -75 -211 -88q-43 -4 -65 0q-84 12 -120 62t-36 161q3 103 84 262q111 220 277 386q52 52 96 77q90 52 186 6q73 -34 58 -110q-29 -126 -134 -264q-71 -92 -182 -172q-100 -77 -192 -11
q-13 10 -19 -6q-64 -150 -57 -260v-2q6 -56 25.5 -69t70.5 6q119 43 283 157q64 46 305 226q19 14 29 16q29 0 36 -14zM307 1702q-168 -125 -315 -371q66 28 110 8q4 -2 8 0t7.5 6t5.5 5q121 121 176 278q13 50 8 74zM164 2109q30 24 69 19.5t66 -31.5q46 -43 27 -108
q-3 -7 -4 -25t-5 -27q-26 -45 -53 -67.5t-67 -18.5q-60 -3 -103 19q-60 29 -37 92q34 86 107 147zM522 2109q30 24 68 19.5t67 -31.5q44 -44 25 -108q-1 -5 -1.5 -24t-6.5 -28q-49 -93 -121 -86q-59 -3 -102 19q-60 31 -37 92q34 88 108 147z" />
    <glyph glyph-name="igrave" unicode="&#xec;" horiz-adv-x="585" 
d="M72 1690q45 104 155 65q34 -12 29 -49q-4 -28 -12 -58.5t-19 -68.5t-16 -57q-2 -7 -15.5 -50.5t-16.5 -54.5t-14.5 -50t-15.5 -54.5t-13.5 -49.5t-14 -55t-11 -50.5t-11.5 -56t-9 -52.5q-16 -104 2 -158q7 -26 15 -29t30 12q14 9 29 20t26 19.5t27 23t24 21.5t26 25
t23 22.5t25 25.5t22.5 24t24.5 26.5t23 24.5q46 51 199 246q16 22 43 22q20 -2 24 -9t-6 -24q-78 -139 -182 -264q-95 -118 -203 -217q-84 -75 -194 -69q-68 6 -111.5 47t-52.5 108q-1 8 -2 26t-2 25q8 165 63 357q57 210 111 336zM193 2122q121 -95 206 -234l11 -22
q19 -43 4 -60q-17 -19 -60 -10q-12 4 -18 4q-30 8 -62 27q-159 104 -239 184q-46 43 -68 88q-7 17 -10 24.5t-3 21.5t7 26q12 17 32.5 20.5t37.5 -0.5q85 -8 162 -69z" />
    <glyph glyph-name="iacute" unicode="&#xed;" horiz-adv-x="585" 
d="M72 1690q45 104 155 65q34 -12 29 -49q-4 -28 -12 -58.5t-19 -68.5t-16 -57q-2 -7 -15.5 -50.5t-16.5 -54.5t-14.5 -50t-15.5 -54.5t-13.5 -49.5t-14 -55t-11 -50.5t-11.5 -56t-9 -52.5q-16 -104 2 -158q7 -26 15 -29t30 12q14 9 29 20t26 19.5t27 23t24 21.5t26 25
t23 22.5t25 25.5t22.5 24t24.5 26.5t23 24.5q46 51 199 246q16 22 43 22q20 -2 24 -9t-6 -24q-78 -139 -182 -264q-95 -118 -203 -217q-84 -75 -194 -69q-68 6 -111.5 47t-52.5 108q-1 8 -2 26t-2 25q8 165 63 357q57 210 111 336zM350 2122q77 61 162 69q17 4 37.5 0.5
t32.5 -20.5q3 -4 4.5 -8t2 -8.5t1 -8t-0.5 -8.5l-1.5 -7.5t-3 -8.5t-3 -7.5t-3.5 -8t-3 -7.5q-23 -47 -67 -88q-78 -78 -240 -184q-33 -20 -61 -27q-7 0 -19 -4q-43 -9 -59 10q-15 17 4 60q2 4 5 11t5 11q84 137 207 234z" />
    <glyph glyph-name="icircumflex" unicode="&#xee;" horiz-adv-x="585" 
d="M72 1690q45 104 155 65q34 -12 29 -49q-4 -28 -12 -58.5t-19 -68.5t-16 -57q-2 -7 -15.5 -50.5t-16.5 -54.5t-14.5 -50t-15.5 -54.5t-13.5 -49.5t-14 -55t-11 -50.5t-11.5 -56t-9 -52.5q-16 -104 2 -158q7 -26 15 -29t30 12q14 9 29 20t26 19.5t27 23t24 21.5t26 25
t23 22.5t25 25.5t22.5 24t24.5 26.5t23 24.5q46 51 199 246q16 22 43 22q20 -2 24 -9t-6 -24q-78 -139 -182 -264q-95 -118 -203 -217q-84 -75 -194 -69q-68 6 -111.5 47t-52.5 108q-1 8 -2 26t-2 25q8 165 63 357q57 210 111 336zM117 1858q-69 -66 -148 -15q-23 15 -26 28
t12 36q60 91 190 233q18 22 88 92q30 30 74 27q47 0 109 -25q89 -42 92 -141q2 -27 4 -82t4 -82q0 -3 0.5 -17t1 -19t3 -16.5t5.5 -17.5t9.5 -14t15.5 -14q12 -8 6 -19q-6 -14 -25 -14q-100 -3 -163 72q-33 42 -60 135q-1 3 -4 15t-4 20q-50 -43 -184 -182z" />
    <glyph glyph-name="idieresis" unicode="&#xef;" horiz-adv-x="585" 
d="M68 1690q45 104 155 65q34 -12 29 -49q-4 -28 -12 -58.5t-19 -68.5t-16 -57q-2 -7 -15.5 -50.5t-16.5 -54.5t-14.5 -50t-15.5 -54.5t-13.5 -49.5t-14 -55t-11 -50.5t-11.5 -56t-9 -52.5q-16 -104 2 -158q7 -26 15 -29t30 12q14 9 29 20t26 19.5t27 23t24 21.5t26 25
t23 22.5t25 25.5t22.5 24t24.5 26.5t23 24.5q46 51 199 246q16 22 43 22q20 -2 24 -9t-6 -24q-78 -139 -182 -264q-95 -118 -203 -217q-84 -75 -195 -69q-68 6 -111 47t-52 108q-1 8 -2 26t-2 25q8 165 63 357q57 210 111 336zM14 2109q30 24 69.5 19.5t66.5 -31.5
q45 -43 26 -108q-3 -7 -3.5 -25t-4.5 -27q-25 -45 -52.5 -67.5t-68.5 -18.5q-60 -3 -102 19q-60 29 -37 92q34 87 106 147zM373 2109q30 24 68 19.5t67 -31.5q43 -43 24 -108q-1 -5 -1.5 -24t-6.5 -28q-49 -93 -121 -86q-59 -3 -102 19q-60 31 -37 92q34 87 109 147z" />
    <glyph glyph-name="ntilde" unicode="&#xf1;" horiz-adv-x="991" 
d="M973 1438q18 0 24 -8q5 -8 -10 -23q-49 -59 -102 -117q-76 -82 -232 -250q-56 -59 -127 -59q-97 -3 -127 88q-6 17 -9.5 34t-5 40t-2 32.5t0 40.5t0.5 35q2 49 2 154q-56 -61 -139 -178q-31 -46 -63 -98t-71.5 -119.5t-58.5 -98.5q-7 -13 -22.5 -37t-22.5 -38
q-52 -87 -168 -74q-40 3 -58 23t-20 61q-5 95 33 241q9 34 21 70.5t21 64.5t25 71t24 63.5t28 70t25 62.5t28.5 69t26.5 64q20 56 41 96q17 35 68 49t85 -6q19 -12 15 -39q-5 -30 -13 -60t-23 -72.5t-20 -57.5q-90 -272 -133 -434q-10 -28 -8 -39q11 4 23 24
q158 221 333 408q38 44 107 37q41 -3 47 -43q8 -59 10 -84q1 -41 3 -122t3 -122q0 -55 21 -98q12 9 23 19.5t26.5 26.5t20.5 21q22 23 69.5 72t75.5 77.5t69.5 68t77.5 71.5q29 26 58 23zM125 1874q-23 -20 -55.5 -20t-55.5 20q-20 17 -10 41q65 134 158 188q31 19 67 22.5
t64.5 -3.5t66.5 -23q27 -11 53.5 -32t39.5 -34t43 -46q8 -9 20 -24q16 -21 24 -22t37 15q12 6 19 10q80 44 135 111q20 23 54.5 24.5t54.5 -20.5q9 -11 2 -29q-52 -135 -180 -209q-39 -21 -93 -18q-172 9 -274 147q-13 19 -24.5 19.5t-28.5 -13.5q-11 -9 -117 -104z" />
    <glyph glyph-name="ograve" unicode="&#xf2;" horiz-adv-x="673" 
d="M260 1616q108 9 125 -96q2 -14 2.5 -30.5t0.5 -28t-2.5 -32t-4 -27.5t-5.5 -31t-5 -28q-40 -228 -174 -380q-77 -89 -199 -86q-130 0 -139 131q-2 20 -2 61q38 270 186 487q60 88 145 93q3 0 11.5 0.5t12 0t10.5 -2t10.5 -4t7 -8t4.5 -13.5q1 -5 3 -6.5t7 -0.5t6 1z
M223 1399q4 82 -4 123q-5 21 -14 22q-11 0 -18 -15q-1 -2 -1 -3q-5 -13 -21 -50.5t-24 -58.5q-73 -188 -86 -346q-4 -61 13 -92q19 23 24 31q117 144 131 389zM281 2083q121 -95 206 -234l11 -22q19 -43 4 -60q-17 -19 -60 -10q-12 4 -18 4q-30 8 -62 27q-159 104 -239 184
q-46 43 -68 88q-7 17 -10 24.5t-3 21.5t7 26q12 17 32.5 20.5t37.5 -0.5q85 -8 162 -69z" />
    <glyph glyph-name="oacute" unicode="&#xf3;" horiz-adv-x="673" 
d="M260 1616q108 9 125 -96q2 -14 2.5 -30.5t0.5 -28t-2.5 -32t-4 -27.5t-5.5 -31t-5 -28q-40 -228 -174 -380q-77 -89 -199 -86q-130 0 -139 131q-2 20 -2 61q38 270 186 487q60 88 145 93q3 0 11.5 0.5t12 0t10.5 -2t10.5 -4t7 -8t4.5 -13.5q1 -5 3 -6.5t7 -0.5t6 1z
M223 1399q4 82 -4 123q-5 21 -14 22q-11 0 -18 -15q-1 -2 -1 -3q-5 -13 -21 -50.5t-24 -58.5q-73 -188 -86 -346q-4 -61 13 -92q19 23 24 31q117 144 131 389zM340 2083q77 61 162 69q17 4 37 0.5t32 -20.5q7 -12 7 -26t-3 -21.5t-10 -24.5q-23 -47 -67 -88
q-78 -78 -240 -184q-33 -20 -61 -27q-7 0 -19 -4q-43 -9 -59 10q-15 17 4 60q2 4 5 11t5 11q84 137 207 234z" />
    <glyph glyph-name="ocircumflex" unicode="&#xf4;" horiz-adv-x="673" 
d="M260 1616q108 9 125 -96q2 -14 2.5 -30.5t0.5 -28t-2.5 -32t-4 -27.5t-5.5 -31t-5 -28q-40 -228 -174 -380q-77 -89 -199 -86q-130 0 -139 131q-2 20 -2 61q38 270 186 487q60 88 145 93q3 0 11.5 0.5t12 0t10.5 -2t10.5 -4t7 -8t4.5 -13.5q1 -5 3 -6.5t7 -0.5t6 1z
M223 1399q4 82 -4 123q-5 21 -14 22q-11 0 -18 -15q-1 -2 -1 -3q-5 -13 -21 -50.5t-24 -58.5q-73 -188 -86 -346q-4 -61 13 -92q19 23 24 31q117 144 131 389zM166 1788q-68 -65 -148 -14q-23 15 -26 27.5t12 35.5q60 91 191 234q18 22 88 92q29 29 73 26q49 0 109 -24
q89 -42 92 -142q2 -27 4 -81.5t4 -81.5q0 -3 0.5 -17t1 -19t3 -16.5t5.5 -18t9.5 -14.5t15.5 -14q11 -7 6 -18q-6 -14 -24 -14q-102 -3 -164 71q-33 42 -60 135q-1 3 -4 15t-4 20q-50 -43 -184 -182z" />
    <glyph glyph-name="otilde" unicode="&#xf5;" horiz-adv-x="673" 
d="M260 1616q108 9 125 -96q2 -14 2.5 -30.5t0.5 -28t-2.5 -32t-4 -27.5t-5.5 -31t-5 -28q-40 -228 -174 -380q-77 -89 -199 -86q-130 0 -139 131q-2 20 -2 61q38 270 186 487q60 88 145 93q3 0 11.5 0.5t12 0t10.5 -2t10.5 -4t7 -8t4.5 -13.5q1 -5 3 -6.5t7 -0.5t6 1z
M223 1399q4 82 -4 123q-5 21 -14 22q-11 0 -18 -15q-1 -2 -1 -3q-5 -13 -21 -50.5t-24 -58.5q-73 -188 -86 -346q-4 -61 13 -92q19 23 24 31q117 144 131 389zM-12 1794q-23 -20 -55.5 -20t-55.5 20q-20 17 -10 41q65 134 158 188q31 19 67 22.5t64.5 -3.5t66.5 -23
q8 -3 16.5 -7.5t15 -8.5t15 -10.5t13.5 -10t13.5 -11.5t12 -11.5l13 -13t12 -12.5t12.5 -14t12 -13q6 -7 13 -15t9.5 -12.5t8 -9t6 -6.5t6 -2.5t6.5 -0.5t8.5 3t10.5 4.5t14.5 8t18.5 9.5q79 44 135 111q20 23 54 24.5t54 -20.5q10 -12 3 -29q-52 -134 -181 -209
q-39 -21 -92 -18q-172 9 -274 147q-13 19 -25 19.5t-29 -13.5q-18 -15 -37.5 -32t-42.5 -38.5t-36 -33.5z" />
    <glyph glyph-name="odieresis" unicode="&#xf6;" horiz-adv-x="673" 
d="M260 1616q108 9 125 -96q2 -14 2.5 -30.5t0.5 -28t-2.5 -32t-4 -27.5t-5.5 -31t-5 -28q-40 -228 -174 -380q-77 -89 -199 -86q-130 0 -139 131q-2 20 -2 61q38 270 186 487q60 88 145 93q3 0 11.5 0.5t12 0t10.5 -2t10.5 -4t7 -8t4.5 -13.5q1 -5 3 -6.5t7 -0.5t6 1z
M223 1399q4 82 -4 123q-5 21 -14 22q-11 0 -18 -15q-1 -2 -1 -3q-5 -13 -21 -50.5t-24 -58.5q-73 -188 -86 -346q-4 -61 13 -92q19 23 24 31q117 144 131 389zM109 2040q30 24 69 19.5t66 -31.5q45 -43 26 -109q-3 -7 -3.5 -24.5t-4.5 -26.5q-25 -45 -52.5 -67.5
t-68.5 -18.5q-61 -3 -102 18q-60 29 -37 92q34 88 107 148zM467 2040q30 24 68 19.5t67 -31.5q44 -44 25 -109q-1 -4 -2 -23t-7 -28q-49 -93 -120 -86q-62 -3 -103 18q-60 31 -37 92q35 89 109 148z" />
    <glyph glyph-name="divide" unicode="&#xf7;" horiz-adv-x="1110" 
d="M913 1274q-12 -35 -43 -35q-33 0 -59 29q-15 18 -35 18q-88 8 -127 10q-285 21 -571 -57q-59 -16 -101 29q-19 17 -19 31.5t19 31.5q53 43 138 72q244 84 518 35q133 -24 192 -56q48 -23 70 -53q26 -30 18 -55zM621 1866q57 -26 73 -81.5t-18 -109.5q-31 -53 -98 -110
q-42 -36 -93 -33q-43 0 -75 14q-84 29 -84 117q-3 133 106 219q56 43 135 8zM426 1169q66 -21 72 -86q0 -8 1 -20t1 -14q1 -116 -93.5 -174.5t-191.5 -4.5q-68 35 -47 111q14 53 39 82q40 53 82 92q28 26 66.5 26.5t70.5 -12.5z" />
    <glyph glyph-name="oslash" unicode="&#xf8;" horiz-adv-x="673" 
d="M109 1493l-5 29q0 2 -2 4q0 8 -2 12q-4 4 -10 6q-6 0 -10 -4q-2 -2 -6 -10q0 -2 -2 -4l-9 -21q-23 -48 -36 -88q-32 -84 -39 -112q1 3 4.5 8t3.5 6q66 106 113 174zM86 1227q-66 -112 -135 -244l2 -4q2 4 8 10t16 21q74 99 109 217zM-223 918q-30 35 -33 90q-2 14 -2 41
v20q38 264 186 487q50 84 146 93h6q10 2 31 -2q15 -3 18 -25q3 -6 6 -6q3 -3 6 0h4q28 4 45 -2q88 127 191 258q29 39 74 84q37 34 80 8q11 -5 14 -12q3 -10 -6 -19l-78 -114q-17 -26 -51.5 -77t-51.5 -77l-94 -139q2 -2 2 -6q9 -74 -10 -154q-1 -4 -2 -12t-2 -11
q-34 -211 -174 -380q-77 -86 -186 -86q-84 -172 -154 -347q-2 -6 -2 -14q0 -9 10 -12q7 -3 4 -12q0 -11 -8 -19q-10 -10 -22 -16q-11 -8 -23 -8q-69 3 -63 69q14 76 43 162q2 0 2 2q54 150 94 236z" />
    <glyph glyph-name="ugrave" unicode="&#xf9;" horiz-adv-x="880" 
d="M420 1034q-13 217 26 410l3 18q-24 -39 -103 -180q-114 -219 -192 -326q-21 -30 -56 -65q-69 -72 -176 -35q-53 15 -67 86q-15 88 8 242q37 215 153 442q18 34 43.5 51t53 17t59.5 -6q26 -6 32 -18t-1 -38q-13 -45 -43.5 -148t-51 -179.5t-36.5 -149.5q-27 -109 -31 -180
q81 90 139 188q38 62 143.5 242t165.5 276q25 38 46 43q51 12 72 -7t11 -68q-57 -297 -75 -523q0 -10 -1 -30.5t-1 -32.5v-33q22 25 43 51.5t46.5 61t37.5 49.5q27 34 75.5 98.5t63.5 83.5q3 7 10 15q18 24 47 10q17 -10 4 -41q-52 -107 -149 -236q-79 -105 -119 -143
q-31 -28 -59 -35q-54 -12 -86 11.5t-35 78.5zM287 2122q123 -97 207 -234q2 -4 5 -11t5 -11q19 -43 4 -60q-16 -19 -59 -10q-12 4 -19 4q-28 7 -61 27q-162 106 -240 184q-46 43 -68 88q-7 17 -10 24.5t-3 21.5t7 26q12 17 32.5 20.5t37.5 -0.5q85 -8 162 -69z" />
    <glyph glyph-name="uacute" unicode="&#xfa;" horiz-adv-x="880" 
d="M420 1034q-13 217 26 410l3 18q-24 -39 -103 -180q-114 -219 -192 -326q-21 -30 -56 -65q-69 -72 -176 -35q-53 15 -67 86q-15 88 8 242q37 215 153 442q18 34 43.5 51t53 17t59.5 -6q26 -6 32 -18t-1 -38q-13 -45 -43.5 -148t-51 -179.5t-36.5 -149.5q-27 -109 -31 -180
q81 90 139 188q38 62 143.5 242t165.5 276q25 38 46 43q51 12 72 -7t11 -68q-57 -297 -75 -523q0 -10 -1 -30.5t-1 -32.5v-33q22 25 43 51.5t46.5 61t37.5 49.5q27 34 75.5 98.5t63.5 83.5q3 7 10 15q18 24 47 10q17 -10 4 -41q-52 -107 -149 -236q-79 -105 -119 -143
q-31 -28 -59 -35q-54 -12 -86 11.5t-35 78.5zM406 2122q77 61 161 69q17 4 37.5 0.5t32.5 -20.5q7 -12 7 -26t-3 -21.5t-10 -24.5q-22 -45 -68 -88q-80 -80 -239 -184q-32 -19 -62 -27q-6 0 -18 -4q-43 -9 -60 10q-15 17 4 60l11 22q84 137 207 234z" />
    <glyph glyph-name="ucircumflex" unicode="&#xfb;" horiz-adv-x="880" 
d="M420 1034q-13 217 26 410l3 18q-24 -39 -103 -180q-114 -219 -192 -326q-21 -30 -56 -65q-69 -72 -176 -35q-53 15 -67 86q-15 88 8 242q37 215 153 442q18 34 43.5 51t53 17t59.5 -6q26 -6 32 -18t-1 -38q-13 -45 -43.5 -148t-51 -179.5t-36.5 -149.5q-27 -109 -31 -180
q81 90 139 188q38 62 143.5 242t165.5 276q25 38 46 43q51 12 72 -7t11 -68q-57 -297 -75 -523q0 -10 -1 -30.5t-1 -32.5v-33q22 25 43 51.5t46.5 61t37.5 49.5q27 34 75.5 98.5t63.5 83.5q3 7 10 15q18 24 47 10q17 -10 4 -41q-52 -107 -149 -236q-79 -105 -119 -143
q-31 -28 -59 -35q-54 -12 -86 11.5t-35 78.5zM223 1858q-68 -65 -147 -15q-23 15 -26.5 28t11.5 36q57 87 191 233q18 22 88 92q30 30 74 27q46 0 108 -25q89 -42 92 -141q2 -27 4.5 -82t4.5 -82q0 -5 0.5 -17.5t1 -18.5t2.5 -16.5t5 -17t9.5 -14.5t15.5 -14q12 -8 7 -19
q-6 -14 -25 -14q-101 -3 -164 72q-32 40 -59 135q-1 3 -4 15t-4 20q-56 -48 -185 -182z" />
    <glyph glyph-name="udieresis" unicode="&#xfc;" horiz-adv-x="880" 
d="M420 1034q-13 217 26 410l3 18q-24 -39 -103 -180q-114 -219 -192 -326q-21 -30 -56 -65q-69 -72 -176 -35q-53 15 -67 86q-15 88 8 242q37 215 153 442q18 34 43.5 51t53 17t59.5 -6q26 -6 32 -18t-1 -38q-13 -45 -43.5 -148t-51 -179.5t-36.5 -149.5q-27 -109 -31 -180
q81 90 139 188q38 62 143.5 242t165.5 276q25 38 46 43q51 12 72 -7t11 -68q-57 -297 -75 -523q0 -10 -1 -30.5t-1 -32.5v-33q22 25 43 51.5t46.5 61t37.5 49.5q27 34 75.5 98.5t63.5 83.5q3 7 10 15q18 24 47 10q17 -10 4 -41q-52 -107 -149 -236q-79 -105 -119 -143
q-31 -28 -59 -35q-54 -12 -86 11.5t-35 78.5zM184 2109q30 24 69 19.5t66 -31.5q46 -43 27 -108q-3 -7 -3.5 -25t-4.5 -27q-25 -45 -52.5 -67.5t-68.5 -18.5q-60 -3 -102 19q-60 29 -37 92q34 87 106 147zM543 2109q30 24 68 19.5t67 -31.5q43 -43 24 -108q-1 -5 -1.5 -24
t-6.5 -28q-49 -93 -121 -86q-59 -3 -102 19q-60 31 -37 92q34 87 109 147z" />
    <glyph glyph-name="yacute" unicode="&#xfd;" horiz-adv-x="1339" 
d="M1374 1440q-16 -7 -33 -16.5t-29.5 -17t-32 -20.5t-28 -19.5t-30.5 -22.5t-29 -21q-157 -108 -350 -281q-22 -22 -27 -49q-112 -562 -356 -1042q-84 -169 -203 -309q-62 -66 -109 -91q-69 -39 -143 0q-50 23 -57 95q-9 116 41 295q108 371 389 749q146 202 309 352
q17 17 21 31q54 321 51 563q0 8 -4 58q-86 -95 -168 -205q-38 -49 -79.5 -111t-68.5 -106t-72.5 -120t-66.5 -110q-39 -65 -92 -124q-67 -76 -170 -48q-101 28 -119 127q-19 88 6 217q33 190 96 332q22 51 53 65t83 -1q41 -11 53.5 -32.5t-2.5 -59.5q-15 -41 -26.5 -86.5
t-25.5 -109.5t-20 -89q-26 -114 -31 -189v-32q15 7 37 37q38 45 73.5 95t85.5 126.5t67 101.5q153 225 231 320q32 40 78 80q21 19 55.5 23.5t67.5 -4.5t59.5 -35t32.5 -62q12 -72 0 -215q-4 -50 -39 -289q11 -2 25 12q231 171 368 244q71 42 127 49q9 -2 8.5 -23t-6.5 -30
v-2zM586 596q36 112 73 260q-7 -7 -15.5 -16t-10.5 -11q-147 -166 -293 -393q-205 -321 -274 -608q-8 -38 -10.5 -53t-7 -46.5t-4 -56t4.5 -49.5q3 -23 8.5 -24.5t22.5 14.5q61 52 135 168q230 365 371 815zM457 2122q77 61 161 69q17 4 37.5 0.5t32.5 -20.5q7 -12 7 -26
t-3 -21.5t-10 -24.5q-22 -45 -68 -88q-80 -80 -239 -184q-32 -19 -62 -27q-6 0 -18 -4q-43 -9 -59 10q-15 17 4 60q2 4 5 11t5 11q84 137 207 234z" />
    <glyph glyph-name="ydieresis" unicode="&#xff;" horiz-adv-x="1339" 
d="M1374 1440q-16 -7 -33 -16.5t-29.5 -17t-32 -20.5t-28 -19.5t-30.5 -22.5t-29 -21q-157 -108 -350 -281q-22 -22 -27 -49q-112 -562 -356 -1042q-84 -169 -203 -309q-62 -66 -109 -91q-69 -39 -143 0q-50 23 -57 95q-9 116 41 295q108 371 389 749q146 202 309 352
q17 17 21 31q54 321 51 563q0 8 -4 58q-86 -95 -168 -205q-38 -49 -79.5 -111t-68.5 -106t-72.5 -120t-66.5 -110q-39 -65 -92 -124q-67 -76 -170 -48q-101 28 -119 127q-19 88 6 217q33 190 96 332q22 51 53 65t83 -1q41 -11 53.5 -32.5t-2.5 -59.5q-15 -41 -26.5 -86.5
t-25.5 -109.5t-20 -89q-26 -114 -31 -189v-32q15 7 37 37q38 45 73.5 95t85.5 126.5t67 101.5q153 225 231 320q32 40 78 80q21 19 55.5 23.5t67.5 -4.5t59.5 -35t32.5 -62q12 -72 0 -215q-4 -50 -39 -289q11 -2 25 12q231 171 368 244q71 42 127 49q9 -2 8.5 -23t-6.5 -30
v-2zM586 596q36 112 73 260q-7 -7 -15.5 -16t-10.5 -11q-147 -166 -293 -393q-205 -321 -274 -608q-8 -38 -10.5 -53t-7 -46.5t-4 -56t4.5 -49.5q3 -23 8.5 -24.5t22.5 14.5q61 52 135 168q230 365 371 815zM215 2109q30 24 69 19.5t66 -31.5q46 -43 27 -108q-3 -7 -3.5 -25
t-4.5 -27q-25 -45 -52.5 -67.5t-68.5 -18.5q-60 -3 -103 19q-59 29 -36 92q34 87 106 147zM573 2109q30 24 68.5 19.5t67.5 -31.5q43 -43 24 -108q-1 -5 -1.5 -24t-6.5 -28q-49 -93 -121 -86q-59 -3 -102 19q-60 31 -37 92q35 88 108 147z" />
    <glyph glyph-name="Ydieresis" unicode="&#x178;" horiz-adv-x="1978" 
d="M1520 2736q12 23 82 164.5t114 212.5q1 2 3 5t3 5l13.5 22.5t16.5 25t19.5 15.5t30.5 9q92 0 144 -55q22 -24 22 -88q0 -158 -39 -328q-97 -449 -330 -1022q-328 -817 -811 -1481q-154 -219 -280 -334q-45 -39 -100 -69q-24 -12 -56.5 -8t-52.5 24q-19 16 -2 33
q64 65 131.5 153t105.5 144.5t111 169.5q609 941 938 1997q59 181 96 372q-19 -36 -39 -65q-66 -110 -201 -328.5t-202 -327.5q-84 -137 -230.5 -394.5t-183.5 -321.5q-159 -270 -297 -428q-89 -100 -161 -146q-69 -40 -137 -40.5t-127.5 41t-88.5 112.5q-44 107 -41 264
q2 214 86 553q135 537 299 938q61 144 119 227q28 40 56.5 49t74.5 -6q83 -26 80 -110q-3 -23 -29 -19q-24 2 -34 -24q-312 -798 -428 -1370q-55 -271 -39 -439q6 -61 26 -114q8 -22 31 -13q64 30 129 95q156 146 317 415q88 143 239.5 412t217.5 379q36 61 127.5 212.5
t156 263t120.5 218.5zM985 3289q30 24 69 19.5t66 -31.5q46 -44 27 -109q-3 -7 -3.5 -24.5t-4.5 -26.5q-25 -45 -52.5 -67.5t-68.5 -18.5q-62 -3 -103 18q-60 29 -36 93q34 87 106 147zM1343 3289q30 24 68.5 19.5t67.5 -31.5q43 -43 24 -109q-1 -5 -1.5 -23.5t-6.5 -27.5
q-49 -93 -121 -86q-61 -3 -102 18q-60 31 -37 93q35 88 108 147z" />
    <glyph glyph-name="circumflex" unicode="&#x2c6;" horiz-adv-x="718" 
d="M125 2701q-68 -65 -148 -14q-23 15 -26 27.5t12 35.5q60 91 191 234q18 22 88 92q30 30 73 27q47 0 109 -25q89 -42 92 -141q2 -27 4 -82t4 -82q0 -3 0.5 -17t1 -19t3 -16.5t5.5 -17.5t9.5 -14t15.5 -14q12 -8 6 -19q-6 -14 -24 -14q-101 -3 -164 72q-33 42 -60 135
q-1 3 -4 15t-4 20q-24 -21 -51 -46.5t-43 -42.5t-47.5 -50t-42.5 -44z" />
    <glyph glyph-name="caron" unicode="&#x2c7;" horiz-adv-x="718" 
d="M406 3043q66 69 145 17q24 -15 26.5 -28.5t-12.5 -37.5q-56 -85 -188 -233q-14 -15 -43.5 -44.5t-44.5 -45.5q-29 -29 -76 -29q-51 0 -107 27q-88 39 -94 141q-1 18 -1.5 51t-1.5 61t-3 52q0 3 -0.5 17t-1 19t-3 16t-5.5 17t-9.5 13.5t-15.5 13.5q-12 8 -6 20q5 13 25 13
q101 6 162 -70q35 -42 59 -135q2 -6 5.5 -19.5t4.5 -17.5q31 26 61 55.5t69.5 70.5t54.5 56z" />
    <glyph glyph-name="uni02C9" unicode="&#x2c9;" horiz-adv-x="952" 
d="M809 2910q-9 -35 -37 -35q-26 0 -49 29q-12 18 -29 18q-95 10 -108 11q-236 20 -482 -58q-49 -16 -86 29q-25 32 2 64q40 40 115 71q206 84 438 35q5 -1 20 -4.5t20.5 -4.5t19.5 -4.5t21.5 -6l19.5 -6.5t21 -8t19.5 -9.5t20.5 -11.5q41 -25 60 -53q19 -34 14 -56z" />
    <glyph glyph-name="dotaccent" unicode="&#x2d9;" horiz-adv-x="376" 
d="M88 3060q30 24 69 19t66 -32q46 -43 27 -108q-3 -7 -3.5 -24.5t-4.5 -26.5q-25 -45 -52.5 -67.5t-68.5 -18.5q-62 -3 -103 18q-59 29 -36 92q35 89 106 148z" />
    <glyph glyph-name="ring" unicode="&#x2da;" horiz-adv-x="466" 
d="M274 3082q68 6 80 -41q5 -22 -8 -75q-26 -99 -113 -166q-45 -37 -127 -37q-84 0 -90 57v27q23 111 119 211q42 37 94 39q31 0 35 -13q0 -2 10 -2zM250 2988q4 37 -2 53q0 1 -1 4.5t-2.5 5t-4.5 1.5q-8 0 -13 -9q-15 -21 -28 -47q-48 -78 -56 -149q-4 -24 9 -39q3 2 8 6
t8 6q75 65 82 168z" />
    <glyph glyph-name="tilde" unicode="&#x2dc;" horiz-adv-x="1021" 
d="M207 2855q-23 -20 -55.5 -20t-55.5 20q-20 17 -10 41q65 134 158 188q31 19 67 22.5t64.5 -3.5t66.5 -23q27 -11 53.5 -32t39.5 -34t43 -46q8 -9 20 -24q16 -21 24 -22t37 15q12 6 19 10q80 43 135 111q20 23 54.5 24.5t54.5 -20.5q9 -11 2 -29q-52 -134 -181 -209
q-39 -21 -92 -18q-172 9 -274 147q-13 19 -24.5 19.5t-28.5 -13.5q-11 -9 -117 -104z" />
    <glyph glyph-name="endash" unicode="&#x2013;" horiz-adv-x="1357" 
d="M1157 1274q-12 -35 -53 -35q-42 0 -74 29q-21 18 -45 18q-105 8 -160 10q-357 21 -719 -57q-73 -16 -126 29q-22 17 -21.5 31.5t23.5 31.5q65 43 172 72q306 84 651 35q59 -9 85.5 -13t74 -16t84.5 -27q58 -22 86 -53l9 -9t7.5 -9t6.5 -11.5t1.5 -11.5t-2.5 -14z" />
    <glyph glyph-name="emdash" unicode="&#x2014;" horiz-adv-x="1695" 
d="M1499 1274q-18 -35 -69 -35q-50 0 -97 29q-24 18 -55 18q-141 8 -207 10q-460 21 -928 -57q-96 -16 -163 29q-29 17 -28.5 31.5t30.5 31.5q89 45 223 72q393 84 839 35q219 -25 314 -56q76 -23 110 -53q10 -7 15 -11t12.5 -12.5t6.5 -14.5t-3 -17z" />
    <glyph glyph-name="quoteleft" unicode="&#x2018;" horiz-adv-x="446" 
d="M283 2589q5 -31 -15 -41q-23 -13 -47 -4q-51 20 -88 49q-64 53 -86 133t-22 192q0 62 22.5 93.5t77.5 54.5q55 21 120 -24.5t83 -114.5q12 -60 -25 -95q-42 -37 -102 -43q2 -21 20 -57q48 -81 62 -143z" />
    <glyph glyph-name="quoteright" unicode="&#x2019;" horiz-adv-x="446" 
d="M61 2589q9 52 60 143q20 32 20 57q-60 6 -102 43q-38 38 -23 95q17 68 82.5 114t118.5 25q56 -23 79 -54.5t23 -93.5q0 -111 -22.5 -191t-87.5 -134q-35 -30 -88 -49q-22 -8 -47 4q-18 10 -13 41z" />
    <glyph glyph-name="quotesinglbase" unicode="&#x201a;" horiz-adv-x="446" 
d="M20 238q9 52 60 143q20 32 20 57q-60 6 -102 43q-37 37 -23 94q18 69 83 115t118 25q56 -23 79.5 -54.5t23.5 -93.5q0 -110 -23 -190.5t-88 -134.5q-35 -30 -88 -49q-22 -8 -47 4q-18 10 -13 41z" />
    <glyph glyph-name="quotedblleft" unicode="&#x201c;" horiz-adv-x="942" 
d="M283 2589q5 -31 -15 -41q-23 -13 -47 -4q-51 20 -88 49q-64 53 -86 133t-22 192q0 62 22.5 93.5t77.5 54.5q55 21 120 -24.5t83 -114.5q12 -60 -25 -95q-42 -37 -102 -43q2 -21 20 -57q48 -81 62 -143zM698 2589q3 -17 0.5 -26t-14.5 -15q-23 -13 -47 -4q-51 20 -88 49
q-65 54 -87 133.5t-22 191.5q0 62 23 93.5t78 54.5q55 21 119.5 -24.5t82.5 -114.5q13 -61 -24 -95q-42 -37 -103 -43q2 -18 21 -57q47 -78 61 -143z" />
    <glyph glyph-name="quotedblright" unicode="&#x201d;" horiz-adv-x="892" 
d="M61 2589q9 52 60 143q20 32 20 57q-60 6 -102 43q-38 38 -23 95q17 68 82.5 114t118.5 25q56 -23 79 -54.5t23 -93.5q0 -111 -22.5 -191t-87.5 -134q-35 -30 -88 -49q-22 -8 -47 4q-18 10 -13 41zM487 2589q9 52 60 143q20 32 20 57q-60 6 -102 43q-38 38 -23 95
q17 68 82.5 114t118.5 25q56 -23 79 -54.5t23 -93.5q0 -111 -22.5 -191t-87.5 -134q-35 -30 -88 -49q-22 -8 -47 4q-18 10 -13 41z" />
    <glyph glyph-name="quotedblbase" unicode="&#x201e;" horiz-adv-x="823" 
d="M20 238q9 52 60 143q20 32 20 57q-60 6 -102 43q-37 37 -23 94q18 69 83 115t118 25q56 -23 79.5 -54.5t23.5 -93.5q0 -110 -23 -190.5t-88 -134.5q-35 -30 -88 -49q-22 -8 -47 4q-18 10 -13 41zM428 238q10 55 59 143q21 34 21 57q-60 6 -102 43q-37 37 -23 94
q18 69 83 115t118 25q56 -23 79 -54.5t23 -93.5q0 -110 -23 -190.5t-88 -134.5q-35 -30 -88 -49q-22 -8 -47 4q-17 10 -12 41z" />
    <glyph glyph-name="dagger" unicode="&#x2020;" horiz-adv-x="1021" 
d="M186 1448l45 170q110 437 215 807q94 316 226 698q18 49 76 221l18 54q12 36 25.5 76t29.5 89.5t25 77.5q15 48 65 45q15 0 39 -4q52 -9 72 -32q15 -21 6 -74q-40 -246 -106 -457q-231 -790 -467 -1671q15 -1 65 -10q97 -12 193 -56q38 -14 69 -53q12 -12 17 -22
q5 -13 2 -33q-15 -35 -43 -35q-31 0 -60 29q-15 18 -34 18l-91 8q-12 2 -36 2q-82 4 -121 4q-163 -629 -166 -643q-93 -364 -166 -671q-76 -314 -100 -408q-36 -162 -99 -309q-20 -44 -61 -41q-30 0 -57 10q-46 15 -46 64q6 228 56 462q124 636 305 1280q20 81 39 148l22 86
q-91 -15 -178 -39q-54 -17 -100 29q-34 34 0 63q66 51 137 72q90 30 184 45z" />
    <glyph glyph-name="daggerdbl" unicode="&#x2021;" horiz-adv-x="1021" 
d="M358 1081q-51 -194 -108 -424q-93 -364 -166 -671q-76 -314 -100 -408q-36 -162 -99 -309q-20 -44 -61 -41q-30 0 -57 10q-46 15 -46 64q6 228 56 462q124 636 305 1280l4 17q-105 -17 -190 -41q-54 -18 -101 29q-34 34 0 63q66 51 137 72q94 33 199 45l100 389
q1 4 3.5 11t3.5 11q-83 -11 -213 -45q-54 -18 -101 29q-34 34 0 64q64 49 137 71q105 37 220 49q87 336 165 617q94 316 226 698q18 49 76 221l18 54q12 36 25.5 76t29.5 89.5t25 77.5q15 48 65 45q15 0 39 -4q52 -9 72 -32q15 -21 6 -74q-40 -246 -106 -457
q-155 -526 -373 -1319q5 -1 15.5 -3t15.5 -3q98 -12 192 -55q39 -15 70 -53q9 -9 16 -23q5 -13 2 -33q-15 -35 -43 -35q-30 0 -59 29q-15 18 -35 18l-90 9q-12 2 -37 2l-86 4q-19 -72 -57 -215.5t-56 -214.5q36 -4 54 -8q95 -12 192 -56q39 -15 70 -53q9 -9 16 -23
q5 -13 2 -32q-15 -35 -43 -35q-30 0 -59 29q-15 18 -35 18l-90 8q-12 2 -37 2q-74 4 -109 4z" />
    <glyph glyph-name="bullet" unicode="&#x2022;" horiz-adv-x="624" 
d="M150 1665q54 41 124 32.5t119 -55.5q81 -79 45 -196q-3 -12 -3 -44.5t-9 -49.5q-44 -80 -95 -121t-126 -33q-104 -12 -185 31q-107 55 -67 166q60 155 197 270z" />
    <glyph glyph-name="ellipsis" unicode="&#x2026;" horiz-adv-x="1339" 
d="M23 776q35 27 79 21.5t76 -35.5q49 -49 29 -125q-2 -7 -2.5 -27t-7.5 -30q-26 -50 -58.5 -76.5t-79.5 -22.5q-64 -6 -116 21q-67 34 -43 104q41 103 123 170zM498 776q35 27 79 21.5t76 -35.5q49 -49 29 -125q-2 -7 -2.5 -27t-7.5 -30q-27 -51 -58.5 -77t-78.5 -22
q-65 -6 -117 21q-67 34 -43 104q41 103 123 170zM944 776q35 27 79.5 21.5t76.5 -35.5q48 -48 28 -125q-2 -7 -2.5 -27t-7.5 -30q-27 -51 -58.5 -77t-78.5 -22q-65 -6 -117 21q-67 34 -43 104q41 103 123 170z" />
    <glyph glyph-name="trademark" unicode="&#x2122;" horiz-adv-x="3321" 
d="M1673 2957q18 -21 -2 -35q-50 -32 -82 -26q-10 2 -20.5 0t-25.5 -7l-21 -7q-332 -77 -576 -154q-25 -7 -31 -23q-43 -108 -135 -323.5t-135 -323.5q-170 -444 -248 -764q-59 -256 -51 -481q4 -51 10 -76q6 -18 23 -18q33 -5 35 -21q0 -15 -35 -20q-33 -6 -62.5 9.5
t-44.5 47.5q-22 48 -30 133q-23 294 55 613q99 387 311 860q24 51 70 151.5t70 151.5q1 2 4.5 10t5.5 15q-42 -14 -49 -17q-356 -118 -570 -254q-65 -42 -149 4q-43 23 -8 58q39 47 135 104q152 89 422 184q128 45 268 84q45 12 63 47q17 28 36 34t48 -5q9 0 13 -4
q6 -10 15 -14t13.5 -3.5t18.5 4.5t16 5q306 73 467 96q92 14 152 -18q4 -2 24 -17zM2761 3006q26 28 62.5 31t68.5 -20q24 -19 24 -66q2 -45 -10 -135q-21 -159 -62.5 -350t-73 -310t-93.5 -344q-23 -84 -65 -239t-56 -207q-1 -5 -3 -14.5t-3 -14.5q4 3 7 7t6 9.5t5 8.5
q144 271 271 432q53 64 94 94q27 21 64.5 19.5t62.5 -23.5q20 -20 20 -57q-2 -99 -31 -242q-18 -82 -56.5 -245.5t-57.5 -245.5q-29 -136 -27 -226q0 -14 4.5 -20.5t20.5 -5.5q30 4 33 -17q1 -3 -0.5 -6t-5 -5t-5.5 -3.5t-7.5 -3.5t-6.5 -2q-36 -14 -69 3.5t-40 55.5
q-13 66 2 183q3 18 111 688q0 2 1 8t1 11.5t-2 10.5q-4 -5 -23 -24q-116 -143 -264 -428q-27 -54 -81.5 -164t-82.5 -164q-20 -38 -45 -46t-71 11q-35 11 -29 51q14 110 47 277q13 72 29 142.5t41 162.5t36.5 133t47 161.5t41.5 139.5q132 455 196 813q2 11 5.5 33t5.5 33
q-33 -38 -127 -174q-191 -289 -392 -748q-248 -576 -362 -893q-77 -219 -135 -442q-6 -23 -15 -30t-34 -7q-27 0 -54 10q-21 10 -26 20.5t-2 35.5q32 283 161 753q41 154 125 439.5t119 412.5q75 282 90 449q12 131 -2 196q-4 21 -9 23.5t-24 -6.5q-104 -47 -213 -156
q-420 -420 -567 -928q-36 -114 -45 -241q-4 -61 8 -99q6 -21 17 -28.5t35 -9.5q3 0 18 1t24.5 0t18.5 -6q16 -5 14 -14q-1 -5 -3 -6.5t-8 -2.5t-7 -1q-41 -3 -76 2q-59 6 -93 42t-40 97q-14 125 31 303q101 383 372 738q135 183 285 299q97 71 174 90q62 16 137 -11
q96 -36 99 -153q5 -131 -37 -320q-13 -67 -29.5 -134.5t-38 -146.5t-35.5 -128t-42.5 -145.5t-38.5 -131.5q-32 -106 -48 -157q-5 -15 -2 -19q7 4 13 21q17 36 68.5 150.5t76.5 167.5t68 143.5t81 164.5t78 146q135 245 320 501q9 13 35 43z" />
    <glyph glyph-name="minus" unicode="&#x2212;" horiz-adv-x="1110" 
d="M913 1274q-12 -35 -43 -35q-33 0 -59 29q-15 18 -35 18q-88 8 -127 10q-285 21 -571 -57q-59 -16 -101 29q-19 17 -19 31.5t19 31.5q53 43 138 72q244 84 518 35q133 -24 192 -56q48 -23 70 -53q26 -30 18 -55z" />
    <glyph glyph-name="uniE315" unicode="&#xe393;" horiz-adv-x="2048" 
 />
    </font>
</defs>
</svg>
