<?xml version="1.0" standalone="no"?> <!DOCTYPE svg PUBLIC "-//W3C//DTD SVG 1.0//EN" "http://www.w3.org/TR/2001/REC-SVG-20010904/DTD/svg10.dtd" > <svg xmlns="http://www.w3.org/2000/svg" width="100%" height="100%">
<defs >
<font horiz-adv-x="402" ><font-face
    font-family="NalikaSignature"
    units-per-em="1000"
    panose-1="2 0 5 3 0 0 0 0 0 0"
    ascent="600"
    descent="-394"
    alphabetic="0" />
<missing-glyph horiz-adv-x="364" d="M33 0V600H298V0H33ZM66 33H265V567H66V33Z" />
<glyph unicode=" " glyph-name="space" horiz-adv-x="200" />
<glyph unicode="A" glyph-name="A" horiz-adv-x="603" d="M444 476Q450 463 450 421Q449 363 435 248Q428 194 416 114Q373 114 321 111Q278 108 215 102Q222 114 243 153T273 210T301 261T332 317T362 367T396 418Q423 458 438 471Q442 475 444 476ZM474 370Q474
373 475 378Q476 394 476 403T477 430T476 459T471 482T461 499T444 503Q438 503 433 500T424 495T415 488T408 480T401 471T395 463Q354 410 282 279Q240 202 187 99Q40 83 40 78T95 73T175 75Q116 -43 13 -255Q-1 -283 1 -284T19 -258Q44 -219 97 -120Q134 -51
158 -5T201 76Q222 77 263 80T323 84Q375 88 412 89Q408 59 401 10T389 -68T379 -136T371 -213Q370 -218 369 -230T367 -248T366 -263T370 -280Q371 -284 373 -284Q376 -246 390 -166Q393 -149 401 -103T418 -10T435 90Q492 91 565 89Q603 87 603 90Q604 95 567
102Q513 113 439 114Q467 279 474 370Z" />
<glyph unicode="B" glyph-name="B" horiz-adv-x="568" d="M547 -60Q550 -60 564 -61Q563 -62 557 -62Q492 -69 395 -93Q300 -190 190 -254Q168 -267 146 -277T92 -297T35 -300T-1 -266Q-11 -232 38 -199Q100 -156 248 -115Q313 -97 366 -86Q421 -33 457 19Q485
58 492 84Q494 93 494 99Q494 157 303 88Q245 67 171 33Q164 29 156 34T150 47Q151 54 161 64Q174 79 190 95T226 131T256 161Q366 272 416 336Q443 371 455 394Q455 395 457 398T460 403T462 409T465 416T466 422T465 427T461 432Q428 446 377 409Q342 383 311
349T238 258T185 186Q184 185 181 181T176 174T170 166T163 160T155 155T147 154T140 160Q133 170 138 206Q145 261 183 405Q208 502 210 502Q212 501 201 443T176 318T160 244Q151 195 153 177Q153 176 153 175Q157 179 171 197Q184 215 213 255T266 326T313 382Q371
442 417 455Q448 464 471 453T487 410Q481 387 459 354Q423 300 342 213Q330 200 214 81Q244 94 273 105T339 128T407 145T465 150T507 137T521 99Q520 79 509 54Q488 9 435 -51Q423 -64 411 -77Q468 -66 520 -61Q536 -60 547 -60ZM345 -106Q167 -151 79 -198Q-4
-242 27 -270Q51 -293 121 -263Q201 -229 303 -143Q326 -124 345 -106Z" />
<glyph unicode="C" glyph-name="C" horiz-adv-x="480" d="M488 59Q493 57 471 16T436 -44Q350 -175 245 -231Q183 -265 121 -263Q44 -230 42 -108Q40 -9 84 128Q125 253 185 353Q225 419 261 451Q315 499 346 456Q370 422 367 334Q367 318 366 306T363 289T362
284T360 302T357 344T354 377Q353 384 353 387T351 399T349 411T346 422T342 433T337 443T331 450T324 455T316 458T305 455Q285 448 259 417Q216 366 171 272Q92 105 73 -42Q52 -204 123 -238Q173 -240 231 -210Q329 -160 423 -35Q427 -30 435 -19T451 6T468 31T482
52T488 59Z" />
<glyph unicode="D" glyph-name="D" horiz-adv-x="605" d="M605 102Q606 101 579 89T507 57T451 32Q444 14 436 -5Q369 -155 288 -236Q245 -280 203 -295Q165 -308 126 -296T68 -255Q47 -221 75 -180Q97 -148 133 -122T220 -65Q310 -13 422 35Q475 164 490 283Q493
304 494 325T495 379T487 434T464 474T421 490Q395 489 359 468Q295 430 222 337Q190 297 167 260Q164 215 159 180Q159 178 158 168T156 154T154 141T151 126T147 113T141 101T135 91T126 82T116 77Q97 72 87 86T79 121Q84 160 119 225Q135 257 154 287Q155 307
157 348T161 421T167 481Q168 487 168 491T170 497T171 499Q172 499 171 455L170 393Q170 340 169 309Q215 377 270 432Q330 490 380 509Q400 517 425 515T468 502Q491 486 504 458T520 395T522 332T517 275Q503 165 459 50Q494 65 530 78Q604 105 605 102ZM150
233Q133 204 120 175Q98 128 99 106Q100 97 105 96T115 101Q123 109 130 131Q143 173 150 233ZM413 14Q235 -70 148 -140Q111 -170 95 -195Q71 -231 95 -254Q112 -271 138 -276T191 -272Q228 -258 269 -217Q346 -138 410 9Q412 11 413 14Z" />
<glyph unicode="E" glyph-name="E" horiz-adv-x="548" d="M186 234Q192 193 281 195Q308 194 340 196Q347 188 352 179Q354 164 344 144Q331 115 292 64Q280 49 215 -29T120 -151Q56 -249 107 -256Q124 -259 157 -251Q174 -247 193 -241T225 -231T261 -216T291
-203T325 -188T354 -174Q373 -165 426 -140T515 -98T589 -70Q634 -55 636 -61Q636 -62 627 -65T606 -72T593 -77Q538 -101 435 -155T280 -232Q278 -233 264 -239T247 -247T231 -253T212 -261T195 -267T175 -273T156 -277T135 -280Q103 -284 81 -270T59 -225Q61
-200 78 -167Q104 -119 177 -29Q186 -19 218 19T269 82T306 134Q323 162 325 176Q301 171 276 171T225 175T181 195T160 235Q156 268 182 308Q219 366 290 420Q363 475 427 487Q463 493 490 480T513 432Q511 407 491 374Q476 351 449 321T403 274Q380 254 379 255T398
279Q474 365 491 413Q506 458 476 468Q460 473 434 467Q375 455 306 401Q238 348 204 293Q182 256 186 234Z" />
<glyph unicode="F" glyph-name="F" horiz-adv-x="611" d="M398 478Q396 472 394 464Q355 454 235 422Q242 425 264 434T298 447T329 458T364 469T398 478ZM402 495Q402 495 402 495T401 494Q402 495 402 495ZM429 487T429 491T426 499T420 503T412 506T403 507T394
506T384 504T376 502T368 500T362 497Q245 462 105 397Q92 391 89 389Q90 385 89 377Q97 368 105 367T127 368Q168 376 210 388T309 418T388 442Q372 388 328 256T280 111Q230 106 87 88Q43 82 26 79T8 74Q10 66 92 69Q154 71 271 83Q222 -73 200 -172Q180 -265
187 -267Q188 -268 193 -251T204 -208T213 -177Q242 -73 297 86Q415 98 480 103Q560 109 560 111Q560 113 551 115T521 119T476 122Q405 124 307 114Q313 133 342 213T388 346T420 452Q431 455 459 463T500 475T536 485T578 494T619 501Q628 502 618 503Q605 506
576 502Q524 496 425 472Q429 487 429 491Z" />
<glyph unicode="G" glyph-name="G" horiz-adv-x="533" d="M679 -113Q679 -114 677 -114T668 -114T656 -114T637 -114T614 -114Q514 -113 426 -123Q352 -131 287 -145Q279 -157 271 -168Q252 -193 240 -208T208 -242T168 -274Q126 -300 92 -281Q76 -271 68 -256T67
-225Q81 -195 147 -167Q198 -146 264 -131Q315 -59 392 78Q329 23 258 -14Q194 -47 145 -51Q94 -55 65 -24T34 64Q33 107 49 185Q83 342 189 455Q273 544 346 549Q419 554 436 468Q443 432 439 382Q434 326 400 270T327 173Q297 142 295 145Q295 145 321 178Q417
295 423 386Q430 515 360 519Q299 522 216 434Q120 334 83 210Q78 192 74 175Q71 159 70 151T65 121T61 86T61 53T67 21T81 -3T104 -20T138 -24Q181 -21 242 10Q359 72 453 181Q455 180 460 177T468 171Q472 166 476 163Q474 160 469 154T462 144Q455 132 425 80T383
5T347 -55T303 -123Q359 -113 422 -108Q519 -100 613 -106Q679 -110 679 -113ZM246 -156Q197 -169 158 -187Q113 -207 95 -226Q85 -238 86 -245Q87 -253 96 -259T115 -266Q131 -267 153 -254Q193 -229 246 -156Z" />
<glyph unicode="H" glyph-name="H" horiz-adv-x="639" d="M710 -227Q745 -211 712 -231Q696 -241 676 -248T626 -259T572 -254Q534 -240 506 -206T461 -124T437 -27T427 75Q424 141 430 206Q416 192 384 160T334 110T290 65T242 15Q218 -72 193 -139Q166 -210
142 -237Q115 -267 87 -248Q71 -238 66 -220T64 -186T74 -156Q92 -116 142 -55Q177 -13 219 33Q234 86 270 228T329 446Q345 496 356 517Q356 517 357 519T360 524Q358 523 356 522T353 520T350 518Q316 498 245 438Q143 353 54 269Q47 261 53 270Q58 278 71 293Q130
359 234 450Q237 452 253 467T277 488T298 505T323 524T347 538Q355 544 369 543T380 524Q379 519 377 514T372 504T367 494Q351 455 319 327Q312 297 291 209T258 74Q291 108 353 169T435 251Q451 373 493 454Q504 475 514 490T542 520T583 539Q612 545 635 532T656
490Q654 475 646 458T633 434T614 408Q568 345 455 231Q438 111 452 -7Q456 -37 461 -63T475 -117T495 -166T522 -206T557 -236T602 -250T656 -246Q680 -241 710 -227ZM463 280Q513 332 551 375Q601 432 619 467Q619 467 622 472T626 480T630 489T632 498T630 506T622
512Q583 528 544 484Q491 424 463 280ZM200 -31Q199 -33 190 -44T178 -57T167 -70T155 -84T145 -97T134 -111T124 -125T115 -140T107 -155T98 -171Q98 -171 96 -175T94 -181T91 -187T89 -194T87 -201T87 -209T89 -215T92 -222T98 -227Q110 -235 130 -206Q135 -198
140 -190T150 -171T158 -154T167 -133T174 -114T181 -93T187 -73T194 -51T200 -31Z" />
<glyph unicode="I" glyph-name="I" horiz-adv-x="300" d="M292 -33Q292 -34 286 -34T266 -37T236 -45Q181 -62 141 -106Q129 -148 117 -188Q115 -193 112 -205T107 -223T101 -239T93 -254Q92 -258 87 -259T76 -257Q41 -232 77 -161Q90 -134 112 -109Q133 -31 166
122Q201 281 212 370Q219 422 217 446Q216 455 215 457Q193 448 169 416Q145 385 125 338T94 248Q85 213 83 178Q82 168 81 168Q77 168 77 188T78 227T81 252Q91 311 116 370T177 461Q184 466 190 471T207 480T226 479T238 458Q242 441 241 409Q239 351 220 247Q190
82 149 -74Q165 -62 180 -54Q205 -40 232 -34Q249 -31 264 -31T285 -31L292 -33ZM73 -239Q73 -239 73 -239ZM86 -239Q86 -239 87 -239Q86 -239 86 -239ZM82 -213Q87 -197 93 -180Q84 -199 82 -213Z" />
<glyph unicode="J" glyph-name="J" horiz-adv-x="582" d="M637 45Q636 45 635 45T631 45T626 45T619 45T611 46T602 47Q477 57 362 29Q322 -135 269 -223Q257 -244 248 -256T221 -283T183 -302Q134 -315 84 -262Q56 -232 52 -196Q47 -146 88 -95Q168 4 337 44Q356
119 371 207Q390 320 394 402Q396 454 391 475Q390 481 389 482Q367 492 318 470Q250 439 182 372Q169 359 168 360T177 376Q200 406 235 436T309 485Q364 512 396 498Q412 490 415 444Q417 403 412 339Q401 199 367 51Q488 74 601 54Q637 48 637 45ZM331 21Q238
-6 171 -54Q92 -111 80 -170Q73 -201 88 -226T130 -268Q173 -295 216 -247Q259 -200 297 -91Q316 -39 331 21Z" />
<glyph unicode="K" glyph-name="K" horiz-adv-x="713" d="M78 -238Q78 -238 78 -238ZM105 -185Q95 -206 86 -223Q85 -209 105 -185ZM426 497H425H426ZM413 508Q413 508 413 507Q413 508 413 508ZM423 517Q416 517 399 507Q328 466 235 394Q213 377 191 361T155
335T130 317T113 306T109 301Q110 300 125 307T173 335T245 382Q345 453 411 489Q405 462 393 429T375 381T349 325Q328 279 299 221T239 102T186 -4Q177 -24 162 -60T140 -110Q134 -115 122 -127T102 -145T86 -163T70 -184Q54 -210 62 -233Q66 -243 74 -253T92
-262Q96 -261 99 -258T105 -252T109 -243T112 -236Q131 -200 164 -127Q178 -113 185 -103Q198 -86 252 -14T343 104Q444 -112 585 -218Q636 -257 698 -277T821 -283Q843 -278 842 -274Q841 -273 818 -273Q737 -275 671 -244Q648 -233 626 -219T582 -186T544 -152T507
-110T474 -70T440 -23T410 21T379 68T350 113Q397 171 438 216Q569 361 711 440Q719 445 727 449T740 456T749 461T755 465T756 466Q754 470 706 448Q564 382 421 232Q383 192 344 145T282 69T206 -29Q227 18 299 162T403 390Q425 448 431 482Q435 505 430 513Q425
517 423 517Z" />
<glyph unicode="L" glyph-name="L" horiz-adv-x="554" d="M842 -241Q842 -242 830 -241T800 -238T780 -236Q426 -205 215 -234Q200 -236 190 -238Q188 -240 187 -242Q154 -295 129 -314Q112 -328 91 -320T66 -286Q61 -250 114 -229Q139 -220 171 -214Q179 -199
195 -170Q305 31 382 276Q383 280 388 295T394 314T399 332T404 351T409 370T413 390T417 409T419 430T421 450Q422 485 410 496Q403 503 412 498Q438 484 428 399Q418 319 377 192Q352 114 320 32Q261 -114 208 -208Q277 -198 401 -199Q617 -200 780 -226Q843
-236 842 -241ZM98 -298Q104 -299 121 -281Q136 -266 150 -246Q119 -254 103 -267Q86 -282 97 -297Q98 -298 98 -298Z" />
<glyph unicode="M" glyph-name="M" horiz-adv-x="778" d="M749 -293Q758 -291 760 -291Q765 -291 753 -295Q752 -295 751 -296Q732 -303 709 -304T662 -297Q607 -266 623 -131Q631 -57 663 73T705 264Q714 316 711 347Q710 365 706 370Q701 367 696 365T686 358T679
352T671 343T664 336T657 326T650 318Q602 257 521 129T396 -57Q395 -58 389 -66T380 -77T373 -87T364 -97T355 -106T344 -114T333 -122Q321 -130 307 -125T289 -103Q287 -88 293 -61Q303 -21 336 66Q344 86 364 136T398 224T423 297Q430 324 431 337Q431 337 431
338Q415 332 393 305Q334 234 230 94T75 -109Q61 -127 57 -129Q54 -128 45 -126Q40 -118 38 -116Q38 -111 46 -90Q63 -47 135 123T241 392Q258 443 260 465Q261 470 261 475T257 484T246 486Q229 482 195 457Q192 455 165 433T115 393T90 376Q88 379 129 415T188
466Q221 493 241 498Q254 501 262 497T271 479T272 455T267 426T261 402T256 385Q230 302 167 143Q155 114 128 49T87 -52Q127 0 216 120T355 304Q388 346 411 359Q422 368 438 365T457 344Q460 325 449 285Q432 225 389 119T330 -36Q316 -78 315 -96Q315 -97 315
-99Q318 -98 325 -92Q344 -78 373 -39Q418 19 492 134T601 296Q643 354 669 376Q677 383 686 387T707 391T727 375Q737 354 733 304Q728 250 703 149Q698 129 681 63T653 -46T637 -135Q629 -189 633 -224Q642 -303 713 -299Q728 -298 749 -293Z" />
<glyph unicode="N" glyph-name="N" horiz-adv-x="638" d="M92 -186Q113 -158 160 -71Q187 -23 233 66T318 228T396 362Q456 459 492 474Q519 485 536 458Q545 435 545 389Q544 358 541 325T532 244T524 181Q520 143 519 125T515 73T512 12T516 -44Q531 -181 623
-189Q663 -193 698 -181T755 -150Q774 -133 758 -153Q741 -174 704 -189T622 -201T547 -169Q488 -109 494 68Q495 123 505 220T518 350Q522 415 516 442Q515 447 515 448T512 451T506 451Q495 447 476 426Q442 388 387 292Q349 225 274 80T156 -138Q155 -139 148
-152T138 -168T130 -181T120 -196T110 -208T98 -221Q87 -232 78 -232Q45 -232 77 -147Q83 -130 143 20T226 254Q279 442 198 435Q163 432 91 391Q62 375 76 386Q80 389 88 395Q149 441 195 447Q213 450 226 446T246 429T257 404T262 370T260 333T254 293T246 256T237
221T230 194T224 175Q205 114 159 -4T94 -180Q93 -181 92 -186Z" />
<glyph unicode="O" glyph-name="O" horiz-adv-x="624" d="M681 243Q724 247 721 245Q719 243 683 236Q617 224 532 222Q531 221 531 219Q486 60 377 -89Q326 -158 275 -202Q258 -216 247 -224T216 -242T175 -255Q134 -261 94 -226Q51 -189 46 -126Q42 -89 51 -42Q66
35 116 142Q141 195 178 261Q156 267 137 274Q70 301 50 335Q27 376 73 414Q109 444 186 472Q227 486 279 500Q322 511 362 513T441 507T508 470T545 397Q560 327 536 236Q614 236 681 243ZM506 237Q515 270 520 303Q527 356 516 403T468 472Q409 506 289 475Q189
449 132 421Q81 396 69 371Q55 342 102 314Q136 293 187 278Q198 297 210 317Q253 393 253 387Q253 381 218 312Q215 305 208 292T200 275Q224 268 256 261Q364 239 506 237ZM191 257Q124 124 95 39Q70 -36 67 -90Q64 -151 87 -187Q104 -213 135 -227Q164 -241
210 -216Q254 -191 306 -133Q413 -12 478 153Q493 190 502 222Q323 221 191 257Z" />
<glyph unicode="P" glyph-name="P" horiz-adv-x="989" d="M502 412Q502 412 502 412ZM914 427Q784 515 577 497Q399 482 230 400Q157 364 103 324T15 229Q6 214 0 201T-8 172Q-12 143 7 125T53 101T111 97Q137 99 185 110T260 122Q274 123 274 123Q274 126 251
126T218 126Q204 125 180 121T138 114T96 111T52 117Q5 130 10 166Q15 197 51 241Q112 316 244 378Q411 456 583 471Q782 487 902 406Q951 373 948 329Q946 303 927 273Q903 234 853 190Q759 110 607 36Q496 -18 398 -46Q416 28 459 162T516 347Q528 391 528 408Q527
410 527 414Q525 425 517 427T501 427T488 420Q471 405 441 364Q415 328 371 261T331 189Q333 188 370 234T448 333T501 396Q495 369 487 342T466 277T448 224Q394 56 373 -53Q315 -68 277 -68Q258 -68 277 -71Q310 -77 370 -66Q354 -153 355 -217Q356 -235 358
-259T365 -284Q366 -284 366 -272T367 -242T368 -220Q374 -151 395 -61Q497 -37 618 18Q820 110 916 213Q970 272 974 323Q979 384 914 427Z" />
<glyph unicode="Q" glyph-name="Q" horiz-adv-x="638" d="M614 -240Q599 -254 599 -253T611 -237Q622 -223 626 -218T643 -197T660 -168T670 -139T675 -106T667 -74Q647 -32 576 4Q532 26 472 45Q391 -88 301 -169Q230 -232 155 -261Q92 -286 55 -262Q-9 -219
28 -38Q50 68 79 131Q87 148 95 164Q48 186 22 216T3 297Q10 354 68 406Q136 469 251 507Q295 522 345 530T448 540T546 525T614 476Q650 424 607 316Q574 231 515 122Q498 90 481 61Q540 41 584 18Q625 -4 652 -28T685 -91Q693 -138 654 -194Q637 -218 614 -240ZM457
69Q508 157 565 285Q591 343 599 375Q612 432 592 461Q572 490 530 503T438 515T343 504T259 482Q117 435 56 357Q45 343 38 327T27 287T34 245Q50 213 105 185Q142 260 179 312Q179 312 182 317T188 325T193 330T199 334Q201 335 198 332Q194 327 183 309Q149
251 116 180Q118 179 120 178Q166 157 222 139T348 101T457 69ZM106 159Q99 142 91 125Q65 63 45 -42Q42 -59 40 -72T36 -106T33 -143T34 -178T41 -210T55 -234T78 -249T112 -251Q128 -248 147 -240Q218 -212 285 -151Q371 -73 447 53Q411 64 340 83T212 119T111
157Q108 158 106 159Z" />
<glyph unicode="R" glyph-name="R" horiz-adv-x="693" d="M138 123Q156 119 197 93Q148 89 138 123ZM137 125Q137 125 137 125ZM362 508Q380 514 389 517T417 525T449 533T481 538T518 541T554 537Q590 532 612 511T631 454Q629 423 605 383Q572 326 505 264Q400
167 288 118Q338 313 354 406Q365 476 362 508ZM519 565Q449 565 354 532Q352 539 340 541T322 541Q306 534 281 503Q146 442 58 363Q8 318 -8 280Q-16 265 -14 244T5 209Q30 188 81 182Q93 180 102 180T116 180T120 181Q120 181 106 184T74 190T51 196Q-9 215
-1 256Q4 279 30 309Q99 389 253 463Q237 440 221 411T195 363T186 342Q187 341 195 351T217 379T243 416T271 453T293 481Q315 491 338 500Q338 471 328 414Q321 378 312 335T295 261T276 180T257 106Q242 101 228 98Q172 137 143 145Q126 150 117 142T114 117Q125
85 156 74T229 71Q237 65 246 58Q216 -70 205 -140Q204 -147 203 -160T199 -193T197 -226T201 -240Q201 -240 209 -201Q220 -144 268 41Q319 1 356 -36Q519 -201 668 -225Q714 -232 757 -226Q765 -225 772 -224T782 -221T784 -219Q784 -219 755 -220Q609 -226 461
-108Q431 -83 369 -24T274 63Q279 83 280 85Q352 112 432 169Q538 242 601 325Q653 393 658 447Q663 503 623 534T519 565Z" />
<glyph unicode="S" glyph-name="S" horiz-adv-x="671" d="M614 -160T614 -160T606 -161Q587 -204 534 -238Q446 -294 328 -294Q249 -295 246 -263Q244 -248 263 -234Q301 -205 416 -173Q495 -151 562 -154Q572 -154 580 -155Q595 -125 592 -92Q589 -69 576 -52T539
-25T497 -9T451 2Q405 11 330 17Q293 -8 291 -5Q291 -4 319 18Q178 31 131 40Q107 45 91 49T54 63T21 86T3 120Q-13 182 25 254Q59 320 129 384Q221 468 338 517Q428 555 507 559Q595 564 654 525Q683 506 685 470Q686 440 669 400Q638 330 557 234Q457 116 360
40Q437 32 490 19T579 -25Q613 -53 616 -94Q619 -129 607 -158Q614 -160 614 -160ZM347 42Q449 132 542 247Q621 344 648 411Q649 412 650 414Q679 484 644 507Q603 533 544 534T440 524T351 493Q239 445 149 363Q57 278 33 198Q20 156 29 122Q36 93 91 76Q117
68 151 62T212 54T280 48T343 42Q345 42 347 42ZM577 -160Q570 -160 563 -160Q497 -162 422 -186Q345 -210 304 -231Q303 -232 298 -234T291 -237T285 -241T278 -246T272 -250T267 -255T264 -261Q263 -265 270 -268T288 -272T308 -274T324 -275Q396 -274 454 -252T551
-194Q567 -178 577 -160Z" />
<glyph unicode="T" glyph-name="T" horiz-adv-x="389" d="M115 -373Q110 -372 112 -329T117 -245T123 -188Q157 74 270 357Q287 398 303 433Q248 431 142 430T-11 427Q-14 427 -26 426T-48 424T-59 424Q-60 427 -27 432T26 439Q74 443 171 447T314 455Q323 470
355 499Q421 557 481 578Q535 597 570 575Q590 562 600 539T597 495Q587 482 565 472T525 458T477 449Q416 439 336 435Q242 244 188 32Q157 -86 142 -167T118 -351Q117 -363 117 -368T115 -373ZM355 458Q420 464 469 473Q498 478 511 481T546 492T575 513Q584
525 573 540T547 559Q526 564 494 553Q436 532 371 473Q361 465 355 458Z" />
<glyph unicode="U" glyph-name="U" horiz-adv-x="579" d="M512 -333Q511 -336 493 -334T468 -329Q442 -320 425 -296T401 -243T392 -180T393 -120Q401 -14 446 142Q464 207 523 379Q521 376 518 370T513 361Q479 301 428 181T362 26Q326 -49 291 -105Q253 -166
219 -189Q185 -212 155 -196Q93 -160 98 7Q98 30 100 50T109 98T118 134T130 179T141 216Q175 335 183 392Q184 394 185 403T187 418T188 432T188 448T185 461T179 475Q166 496 119 472Q111 468 102 463T87 454T71 443T57 432T41 420T28 409T14 397T1 386Q-29 360
-37 346Q-40 341 -39 338Q-39 333 -27 333T-14 331Q-14 330 -20 330T-32 329T-41 332Q-45 337 -46 341T-42 354T-33 368T-20 382T-7 395T5 405T13 412Q70 464 110 487Q123 494 136 497T163 501T188 489T203 457Q205 448 206 440T207 421T206 406T204 389T202 375T200
358T196 344Q187 296 164 211T132 89Q118 22 125 -59Q132 -139 157 -167Q180 -191 221 -150Q242 -128 267 -88Q301 -34 332 33T399 184T456 312Q488 380 520 426Q521 427 524 431T529 439T535 445T542 451T550 453T560 449Q570 440 564 418Q554 386 532 326T507
256Q480 179 465 131T433 11T409 -124Q390 -307 489 -329Q495 -331 501 -331T510 -332T512 -333ZM556 427Q557 427 558 428Q557 427 556 427ZM541 438V439V438Z" />
<glyph unicode="V" glyph-name="V" horiz-adv-x="518" d="M566 563Q570 576 571 575T571 561Q568 525 541 445Q487 289 384 84Q300 -83 230 -187Q181 -258 147 -285Q137 -293 125 -298T99 -300T76 -280Q65 -256 67 -199Q68 -149 84 -6Q86 4 89 35T94 79T98 118T102
161T104 201T106 246T107 290Q106 317 105 338T98 388T83 435T55 468T13 483Q6 484 -7 483T-30 480T-40 478Q-41 480 -32 483T-10 489T11 492Q36 493 55 483T87 453T108 410T120 356T126 299T128 241T126 190T123 146Q123 142 123 140Q120 90 110 -7T96 -149Q91
-215 95 -247Q97 -272 103 -275H102Q110 -278 128 -263Q159 -238 206 -169Q308 -21 437 249Q511 405 548 505Q560 539 566 563Z" />
<glyph unicode="W" glyph-name="W" horiz-adv-x="939" d="M598 521Q601 525 636 522T689 515Q780 495 838 424T900 243Q902 165 874 85Q857 37 827 -22Q765 -142 695 -211Q635 -269 575 -280Q521 -289 482 -263T429 -182Q417 -131 425 -47Q427 -29 435 19T445
95Q445 97 444 110Q426 108 406 98Q368 78 325 16Q304 -15 269 -77T216 -167Q173 -232 135 -254Q122 -265 100 -265T67 -245Q65 -240 63 -235T60 -225T59 -215T58 -204T58 -195T58 -184T59 -175T60 -165T62 -157Q67 -108 87 -24Q96 11 131 144T182 356Q182 357
182 361Q209 494 164 492Q159 492 150 489T135 483T128 480Q127 482 130 484T139 489T152 494T165 497T177 497Q206 486 202 411Q198 345 165 205Q158 173 143 111T115 -4T94 -103Q69 -239 95 -241Q103 -242 120 -233Q153 -213 193 -151Q210 -124 237 -74T290 15T343
85Q358 100 369 109T402 128T446 137Q455 137 461 132T469 116T471 94T471 68T468 43T464 23T461 10Q448 -74 449 -121Q449 -188 477 -226T567 -254Q619 -246 676 -191Q764 -107 835 50Q846 75 853 95Q881 172 881 246Q880 348 828 415T688 506Q659 514 621 518Q599
520 598 521ZM450 110Q451 110 451 110Q451 110 450 110Z" />
<glyph unicode="X" glyph-name="X" horiz-adv-x="710" d="M165 505Q114 518 52 493Q43 489 36 486T23 479T15 474T10 471T9 469Q9 469 26 474T65 485T97 493Q124 497 148 492T190 478T224 448T252 411T275 363T292 311T307 253T318 196T329 138Q330 132 330 129Q237
-12 138 -199Q69 -330 74 -333Q77 -335 97 -304T156 -210Q295 21 338 87Q339 77 345 39T354 -14T364 -62T376 -113T390 -158T408 -202T429 -236T456 -267Q493 -300 543 -296Q576 -293 615 -273Q677 -240 734 -184T833 -67Q873 -9 908 58Q934 106 929 104Q925 102
900 63Q848 -15 818 -55Q710 -195 600 -250Q533 -284 490 -262Q457 -245 438 -205T402 -104Q390 -57 358 118Q454 262 551 378Q575 406 602 436T638 477T646 489T632 482T593 448T536 392Q443 293 350 159Q341 208 334 241T313 318T285 392T247 449T196 492Q181
500 165 505Z" />
<glyph unicode="Y" glyph-name="Y" horiz-adv-x="683" d="M606 -33Q606 -34 579 -41T518 -57T471 -71Q465 -73 459 -75Q437 -140 389 -235Q349 -315 306 -350Q254 -394 199 -371Q176 -361 178 -326Q182 -273 203 -231T262 -159T339 -109T432 -71Q445 -33 503 172Q519
227 566 326Q464 189 382 111Q341 72 309 52Q292 41 275 36T237 33T201 57Q173 98 184 190Q189 232 205 303T227 404Q227 406 228 414T231 429T233 444T233 460T229 474T221 484T206 489Q190 490 161 478Q120 461 54 417Q48 411 26 391T-9 358T-38 335Q-47 328
-48 331L-44 336V335Q-41 337 -41 338Q-28 350 3 383T46 426Q230 561 247 464Q251 440 245 399Q241 367 226 296T206 184Q197 100 220 67Q240 39 294 73Q324 92 363 130Q393 159 421 190T484 265T534 330T591 409T641 479Q646 488 661 506Q663 504 667 501T673
497Q675 494 677 492Q679 490 683 487V486Q680 482 676 478Q663 460 634 400Q583 296 546 211Q540 199 529 161Q475 -26 464 -61Q464 -61 466 -60Q494 -52 549 -41T606 -33ZM427 -87Q379 -106 344 -125T274 -174T221 -242T200 -331Q199 -346 204 -352Q247 -369
289 -332Q328 -299 367 -221Q411 -133 427 -87Z" />
<glyph unicode="Z" glyph-name="Z" horiz-adv-x="858" d="M93 -266Q93 -266 93 -266ZM227 -138Q165 -208 124 -237Q107 -249 95 -253Q105 -207 139 -177T227 -138ZM288 -112Q357 -31 479 133Q504 131 574 132T644 140Q643 152 499 158Q572 256 597 286Q662 362
762 431Q865 450 896 478Q906 485 903 498T881 511Q862 511 832 499Q791 482 742 449Q632 428 487 427T231 442Q222 444 213 445T199 447T189 449T183 450T181 450Q180 447 231 436Q323 416 459 412T705 422Q623 359 576 304Q548 272 463 159Q369 162 292 158Q229
154 234 148Q239 143 295 139Q352 134 443 133Q320 -30 251 -111Q180 -114 135 -146T72 -231Q60 -268 76 -280Q88 -287 113 -276Q131 -268 150 -254T179 -230T209 -200Q237 -172 268 -135Q328 -135 430 -160T547 -188Q578 -193 660 -208T787 -230T899 -246T1022
-258Q1050 -260 1112 -259T1173 -253Q1172 -252 1134 -252Q1064 -251 979 -242T840 -223T684 -193T547 -167Q523 -162 433 -139T288 -112Z" />
<glyph unicode="a" glyph-name="a" horiz-adv-x="192" d="M116 88Q108 80 93 65T65 38T40 17Q3 -12 -15 12Q-36 40 -5 102Q24 163 66 185Q96 201 120 187Q128 181 135 173Q139 167 141 161T144 153T144 150Q144 150 139 155T125 166T113 174Q90 184 63 158Q20
117 7 57Q6 54 6 51T5 42T4 32T7 29Q9 29 22 39Q37 51 63 76T97 108Q98 108 99 110Q132 140 143 120Q146 114 146 111Q147 97 144 84T134 54T124 30Q128 33 144 51T175 86T191 101Q195 98 181 75T156 38Q155 37 152 31T146 22T138 14T129 7T120 2T109 1Q103 2 101
8T99 23T102 39T107 55T110 66T113 76T116 88Z" />
<glyph unicode="b" glyph-name="b" horiz-adv-x="186" d="M-4 23Q-9 23 -14 27T-18 35Q-19 40 -16 62Q25 291 61 403Q62 406 65 416T69 430T74 442T81 455T89 465T99 472Q119 482 125 458T125 413Q110 338 60 227Q42 187 39 187T50 231Q51 234 62 269T78 321T91
368T102 417Q106 441 105 445Q102 440 95 421Q61 329 23 117Q20 102 19 95Q31 114 33 116Q68 169 97 184Q123 199 145 183Q164 170 168 144T162 91Q139 35 88 16Q55 3 29 17Q18 23 23 23Q26 23 36 22Q50 19 54 20Q85 22 109 45T143 98Q151 117 148 136T132 164Q118
172 98 155Q82 142 68 122T39 75T14 35Q6 23 -4 23Z" />
<glyph unicode="c" glyph-name="c" horiz-adv-x="138" d="M137 99Q142 96 133 83T116 60Q75 14 33 6Q10 2 -1 18T-12 59T-6 104Q9 164 39 187Q48 195 60 195T82 188Q88 183 95 168T97 150Q95 149 90 156T78 170T65 177Q57 177 46 161Q39 151 32 133Q13 85 17 50Q18
44 18 42T21 36T29 33Q43 35 70 50Q94 64 127 93Q136 100 137 99Z" />
<glyph unicode="d" glyph-name="d" horiz-adv-x="208" d="M10 29Q10 29 11 28Q11 28 10 29ZM246 444Q246 444 246 444ZM242 311Q246 321 249 332T259 364T268 403T272 438T267 463T247 468Q234 465 222 440Q203 398 177 291Q162 230 148 158Q142 176 126 187T88
194Q53 186 22 142Q-16 91 -19 44Q-20 34 -18 25T-10 10T5 2Q21 -2 43 16Q83 48 115 98Q132 125 131 134Q131 140 117 124Q60 61 27 37Q17 30 11 29Q6 35 13 60Q21 93 39 122T81 167Q94 176 105 176Q114 176 121 171T136 159T146 150Q118 8 112 -63Q109 -89 112
-88Q113 -87 116 -82Q122 -66 137 -3Q144 26 164 118T202 281T238 404Q243 418 247 427Q244 395 222 318Q220 311 212 286Q179 182 183 181Q186 180 203 216Q204 218 205 220Q224 262 242 311Z" />
<glyph unicode="e" glyph-name="e" horiz-adv-x="139" d="M140 99Q146 95 120 58Q88 13 54 -3Q36 -12 20 -7T-4 13Q-25 59 6 136Q30 194 62 197Q80 199 87 183T87 151Q80 133 66 119Q56 108 46 103T30 96T24 95Q23 97 26 100T38 112T53 130Q75 161 66 173Q57 173
44 151Q13 98 18 42Q18 33 19 29T23 21T33 17Q48 17 74 39Q89 50 107 69Q112 73 118 79T127 89T133 95T137 98T140 99Z" />
<glyph unicode="f" glyph-name="f" horiz-adv-x="78" d="M118 396Q134 396 119 392Q106 384 89 344Q64 283 45 209T12 53T-4 -107Q-5 -130 -5 -135Q-1 -127 5 -107Q7 -97 14 -40T29 68T38 119Q42 119 43 100T44 53T42 -1T38 -48L37 -67Q36 -69 36 -74Q34 -93 32
-104T26 -131T13 -157T-6 -169Q-51 -178 -19 16Q-18 19 -18 20Q12 201 59 316Q68 337 72 347T87 371T109 393Q114 396 118 396Z" />
<glyph unicode="g" glyph-name="g" horiz-adv-x="183" d="M64 17Q35 2 12 23T-6 78Q0 131 50 168Q70 183 93 188T143 184Q153 178 148 178Q145 178 136 179Q121 182 117 181Q85 179 60 157T22 103Q14 87 15 68T31 39Q41 33 52 39Q65 47 76 61T93 85T110 117T125
145Q132 156 136 161Q137 165 146 165T158 160Q163 154 161 141Q130 -95 96 -213Q95 -215 93 -225T89 -239T84 -252T78 -265T71 -274T60 -282Q56 -284 49 -283Q17 -276 40 -184Q41 -180 41 -179Q57 -111 85 -39Q101 0 104 1T96 -42Q95 -45 86 -79T73 -131T63 -177T55
-226Q53 -249 54 -255Q57 -249 63 -232Q96 -134 126 91Q96 36 64 17Z" />
<glyph unicode="h" glyph-name="h" horiz-adv-x="200" d="M208 101Q212 98 186 63T148 18Q145 15 140 12T130 7T120 8T113 19Q111 28 114 47Q115 55 124 93T133 154Q133 163 129 166T120 167T110 163T101 157Q84 143 70 123T41 76T16 35Q3 17 -11 25Q-13 27 -14
29T-16 33T-17 38T-18 44T-17 49T-16 55T-15 62Q26 292 62 403Q63 406 66 416T70 430T75 442T82 455T90 465T100 472Q120 482 126 458T126 413Q111 339 61 227Q43 187 40 187T51 231Q52 234 63 269T80 321T92 367T103 417Q107 441 106 445Q103 440 96 421Q78 373
52 251Q48 233 22 98Q56 154 85 177Q98 188 113 191T147 183Q162 170 151 119Q150 112 141 81T130 30Q130 29 130 24Q138 29 157 48T191 85T208 101ZM-8 49L-10 48Q-9 48 -8 49Z" />
<glyph unicode="i" glyph-name="i" horiz-adv-x="81" d="M27 251Q30 251 48 259Q55 263 55 256Q55 247 47 241T28 235Q6 235 6 243T27 251ZM9 38Q14 43 32 61T63 91T79 101Q85 96 60 59Q59 58 57 55Q29 13 8 5Q-11 -3 -16 15T-17 57Q-13 78 -2 115T13 171Q15 182
15 186Q15 197 22 188Q23 186 24 185Q31 170 26 133Q24 119 18 87T9 38ZM0 32Q0 32 0 32Z" />
<glyph unicode="j" glyph-name="j" horiz-adv-x="52" d="M28 272Q49 275 57 266Q61 262 51 260Q44 258 28 258Q14 258 9 260T8 266T28 272ZM19 205Q23 216 24 205Q25 187 19 133Q-7 -107 -49 -234Q-49 -235 -50 -237Q-52 -244 -54 -248T-59 -261T-66 -274T-75
-283T-86 -287T-99 -280Q-120 -263 -101 -184Q-100 -180 -99 -179Q-83 -109 -55 -38Q-39 0 -35 1T-42 -42Q-44 -51 -52 -81T-64 -131T-74 -179T-82 -227Q-84 -242 -84 -248Q-82 -244 -76 -225Q-59 -172 -43 -95T-13 62T15 190Q17 200 19 205Z" />
<glyph unicode="k" glyph-name="k" horiz-adv-x="210" d="M156 172Q160 153 147 132Q126 98 84 88Q80 62 86 41T113 24Q134 28 168 60Q179 70 190 81T205 97T210 101Q211 100 208 95T197 77T177 51Q168 42 161 35T141 19T117 8Q97 2 84 13T66 43Q61 69 70 101Q111
118 126 145Q134 159 132 164Q124 169 113 164Q95 151 82 135T47 83T24 45Q16 32 12 28Q6 21 -4 24T-15 35Q-16 40 -13 62Q28 292 65 403Q66 406 69 415T73 429T78 442T85 455T92 465T102 472Q112 477 122 469Q136 457 127 413Q113 339 63 227Q45 187 43 187T54
231Q54 232 65 268T82 321T94 367T106 417Q109 441 109 445Q107 442 106 440Q92 413 71 329Q47 230 22 95Q36 117 45 130T69 160T101 187Q114 196 134 191T156 172ZM-7 49Q-7 49 -8 48Q-7 48 -7 49ZM132 165V166Q132 166 132 165Z" />
<glyph unicode="l" glyph-name="l" horiz-adv-x="98" d="M100 98Q104 96 85 66T51 21Q51 20 49 19Q16 -17 -5 -4Q-8 -2 -10 0T-13 7T-15 13T-16 21T-16 29T-15 38T-14 46T-13 54T-12 61Q24 284 62 404Q63 406 66 416T70 430T75 443T82 456T90 466T101 473Q121
483 127 459T128 413Q113 336 63 227Q50 198 44 189Q43 188 43 188T41 188Q40 191 42 200Q47 217 71 295T103 417Q106 435 106 440Q103 436 98 421Q94 410 89 395Q79 363 71 331T52 252T38 187T21 107T8 39Q4 19 7 14V13Q10 12 22 19Q38 30 59 52Q70 64 80 76T94
94T100 98Z" />
<glyph unicode="m" glyph-name="m" horiz-adv-x="361" d="M142 78Q144 79 145 79Q152 84 160 90T172 102T186 116T198 129T211 143T226 159T239 171T256 185Q267 194 281 191T295 170Q295 146 281 104T268 35Q269 28 269 26T273 20T281 21Q291 25 308 40Q312 44
325 59T349 86T360 97Q364 95 346 69T318 31Q276 -16 257 12Q253 17 251 24T249 39T248 54T251 72T254 87T258 103T261 116Q262 120 265 130T270 149T272 166Q267 163 255 152Q244 141 218 113T177 71Q144 41 125 56Q121 60 119 65T116 75T115 87T116 99T119 112T122
124T125 136T128 145Q129 149 131 156T135 167Q133 165 114 140Q108 131 94 112T71 81T50 54T26 25Q25 25 23 22T19 18T14 13T9 8T3 4T-3 2T-9 1T-15 1T-21 6Q-31 17 -24 50Q-18 78 13 150T51 220Q60 218 61 209T59 185T47 153T30 116T12 81T-1 49T-6 25Q-5 26
-4 27T-2 29Q7 38 17 50T32 69T50 93T65 115Q69 120 84 143T110 180T133 205Q142 215 155 213T168 194Q167 174 156 140T142 89Q142 81 142 78ZM152 186Q153 187 154 188Q153 187 152 186Z" />
<glyph unicode="n" glyph-name="n" horiz-adv-x="246" d="M7 26Q7 26 7 26ZM24 191Q-9 100 -18 54Q-26 6 -2 3Q11 2 31 21Q54 42 91 88T138 145Q149 158 156 163Q154 145 146 111T135 59Q129 5 158 2Q172 1 189 16Q209 33 230 66Q249 95 246 97Q245 98 235 86T211
59T193 41Q177 25 167 21Q160 19 157 23T154 37T156 56T160 79T165 97T168 110Q169 112 173 124T179 145T182 165T180 184T166 193Q154 195 139 183Q114 161 74 111T13 40Q9 37 7 35Q8 61 29 130Q38 157 49 191Q52 201 41 202Q28 203 24 191Z" />
<glyph unicode="o" glyph-name="o" horiz-adv-x="183" d="M159 95Q176 99 180 99T180 95T162 86Q147 80 129 74Q118 51 101 34T63 7Q46 0 29 0Q9 0 -1 16T-10 56Q-9 68 -4 81Q-8 87 -10 95Q-15 119 2 146Q13 163 30 177T71 197T118 188Q151 167 143 117Q141 103
136 90Q142 91 150 93T159 95ZM105 84Q114 102 117 121Q120 147 108 161T70 169Q51 164 35 148T14 112Q24 126 35 135Q46 144 48 142Q49 141 40 130Q25 109 17 92Q33 72 105 84ZM10 69Q7 53 10 39Q14 24 28 23T54 29T75 44Q85 53 93 64Q36 52 10 69Z" />
<glyph unicode="p" glyph-name="p" horiz-adv-x="238" d="M52 188Q66 185 3 -17T-89 -277Q-79 -193 -31 -17T52 188ZM1 2Q-1 2 3 16T10 37Q27 82 52 125T108 185Q143 204 169 180T187 115Q180 84 161 55Q193 64 213 78Q220 83 226 89T234 99T237 101Q241 99 234
87T220 69Q197 46 144 32Q133 19 119 7Q69 -39 44 -16Q34 -4 37 11T52 33Q69 43 123 49Q153 85 161 120Q165 144 153 159T119 163Q104 155 84 131Q70 115 57 94T28 46T7 10Q2 2 1 2ZM97 22Q95 22 93 22Q93 21 88 21T79 19T70 17T63 13T60 8Q60 7 61 4Q62 3 62 2Q77
3 97 22Z" />
<glyph unicode="q" glyph-name="q" horiz-adv-x="169" d="M111 181Q80 178 55 156T17 103Q10 87 11 68T26 40Q45 28 72 65Q73 66 73 66Q84 80 100 111T127 157Q131 165 143 165T156 152Q157 146 150 124Q149 120 142 96T133 66T125 38T116 8T108 -21T100 -52T93
-81T86 -112T80 -142T74 -173Q74 -174 72 -185T69 -204T68 -221T71 -236T82 -241Q90 -240 90 -240Q91 -242 87 -244T78 -246T70 -245Q55 -236 55 -198T60 -138Q72 -52 101 55Q81 28 59 16Q29 0 6 22T-13 79Q-7 132 44 169Q64 184 87 189T137 184Q149 178 141 178Q138
178 129 179Q115 181 111 181ZM128 149Q128 149 128 148Q128 148 128 149Z" />
<glyph unicode="r" glyph-name="r" horiz-adv-x="236" d="M83 339Q77 338 65 325Q23 282 26 224Q26 213 36 211Q36 211 50 240T72 290T83 324Q85 335 83 339ZM218 91Q235 104 236 103T224 85Q203 60 192 48T160 14T119 -19Q112 -24 103 -27T85 -30T69 -26T60 -8Q58
12 72 53Q82 79 102 123T131 187Q135 199 135 201Q135 204 135 204Q130 206 112 201Q110 200 90 194T56 185T30 184L-8 127L23 186Q8 192 3 207Q-12 251 25 311Q48 348 74 357Q85 362 94 356T104 337Q104 314 82 272Q63 236 44 210Q51 211 80 219Q81 220 90 223T103
227T117 230T132 232T144 230T155 224T161 212Q164 199 156 177Q147 155 126 112T96 44Q82 9 84 -9Q92 -11 108 -2Q132 13 174 51T218 91Z" />
<glyph unicode="s" glyph-name="s" horiz-adv-x="160" d="M160 97Q164 94 139 62T68 -26Q70 -32 71 -38Q82 -89 14 -115Q3 -120 -6 -120Q-16 -120 -19 -109T-16 -89Q-7 -73 27 -36Q33 -30 38 -24Q34 -15 17 14T-5 64Q-25 135 46 200Q83 234 114 236Q128 237 136
229T143 207Q141 191 138 192Q137 192 137 197T135 208T132 216Q129 222 123 223T109 222T94 215T79 204T68 193T60 186Q3 127 20 71Q23 58 29 46T45 20T58 -3Q72 11 86 25T113 52T129 68Q158 98 160 97ZM5 -103Q5 -104 5 -104Q5 -104 5 -103ZM17 -87Q43 -75 45
-53Q26 -76 17 -87Z" />
<glyph unicode="t" glyph-name="t" horiz-adv-x="132" d="M89 382Q87 398 83 382Q67 322 63 308Q1 306 -104 301Q-194 297 -194 293Q-194 285 -105 283T55 281Q50 265 33 214T5 125T-14 52Q-14 50 -16 43T-19 31T-21 17T-23 3T-24 -11T-24 -24T-20 -34T-14 -43T-3
-47Q-1 -49 4 -48T10 -46T16 -44T22 -41T28 -38T32 -34T36 -30T41 -26Q63 -5 92 32Q139 94 134 98Q132 99 110 77T61 27T26 -8Q11 -20 3 -23Q1 -13 5 12Q11 44 36 132Q66 239 76 282Q253 285 330 284Q420 282 420 284Q420 286 411 289T380 296T331 302Q234 313
82 309Q91 359 89 382Z" />
<glyph unicode="u" glyph-name="u" horiz-adv-x="210" d="M156 179Q167 179 170 168T171 139T162 103T151 67T143 39Q144 40 144 40Q156 49 172 65T198 91T210 100Q211 98 201 81T174 44T145 17Q134 11 127 18T121 39Q123 58 132 90T144 139Q131 126 106 98T64
56T23 35Q3 27 -4 48T-7 94Q12 197 30 192Q35 189 34 180T30 155T22 122T15 90T14 64Q16 58 17 57Q29 56 53 78T103 132T134 167Q147 179 156 179Z" />
<glyph unicode="v" glyph-name="v" horiz-adv-x="185" d="M257 331Q264 340 266 340T264 327Q255 306 230 266Q135 112 53 35Q52 35 49 31T43 26T37 21T30 16T23 12T16 9T8 8T0 9T-7 14Q-11 19 -13 26T-16 40T-16 57T-14 74T-11 91T-8 104Q-7 107 -5 116T-2 132T0
147T-1 162T-8 170Q-10 171 -11 171T-14 172T-15 173Q-16 174 -13 175Q-4 177 2 173Q14 163 14 139T10 84T8 39Q8 38 9 33Q10 34 11 34Q23 40 52 71Q83 105 115 145T189 242T246 317Q253 326 257 331Z" />
<glyph unicode="w" glyph-name="w" horiz-adv-x="240" d="M105 65Q105 64 105 62Q105 56 105 53T105 43T107 34T110 28T116 24T124 26Q148 35 168 59T198 111Q213 151 197 178Q195 180 191 185T184 195T181 199Q181 200 184 200T193 195T206 185Q221 167 221 140T212
91T190 50Q157 3 121 -2Q107 -5 98 0T85 19T80 43T78 73Q35 41 3 27Q-4 24 -13 25T-23 36Q-25 62 -15 95T10 150T36 169Q42 166 41 158T34 133T21 103T8 74T0 53Q0 53 0 52Q36 73 80 109Q81 110 89 112Q95 112 98 110T103 101T105 91T105 78T105 65Z" />
<glyph unicode="x" glyph-name="x" horiz-adv-x="210" d="M-38 -55Q-42 -54 -35 -31Q-20 16 28 70Q4 113 -2 152T8 198Q21 142 48 91Q55 98 62 105Q131 170 198 201Q220 212 222 208Q222 207 220 204T211 195T198 184T177 168T154 149Q102 107 62 66Q73 50 85
38T111 18Q133 7 194 81Q221 114 221 108Q221 105 219 99Q202 46 169 9T102 -11Q70 5 42 46Q1 2 -23 -37Q-24 -38 -25 -40Q-28 -45 -29 -47T-33 -51T-36 -55T-38 -55Z" />
<glyph unicode="y" glyph-name="y" horiz-adv-x="166" d="M-64 -321Q-68 -321 -72 -317T-76 -310Q-79 -295 -71 -269Q-55 -219 -4 -159Q18 -133 36 -115Q60 -63 77 -7Q81 7 87 34T96 70Q121 164 124 184L123 183Q115 170 100 142T71 92T44 54Q40 49 35 45T23 36T10
34T-2 46Q-10 66 -2 124Q1 146 4 164T10 190T14 198Q15 198 13 165T10 99T15 52Q22 55 36 77Q50 97 75 145T116 217Q120 222 124 225T136 231T148 224Q154 215 149 186Q143 147 122 63Q94 -44 82 -77Q86 -75 90 -72Q116 -55 118 -58Q118 -59 111 -65T92 -82T74
-98Q74 -99 74 -99Q45 -168 -6 -244Q-12 -253 -24 -274T-44 -307Q-54 -321 -64 -321ZM-46 -263Q-33 -240 -27 -230Q-8 -202 7 -174Q-20 -210 -36 -242Q-43 -255 -46 -263Z" />
<glyph unicode="z" glyph-name="z" horiz-adv-x="194" d="M181 93Q193 100 193 99T184 89Q155 64 132 43Q136 33 136 22Q138 -13 112 -57Q80 -113 36 -147Q25 -155 12 -161T-17 -167T-39 -149Q-50 -128 -19 -86Q22 -29 104 38Q92 55 54 54Q33 55 6 53Q3 57 1 60T-2
65Q0 71 8 78Q24 93 76 132Q112 159 150 185H149V185L142 187Q126 187 96 174Q37 149 10 117Q9 115 7 112L3 109Q1 109 5 118T13 130Q48 178 117 201Q136 209 155 203T166 173Q164 169 160 166T150 159T141 153Q71 99 46 78Q101 84 125 55Q127 57 130 59Q162 83
181 93ZM22 57V56V57ZM109 22Q63 -22 27 -64Q-8 -105 -16 -127Q-17 -132 -17 -135Q-18 -141 -13 -142T0 -139T12 -132T20 -126Q60 -95 89 -44Q111 -5 109 20Q109 21 109 22Z" />
</font>
</defs>
</svg>
