<?xml version="1.0" standalone="no"?>
<!DOCTYPE svg PUBLIC "-//W3C//DTD SVG 1.1//EN" "http://www.w3.org/Graphics/SVG/1.1/DTD/svg11.dtd" >
<svg xmlns="http://www.w3.org/2000/svg" xmlns:xlink="http://www.w3.org/1999/xlink" version="1.1">
<metadata>
Created by FontForge 20170731 at Mon Jan 18 07:23:58 2021
 By Aleksey,,,
Copyright 2017 The Barlow Project Authors (https://github.com/jpt/barlow)
</metadata>
<defs>
<font id="Barlow-Italic" horiz-adv-x="0" >
  <font-face 
    font-family="Barlow"
    font-weight="400"
    font-style="italic"
    font-stretch="normal"
    units-per-em="2048"
    panose-1="0 0 5 0 0 0 0 0 0 0"
    ascent="1638"
    descent="-410"
    x-height="1036"
    cap-height="1434"
    bbox="-1079.32 -428 2251.25 2007"
    underline-thickness="102"
    underline-position="-307"
    slope="-7"
    unicode-range="U+000D-25CA"
  />
<missing-glyph horiz-adv-x="831" 
d="M-39 10q0 -10 8 -10h813q10 0 13 10l172 1413q1 4 -1.5 7.5t-7.5 3.5h-813q-10 0 -10 -11zM393 475q-11 0 -17 7.5t-5 19.5l10 73q6 52 36 93.5t69 70.5t78.5 58t69.5 71t36 95q9 73 -31.5 117t-114.5 44q-77 0 -129 -45t-61 -118l-4 -33q-3 -25 -29 -25l-47 2
q-26 0 -23 27l5 29q13 116 97 187t206 71q120 0 183.5 -69.5t49.5 -186.5q-9 -68 -40.5 -120.5t-70.5 -84t-78 -58.5t-68 -59.5t-34 -71.5l-8 -67q-1 -12 -9.5 -19.5t-19.5 -7.5h-51zM389 184q-35 0 -56.5 24.5t-17.5 59.5q5 34 32.5 59t62.5 25q34 0 55.5 -25t17.5 -59
q-4 -35 -32 -59.5t-62 -24.5z" />
    <glyph glyph-name="I_J.liga" unicode="IJ" horiz-adv-x="1667" 
d="M172 0q-11 0 -17 7.5t-5 19.5l169 1380q1 12 9.5 19.5t19.5 7.5h90q26 0 23 -27l-170 -1380q-3 -27 -29 -27h-90zM983 -16q-204 0 -314 117.5t-85 310.5l10 94q1 12 9.5 19t19.5 7h90q25 0 22 -26l-10 -94q-17 -135 58.5 -218t215.5 -83q141 0 237.5 83t113.5 218
l123 995q3 27 28 27h90q11 0 17.5 -7.5t5.5 -19.5l-123 -995q-25 -193 -164.5 -310.5t-343.5 -117.5z" />
    <glyph glyph-name="f_f_i.liga" unicode="ffi" horiz-adv-x="1855" 
d="M455 1106l-6 -59q0 -11 8 -11h241q11 0 17.5 -7t5.5 -19l-10 -68q-3 -27 -29 -27h-240q-9 0 -12 -10l-106 -878q-1 -12 -9.5 -19.5t-19.5 -7.5h-88q-26 0 -23 27l109 878q0 10 -10 10h-117q-26 0 -23 27l9 68q1 12 9 19t19 7h119q3 0 6.5 3.5t3.5 7.5l8 69
q21 166 101.5 243.5t257.5 74.5h53q11 0 17.5 -7.5t5.5 -19.5l-9 -53q-3 -27 -28 -27h-51q-106 -1 -150 -54.5t-59 -166.5zM983 1116q21 166 102 243.5t258 74.5h54q11 0 17 -7.5t5 -19.5l-8 -53q-3 -27 -29 -27h-51q-106 -1 -150 -54.5t-59 -166.5l-6 -59q-1 -4 1 -7.5
t7 -3.5h224q11 0 17 -7t5 -19l-8 -68q-1 -12 -10 -19.5t-21 -7.5h-221q-9 0 -12 -10l-107 -878q-2 -12 -10 -19.5t-20 -7.5h-89q-25 0 -22 27l106 878q3 10 -8 10h-174q-25 0 -22 27l8 68q3 26 28 26h175q12 0 12 11zM1747 1432q47 0 73.5 -30.5t20.5 -76.5t-40 -76t-81 -30
q-46 0 -72.5 30t-21.5 76q6 46 40.5 76.5t80.5 30.5zM1528 0q-26 0 -23 27l121 983q3 26 29 26h90q11 0 17 -7t5 -19l-120 -983q-1 -12 -9.5 -19.5t-19.5 -7.5h-90z" />
    <glyph glyph-name="f_f_l.liga" unicode="ffl" horiz-adv-x="1826" 
d="M983 1116q21 166 102 243.5t258 74.5h54q11 0 17 -7.5t5 -19.5l-8 -53q-3 -27 -29 -27h-51q-106 -1 -150 -54.5t-59 -166.5l-6 -59q-1 -4 1 -7.5t7 -3.5h224q11 0 17 -7t5 -19l-8 -68q-1 -12 -10 -19.5t-21 -7.5h-221q-9 0 -12 -10l-107 -878q-2 -12 -10 -19.5t-20 -7.5
h-89q-25 0 -22 27l106 878q3 10 -8 10h-506q-9 0 -12 -10l-106 -878q-1 -12 -9.5 -19.5t-19.5 -7.5h-88q-26 0 -23 27l109 878q0 10 -10 10h-117q-26 0 -23 27l9 68q1 12 9 19t19 7h119q3 0 6.5 3.5t3.5 7.5l8 69q21 166 101.5 243.5t257.5 74.5h53q11 0 17.5 -7.5
t5.5 -19.5l-9 -53q-3 -27 -28 -27h-51q-106 -1 -150 -54.5t-59 -166.5l-6 -59q0 -11 8 -11h506q12 0 12 11zM1659 1407q3 27 29 27h90q25 0 22 -27l-170 -1380q-3 -27 -28 -27h-91q-25 0 -22 27z" />
    <glyph glyph-name="f_i.liga" unicode="fi" horiz-adv-x="1193" 
d="M324 1094q22 187 98.5 263.5t257.5 76.5h53q11 0 17.5 -7.5t5.5 -19.5l-11 -74q-3 -26 -28 -26h-39q-111 0 -157 -50.5t-60 -171.5l-4 -38q-1 -4 1 -7.5t7 -3.5h215q25 0 22 -26l-10 -80q-3 -27 -28 -27h-215q-11 0 -11 -10l-106 -866q-1 -12 -10 -19.5t-21 -7.5h-86
q-25 0 -22 27l106 866q0 10 -10 10h-125q-11 0 -17.5 7.5t-5.5 19.5l11 80q1 12 9 19t19 7h125q12 0 12 11zM1087 1434q47 0 74 -29.5t21 -75.5q-6 -47 -39 -76.5t-80 -29.5q-49 0 -74.5 29t-19.5 77q5 46 38 75.5t80 29.5zM868 0q-25 0 -22 27l121 983q3 26 28 26h90
q11 0 17.5 -7t5.5 -19l-121 -983q-1 -12 -9.5 -19.5t-19.5 -7.5h-90z" />
    <glyph glyph-name="f_l.liga" unicode="fl" horiz-adv-x="1167" 
d="M324 1094q22 187 98.5 263.5t257.5 76.5h53q11 0 17.5 -7.5t5.5 -19.5l-11 -74q-3 -26 -28 -26h-39q-111 0 -157 -50.5t-60 -171.5l-4 -38q-1 -4 1 -7.5t7 -3.5h215q25 0 22 -26l-10 -80q-3 -27 -28 -27h-215q-11 0 -11 -10l-106 -866q-1 -12 -10 -19.5t-21 -7.5h-86
q-25 0 -22 27l106 866q0 10 -10 10h-125q-11 0 -17.5 7.5t-5.5 19.5l11 80q1 12 9 19t19 7h125q12 0 12 11zM999 1407q3 27 29 27h90q11 0 17.5 -7.5t5.5 -19.5l-170 -1380q-3 -27 -29 -27h-90q-26 0 -23 27z" />
    <glyph glyph-name="g_j.liga" unicode="gj" horiz-adv-x="1525" 
d="M1434 1430q47 0 74.5 -29.5t21.5 -75.5t-40 -75t-83 -29q-47 0 -73.5 29t-20.5 75t41.5 75.5t79.5 29.5zM842 936q4 -6 8 -4t4 8l8 70q3 26 31 26h88q26 0 23 -26l-119 -975q-16 -126 -67.5 -216.5t-132.5 -141t-179.5 -70.5t-218.5 -13q-26 3 -23 29l15 82q3 28 28 25
q209 -9 311.5 64t124.5 245l9 72q2 6 -2.5 8t-8.5 -4q-106 -121 -272 -121q-129 0 -220.5 71.5t-111.5 202.5q-11 89 8 250q20 176 58 262q51 123 154 198t233 75q172 0 252 -117zM1176 -90l135 1100q3 26 28 26h88q26 0 23 -26l-133 -1100q-21 -169 -118 -251t-269 -85
q-26 0 -23 27l8 71q3 27 29 27q95 5 157.5 59.5t74.5 151.5zM768 313q18 59 35 207q12 107 14.5 141t-0.5 66q-5 87 -61.5 143t-151.5 56q-94 0 -165 -55.5t-107 -143.5q-28 -67 -45 -205q-18 -148 -6 -207q9 -86 69.5 -142t155.5 -56q98 0 167 55.5t95 140.5z" />
    <glyph glyph-name="i_j.liga" unicode="ij" horiz-adv-x="937" 
d="M354 1223q-47 0 -73.5 29.5t-20.5 76.5q6 46 40 75.5t81 29.5t73.5 -29.5t20.5 -75.5q-6 -47 -40 -76.5t-81 -29.5zM819 1219q-47 0 -73.5 30t-20.5 76t41.5 76.5t79.5 30.5q46 0 73 -30t23 -77q-6 -46 -40 -76t-83 -30zM162 0q-26 0 -23 27l119 983q3 26 31 26h88
q25 0 22 -26l-120 -983q-3 -27 -29 -27h-88zM340 -426q-26 0 -23 27l9 71q3 27 28 27q207 6 234 211l135 1100q0 12 8.5 19t20.5 7h88q25 0 22 -26l-135 -1100q-20 -173 -112 -254t-275 -82z" />
    <glyph glyph-name="hyphen_hyphen.liga" unicode="&#x2d;&#x2d;" horiz-adv-x="1359" 
d="M133 559q-25 0 -22 27l8 73q3 27 28 27h1156q25 0 22 -27l-10 -73q-3 -27 -29 -27h-1153z" />
    <glyph glyph-name=".notdef" horiz-adv-x="831" 
d="M-39 10q0 -10 8 -10h813q10 0 13 10l172 1413q1 4 -1.5 7.5t-7.5 3.5h-813q-10 0 -10 -11zM393 475q-11 0 -17 7.5t-5 19.5l10 73q6 52 36 93.5t69 70.5t78.5 58t69.5 71t36 95q9 73 -31.5 117t-114.5 44q-77 0 -129 -45t-61 -118l-4 -33q-3 -25 -29 -25l-47 2
q-26 0 -23 27l5 29q13 116 97 187t206 71q120 0 183.5 -69.5t49.5 -186.5q-9 -68 -40.5 -120.5t-70.5 -84t-78 -58.5t-68 -59.5t-34 -71.5l-8 -67q-1 -12 -9.5 -19.5t-19.5 -7.5h-51zM389 184q-35 0 -56.5 24.5t-17.5 59.5q5 34 32.5 59t62.5 25q34 0 55.5 -25t17.5 -59
q-4 -35 -32 -59.5t-62 -24.5z" />
    <glyph glyph-name=".null" 
 />
    <glyph glyph-name="nonmarkingreturn" horiz-adv-x="682" 
 />
    <glyph glyph-name="CR" unicode="&#xd;" horiz-adv-x="397" 
 />
    <glyph glyph-name="space" unicode=" " horiz-adv-x="397" 
 />
    <glyph glyph-name="exclam" unicode="!" horiz-adv-x="641" 
d="M303 467q-25 0 -22 27l102 913q3 27 29 27h90q25 0 22 -27l-125 -913q-3 -27 -28 -27h-68zM276 8q-53 0 -83.5 34.5t-24.5 86.5q6 50 48.5 85.5t90.5 35.5t81.5 -35.5t27.5 -85.5q-6 -51 -47.5 -86t-92.5 -35z" />
    <glyph glyph-name="quotedbl" unicode="&#x22;" horiz-adv-x="522" 
d="M182 999q-25 0 -22 27l30 369q3 26 29 26h90q24 0 21 -26l-60 -369q-3 -27 -28 -27h-60zM451 999q-26 0 -23 27l31 369q3 26 28 26h88q24 0 21 -26l-59 -369q-3 -27 -29 -27h-57z" />
    <glyph glyph-name="numbersign" unicode="#" horiz-adv-x="1308" 
d="M1235 905q-3 -26 -29 -26h-143q-12 0 -12 -11l-88 -321q0 -10 8 -10h125q25 0 22 -27l-12 -74q-3 -26 -29 -26h-141q-12 0 -12 -11l-95 -342q-6 -24 -30 -24l-88 4q-12 0 -18 8.5t-3 20.5l90 333q0 11 -6 11h-313q-12 0 -12 -11l-95 -342q-6 -24 -30 -24l-88 4
q-12 0 -18 8.5t-3 20.5l90 333q0 11 -6 11h-119q-28 0 -22 26l10 74q3 27 29 27h137q11 0 14 10l86 321q0 11 -6 11h-117q-25 0 -22 26l8 76q1 12 9.5 19.5t19.5 7.5h137q11 0 14 10l92 342q6 24 31 24l90 -4q12 0 18 -8t3 -20l-90 -334q-3 -10 6 -10h309q11 0 14 10l92 342
q6 24 31 24l90 -4q12 0 18 -8t3 -20l-92 -334q0 -10 8 -10h125q25 0 22 -27zM809 537q12 0 12 10l88 321q0 11 -6 11h-313q-12 0 -12 -11l-89 -321q0 -10 9 -10h311z" />
    <glyph glyph-name="dollar" unicode="$" horiz-adv-x="1083" 
d="M981 365q-21 -163 -133 -265.5t-297 -115.5q-9 0 -12 -11l-13 -114q-3 -27 -28 -27h-49q-26 0 -23 27l16 116q0 11 -8 11q-167 19 -249.5 114.5t-63.5 245.5l8 78q1 12 9.5 19.5t19.5 7.5h84q25 0 22 -27l-6 -49q-14 -118 57.5 -191t214.5 -73q135 0 215.5 66.5
t92.5 178.5q4 30 -1.5 56.5t-15 47.5t-32 44.5t-42 40t-56.5 40t-63.5 39t-75 43t-79.5 46.5q-29 16 -50.5 29.5t-45 29t-40.5 29t-34.5 30t-29.5 33t-23 35t-17 39t-10 43.5t-4 49t4 55q19 158 117 251t264 112q10 0 12 10l15 129q3 27 28 27h48q25 0 22 -27l-16 -127
q-3 -10 8 -10q182 -12 269.5 -111t68.5 -260l-8 -57q-3 -27 -29 -27h-88q-11 0 -17.5 7.5t-5.5 19.5l4 31q16 121 -51.5 195.5t-210.5 74.5q-126 0 -200 -59.5t-88 -169.5q-4 -36 0.5 -65.5t21 -54t34.5 -43t52.5 -39t63.5 -35.5t77 -38q14 -7 22.5 -11t21.5 -10t24 -12
q173 -88 244.5 -184t54.5 -237z" />
    <glyph glyph-name="percent" unicode="%" horiz-adv-x="1685" 
d="M541 870q-120 0 -193 84.5t-59 206.5q15 122 109 206.5t214 84.5q117 0 189 -85t59 -206q-15 -121 -108.5 -206t-210.5 -85zM395 0q-15 0 -19 10t5 23l917 1382q13 19 33 19h51q14 0 18 -10t-3 -23l-916 -1383q-12 -18 -32 -18h-54zM551 956q82 0 146 60t75 145
q11 86 -39 145.5t-133 59.5t-148 -59.5t-75 -145.5q-11 -87 39 -146t135 -59zM1178 -18q-120 0 -192.5 84.5t-57.5 207.5q15 120 108 204.5t213 84.5q117 0 189 -84.5t57 -204.5q-13 -123 -105.5 -207.5t-211.5 -84.5zM1188 68q83 0 147.5 60t75.5 146q9 84 -41.5 143.5
t-130.5 59.5q-85 0 -150.5 -59t-74.5 -144q-10 -87 40 -146.5t134 -59.5z" />
    <glyph glyph-name="ampersand" unicode="&#x26;" horiz-adv-x="1314" 
d="M1145 33q8 -13 2 -23t-23 -10h-98q-23 0 -31 14l-96 136q-5 8 -14 2q-105 -88 -207 -128t-217 -40q-176 0 -272.5 84.5t-75.5 246.5q9 75 40 140.5t82.5 119.5t103 94.5t122.5 84.5q8 8 2 14q-98 147 -126.5 218t-19.5 142q17 145 119.5 233.5t253.5 88.5
q153 0 238.5 -86.5t68.5 -226.5q-8 -66 -37.5 -124t-79 -107.5t-97.5 -86.5t-117 -80q-9 -6 -4 -14q108 -156 196 -281q46 -67 57 -82q6 -9 15 0q83 91 147 170q15 21 37 9l57 -39q23 -16 5 -37q-117 -145 -179 -209q-6 -6 7 -25q36 -50 81.5 -114.5t59.5 -83.5zM678 1315
q-89 0 -149 -50t-70 -137q-6 -48 17 -103t106 -181q5 -8 14 -2q119 77 184.5 144t75.5 151q10 81 -39.5 129.5t-138.5 48.5zM498 109q157 8 315 143q9 6 4 14q-113 160 -131 183q-21 30 -70.5 99.5t-72.5 102.5q-5 7 -15 2q-57 -38 -97 -70t-80 -73t-64.5 -87t-32.5 -97
q-15 -105 51 -163.5t193 -53.5z" />
    <glyph glyph-name="quotesingle" unicode="'" horiz-adv-x="262" 
d="M184 1010q-25 0 -22 26l31 367q3 27 26 27h96q11 0 16.5 -7.5t4.5 -19.5l-60 -367q-3 -26 -28 -26h-64z" />
    <glyph glyph-name="parenleft" unicode="(" horiz-adv-x="518" 
d="M168 -213q-21 0 -29 16q-76 154 -106.5 382.5t0.5 480.5q31 258 119 491t206 389q11 17 33 17h82q15 0 19.5 -8.5t-3.5 -22.5q-104 -159 -184.5 -387t-111.5 -477q-27 -263 -3 -477.5t89 -372.5q5 -14 -1.5 -22.5t-21.5 -8.5h-88z" />
    <glyph glyph-name="parenright" unicode=")" horiz-adv-x="518" 
d="M252 -197q-13 -16 -33 -16h-88q-15 0 -19 8.5t5 22.5q103 159 183.5 383t109.5 467q29 269 5.5 486.5t-87.5 377.5q-6 13 0 22t20 9h84q20 0 29 -17q78 -157 109.5 -390t0.5 -490q-31 -253 -117.5 -481.5t-201.5 -381.5z" />
    <glyph glyph-name="asterisk" unicode="*" horiz-adv-x="788" 
d="M432 805q-25 0 -22 26l32 242q0 6 -4 8.5t-8 -0.5l-227 -127q-11 -6 -20.5 -3t-14.5 14l-14 39q-9 23 14 34l227 123q9 6 2 13l-198 122q-20 13 -6 35l24 39q17 23 37 10l199 -127q3 -3 6.5 0t5.5 9l27 241q6 27 30 27h41q26 0 23 -27l-31 -241q-1 -6 2 -9t8 0l228 127
q24 12 34 -10l17 -39q6 -23 -15 -35l-231 -122q-10 -6 0 -13l199 -123q19 -13 6 -34l-25 -39q-17 -24 -37 -11l-196 127q-11 7 -15 -8l-26 -242q-3 -26 -29 -26h-43z" />
    <glyph glyph-name="plus" unicode="+" horiz-adv-x="993" 
d="M936 705q25 0 22 -27l-8 -74q-3 -26 -28 -26h-322q-8 0 -12 -11l-39 -323q-1 -12 -9.5 -19.5t-19.5 -7.5h-71q-26 0 -23 27l39 323q0 11 -8 11h-322q-25 0 -22 26l8 74q1 12 9.5 19.5t19.5 7.5h321q12 0 12 10l41 340q1 12 9.5 19t19.5 7h72q25 0 22 -26l-41 -340
q0 -10 8 -10h322z" />
    <glyph glyph-name="comma" unicode="," horiz-adv-x="524" 
d="M100 -162q-14 0 -19 8t-1 21l137 426q10 24 31 24h76q27 0 18 -28l-160 -428q-10 -23 -32 -23h-50z" />
    <glyph glyph-name="hyphen" unicode="-" horiz-adv-x="782" 
d="M133 573q-11 0 -17 7.5t-5 19.5l10 74q3 26 29 26h575q26 0 23 -26l-9 -74q-1 -12 -9 -19.5t-19 -7.5h-578z" />
    <glyph glyph-name="period" unicode="." horiz-adv-x="544" 
d="M229 6q-53 0 -83.5 34.5t-24.5 86.5q6 50 46.5 85.5t90.5 35.5q48 0 81.5 -35.5t27.5 -85.5q-6 -51 -46.5 -86t-91.5 -35z" />
    <glyph glyph-name="slash" unicode="/" horiz-adv-x="708" 
d="M49 0q-12 0 -18 9t0 22l608 1380q9 23 31 23h86q14 0 19 -9t-1 -22l-606 -1380q-9 -23 -31 -23h-88z" />
    <glyph glyph-name="zero" unicode="0" horiz-adv-x="1122" 
d="M516 -20q-191 0 -290 112t-76 301l79 647q23 188 150 300t317 112q192 0 294 -112.5t79 -299.5l-80 -647q-23 -189 -152 -301t-321 -112zM532 106q128 0 214.5 76.5t101.5 202.5l82 662q15 126 -53 201t-197 75q-125 0 -209.5 -75t-99.5 -201l-82 -662
q-15 -126 51 -202.5t192 -76.5z" />
    <glyph glyph-name="one" unicode="1" horiz-adv-x="684" 
d="M477 1425q15 9 35 9h96q26 0 23 -27l-168 -1380q-1 -12 -10 -19.5t-21 -7.5h-88q-25 0 -22 27l153 1247q0 14 -12 8l-219 -90q-13 -6 -21 0t-6 20l6 64q3 19 23 31z" />
    <glyph glyph-name="two" unicode="2" horiz-adv-x="1064" 
d="M102 0q-11 0 -17 7.5t-5 19.5l10 75q3 20 16 33q146 156 519 570q216 243 233 378q14 108 -49 174t-180 66q-113 0 -191 -67t-88 -175l-8 -57q-3 -27 -29 -27h-92q-11 0 -17 7.5t-5 19.5l10 76q23 157 144.5 253.5t291.5 96.5q181 0 278.5 -102.5t77.5 -262.5
q-20 -169 -237 -419q-157 -180 -477 -527q-4 -5 -2.5 -8.5t6.5 -3.5h608q26 0 23 -27l-9 -73q-1 -12 -9 -19.5t-19 -7.5h-783z" />
    <glyph glyph-name="three" unicode="3" horiz-adv-x="1026" 
d="M897 678q28 -101 10 -240q-11 -103 -53 -196q-56 -125 -158 -191.5t-241 -66.5q-140 0 -230 75t-112 201q-10 61 -2 150q3 26 28 26h90q28 0 25 -26q-6 -52 -2 -105q11 -89 68 -141.5t151 -52.5q175 0 248 161q36 72 49 170q15 121 -12 201q-38 148 -203 148
q-29 0 -66 -13q-21 -9 -32 8l-37 54q-15 18 4 37l397 417q4 6 2 9.5t-8 3.5h-555q-25 0 -22 26l8 74q1 12 9 19.5t19 7.5h725q11 0 17.5 -7.5t5.5 -19.5l-10 -82q-2 -15 -17 -33l-368 -395q-8 -12 6 -12q215 -15 266 -207z" />
    <glyph glyph-name="four" unicode="4" horiz-adv-x="1093" 
d="M975 526q25 0 22 -26l-10 -78q-3 -27 -29 -27h-77q-11 0 -11 -10l-45 -358q-3 -27 -28 -27h-90q-11 0 -17.5 7.5t-5.5 19.5l45 358q0 10 -8 10h-590q-11 0 -17 7.5t-5 19.5l8 65q1 5 12 33l512 893q11 21 33 21h92q15 0 19.5 -9t-3.5 -22l-495 -864q-4 -13 4 -13h444
q13 0 13 11l38 321q1 12 9.5 19.5t19.5 7.5h90q26 0 23 -27l-39 -321q-1 -4 1 -7.5t7 -3.5h78z" />
    <glyph glyph-name="five" unicode="5" horiz-adv-x="1021" 
d="M942 627q5 -105 -6 -185q-12 -105 -39 -172q-51 -131 -161.5 -207.5t-252.5 -76.5q-140 0 -230.5 73.5t-111.5 196.5q-8 39 -8 82q0 13 8.5 21t20.5 8h92q25 0 25 -27q0 -23 4 -35q8 -88 64.5 -140t150.5 -52q96 0 166.5 55t101.5 151q23 63 27 121q8 73 6 135
q-1 94 -60 143.5t-159 49.5q-85 0 -155 -36.5t-103 -102.5q-12 -23 -33 -23h-96q-26 0 -23 27l94 774q3 27 29 27h684q25 0 22 -27l-10 -74q-3 -26 -28 -26h-558q-9 0 -12 -11l-61 -489q-1 -7 2 -9t8 3q116 96 270 96q140 0 230 -70.5t102 -199.5z" />
    <glyph glyph-name="six" unicode="6" horiz-adv-x="1024" 
d="M926 674q29 -92 12 -234q-16 -128 -57 -204q-55 -119 -155 -184.5t-237 -65.5q-143 0 -232 70t-114 196q-12 74 0 192l80 639q20 167 140 267t292 100q168 0 260 -97t72 -253l-2 -23q-1 -12 -9.5 -19t-19.5 -7h-90q-24 0 -24 18l2 18q14 104 -43.5 170t-161.5 66
q-108 0 -186 -68.5t-91 -181.5l-36 -297q0 -14 12 -2q100 119 276 119q126 0 204 -57.5t108 -161.5zM754 285q33 67 43 155q12 108 -9 164q-14 75 -67 118.5t-141 43.5t-152.5 -44t-99.5 -122q-31 -68 -43 -166q-11 -90 0 -149q14 -78 69 -125t146 -47q86 0 153.5 44.5
t100.5 127.5z" />
    <glyph glyph-name="seven" unicode="7" horiz-adv-x="940" 
d="M268 0q-13 0 -17.5 9t1.5 22l610 1263q3 13 -6 13h-532q-9 0 -13 -11l-10 -86q-3 -26 -29 -26h-69q-26 0 -23 26l27 197q3 27 29 27h770q25 0 22 -27l-10 -84q0 -13 -8 -33l-611 -1270q-9 -20 -32 -20h-99z" />
    <glyph glyph-name="eight" unicode="8" horiz-adv-x="1030" 
d="M907 602q28 -85 13 -201q-17 -140 -86 -239q-58 -84 -152 -131t-211 -47q-118 0 -201 48.5t-120 139.5q-40 98 -25 231q14 115 65 205q57 100 152 154q10 7 2 12q-63 45 -98 107q-50 88 -35 200q12 114 80 201q59 82 152.5 127t207.5 45q257 0 328 -190q34 -79 22 -183
q-15 -117 -81 -194q-53 -69 -127 -113q-12 -9 -2 -14q82 -52 116 -158zM348 1069q-12 -84 25 -149q58 -104 190 -107h12q143 0 230 115q46 60 55 143q9 75 -12 131q-26 59 -80 93t-133 34q-77 0 -139 -33.5t-101 -93.5q-38 -59 -47 -133zM707 213q59 81 73 201q8 69 -6 141
q-19 73 -74 113.5t-141 40.5q-163 0 -244 -148q-37 -64 -47 -151q-11 -107 19 -189q53 -112 198 -112q144 0 222 104z" />
    <glyph glyph-name="nine" unicode="9" horiz-adv-x="1034" 
d="M987 1182q14 -87 0 -193l-78 -639q-21 -167 -141 -266.5t-291 -99.5q-169 0 -261 96.5t-73 253.5l4 22q3 27 29 27h90q11 0 17.5 -5.5t5.5 -12.5l-2 -19q-12 -104 45 -169.5t160 -65.5q108 0 185.5 67.5t92.5 181.5l35 297q1 4 -0.5 6t-4 1t-5.5 -5q-102 -118 -277 -118
q-248 0 -311 219q-30 96 -14 233q16 130 57 205q57 120 156.5 185t236.5 65q143 0 231.5 -70t112.5 -196zM553 668q87 0 152 44.5t98 121.5q33 61 45 165q12 93 -2 150q-12 78 -68 125t-147 47q-85 0 -152 -44.5t-102 -127.5q-33 -67 -43 -156q-12 -104 8 -164
q16 -75 69.5 -118t141.5 -43z" />
    <glyph glyph-name="colon" unicode=":" horiz-adv-x="673" 
d="M385 719q-52 0 -82 35t-24 86q6 50 46.5 85.5t88.5 35.5q50 0 83 -35.5t27 -85.5q-6 -51 -46 -86t-93 -35zM299 29q-52 0 -82 35.5t-24 87.5q6 50 47.5 85t89.5 35q50 0 83 -35t27 -85q-6 -51 -47.5 -87t-93.5 -36z" />
    <glyph glyph-name="semicolon" unicode=";" horiz-adv-x="618" 
d="M360 711q-52 0 -82 35t-24 88q6 49 47.5 83.5t89.5 34.5t82.5 -35t28.5 -83q-6 -52 -47.5 -87.5t-94.5 -35.5zM166 -154q-12 0 -18 8.5t-3 20.5l103 410q6 24 31 24h79q28 0 19 -28l-131 -410q-7 -25 -31 -25h-49z" />
    <glyph glyph-name="less" unicode="&#x3c;" horiz-adv-x="993" 
d="M891 121q-1 -15 -11 -21t-22 0l-741 377q-20 10 -17 33l11 86q3 23 24 33l836 377q13 6 20.5 0t5.5 -21l-10 -86q-3 -20 -24 -31l-701 -309q-14 -6 -2 -12l625 -309q19 -10 16 -31z" />
    <glyph glyph-name="equal" unicode="=" horiz-adv-x="993" 
d="M162 799q-26 0 -23 26l8 74q1 12 10 19.5t21 7.5h787q11 0 17 -7.5t5 -19.5l-10 -74q-3 -26 -29 -26h-786zM109 371q-11 0 -17.5 7t-5.5 19l10 74q3 27 29 27h786q26 0 23 -27l-8 -74q-3 -26 -31 -26h-786z" />
    <glyph glyph-name="greater" unicode="&#x3e;" horiz-adv-x="993" 
d="M80 100q-14 -6 -22 0t-5 21l10 86q3 21 23 31l702 309q12 6 3 12l-627 309q-20 12 -17 31l11 86q7 34 32 21l744 -377q16 -10 16 -33l-12 -86q-3 -23 -23 -33z" />
    <glyph glyph-name="question" unicode="?" horiz-adv-x="915" 
d="M385 410q-11 0 -17.5 7t-5.5 19l15 115q9 73 51.5 131t97 98.5t109.5 80.5t97.5 98.5t51.5 132.5q12 103 -44 165t-160 62q-107 0 -180 -63t-85 -166l-8 -58q-3 -24 -28 -24l-89 4q-25 0 -22 26l6 52q20 163 138 262.5t288 99.5q167 0 256.5 -98t69.5 -262
q-9 -69 -34.5 -127t-60.5 -97t-75 -72.5t-79.5 -61t-72.5 -55t-56 -62t-28 -74.5l-14 -107q-3 -26 -29 -26h-92zM389 4q-49 0 -78.5 33.5t-23.5 83.5q6 47 45 82t86 35t78.5 -35t27.5 -82q-6 -49 -46.5 -83t-88.5 -34z" />
    <glyph glyph-name="at" unicode="@" horiz-adv-x="1642" 
d="M1018 1264q150 0 267 -53t184 -147t88.5 -224t-19.5 -285q-49 -189 -151.5 -293t-237.5 -104q-139 0 -186 104q-6 9 -15 0q-41 -49 -99 -75.5t-120 -26.5q-107 0 -168 54t-61 142q0 56 30 176q29 120 58 179q42 91 124 143.5t173 52.5q108 0 159 -76q3 -4 7 -2.5t6 7.5
l8 36q6 25 31 25h49q12 0 17.5 -8.5t2.5 -20.5l-102 -422q-22 -83 9 -137.5t102 -54.5q83 0 152 78.5t104 216.5q72 280 -52 448t-381 168q-121 0 -240 -42t-223 -121.5t-180 -209.5t-102 -292q-28 -171 12 -303.5t148.5 -209.5t271.5 -77q95 0 189 23t149 57q23 17 35 -4
l22 -33q13 -23 -10 -37q-72 -49 -186 -77.5t-226 -28.5q-189 0 -316.5 90t-175 250.5t-11.5 367.5q23 141 84 262.5t147 209t191 150.5t217.5 93.5t224.5 30.5zM934 387q19 44 45 148q20 80 29 145q3 59 -31 97t-98 38t-117 -37.5t-82 -95.5q-17 -28 -49 -152
q-25 -102 -25 -143q-5 -60 32 -96.5t103 -36.5q65 0 116 37.5t77 95.5z" />
    <glyph glyph-name="A" unicode="A" horiz-adv-x="1206" 
d="M975 0q-22 0 -25 23l-49 249q0 1 -1 3l-1.5 3t-2 2t-3.5 1h-592q-3 0 -12 -9l-107 -249q-9 -23 -30 -23h-97q-14 0 -19 9t1 22l606 1380q9 23 31 23h127q23 0 26 -23l269 -1380q3 -13 -4 -22t-21 -9h-96zM350 412q-3 -13 6 -13h512q4 0 7 4t2 9l-156 837q0 5 -2 7t-5 0
t-5 -7z" />
    <glyph glyph-name="B" unicode="B" horiz-adv-x="1245" 
d="M940 748q-12 -6 -2 -13q202 -93 172 -346q-23 -184 -149.5 -286.5t-313.5 -102.5h-475q-11 0 -17 7.5t-5 19.5l169 1380q1 12 9.5 19.5t19.5 7.5h461q193 0 291.5 -98t77.5 -277q-13 -112 -74.5 -190.5t-163.5 -120.5zM459 1307q-9 0 -13 -11l-59 -487q0 -10 8 -10h336
q126 0 209 67t96 181q14 119 -51.5 189.5t-189.5 70.5h-336zM664 129q125 0 208.5 74t98.5 198q15 125 -52 200t-196 75h-342q-10 0 -10 -10l-66 -527q0 -10 8 -10h351z" />
    <glyph glyph-name="C" unicode="C" horiz-adv-x="1206" 
d="M567 -18q-209 0 -322 125t-87 329l67 563q26 203 170 327t353 124q211 0 324.5 -121.5t88.5 -320.5q-3 -20 -28 -23l-91 -6q-12 -1 -19 2.5t-5 9.5l2 13q17 145 -61 232t-226 87q-147 0 -247 -87.5t-119 -231.5l-70 -574q-17 -144 61.5 -231.5t225.5 -87.5
q148 0 247.5 87t116.5 232q4 26 29 23l90 -4q25 0 25 -11l-2 -10q-25 -201 -168.5 -323.5t-354.5 -122.5z" />
    <glyph glyph-name="D" unicode="D" horiz-adv-x="1226" 
d="M172 0q-11 0 -17 7.5t-5 19.5l169 1380q1 12 9.5 19.5t19.5 7.5h463q197 0 300.5 -107t80.5 -289l-78 -643q-23 -183 -152.5 -289t-326.5 -106h-463zM305 137q0 -10 8 -10h344q129 0 215 77.5t103 209.5l74 604q17 133 -49 211t-197 78h-344q-9 0 -13 -11z" />
    <glyph glyph-name="E" unicode="E" horiz-adv-x="1202" 
d="M1210 1333q-3 -26 -28 -26h-723q-9 0 -13 -11l-61 -501q0 -11 10 -11h504q26 0 23 -26l-9 -74q-2 -12 -10 -19.5t-20 -7.5h-504q-9 0 -12 -10l-62 -510q0 -10 8 -10h723q26 0 23 -27l-8 -73q-1 -12 -9.5 -19.5t-19.5 -7.5h-850q-11 0 -17 7.5t-5 19.5l169 1380
q1 12 9.5 19.5t19.5 7.5h850q11 0 17.5 -7.5t5.5 -19.5z" />
    <glyph glyph-name="F" unicode="F" horiz-adv-x="1128" 
d="M1208 1333q-3 -26 -28 -26h-721q-9 0 -13 -11l-61 -501q0 -11 10 -11h502q26 0 23 -26l-9 -74q-2 -12 -10 -19.5t-20 -7.5h-502q-9 0 -12 -10l-76 -620q-3 -27 -29 -27h-90q-11 0 -17 7.5t-5 19.5l169 1380q1 12 9.5 19.5t19.5 7.5h848q11 0 17.5 -7.5t5.5 -19.5z" />
    <glyph glyph-name="G" unicode="G" horiz-adv-x="1204" 
d="M567 -16q-209 0 -322.5 124.5t-88.5 325.5l69 565q26 203 170 327t353 124t321.5 -121.5t89.5 -312.5l-2 -21q-3 -26 -29 -26h-90q-25 0 -22 22l2 23q17 138 -60.5 223.5t-224.5 85.5t-247 -87.5t-119 -231.5l-70 -574q-17 -144 64 -231.5t229 -87.5q145 0 241 81.5
t113 219.5l23 184q3 10 -9 10h-284q-11 0 -17.5 7.5t-5.5 19.5l11 74q3 26 28 26h410q11 0 17 -7t5 -19l-32 -258q-27 -220 -168 -342.5t-355 -122.5z" />
    <glyph glyph-name="H" unicode="H" horiz-adv-x="1298" 
d="M1110 1407q1 12 9.5 19.5t19.5 7.5h90q25 0 22 -27l-170 -1380q-3 -27 -28 -27h-90q-11 0 -17.5 7.5t-5.5 19.5l78 620q0 10 -10 10h-629q-9 0 -12 -10l-76 -620q-3 -27 -29 -27h-90q-11 0 -17 7.5t-5 19.5l169 1380q1 12 9.5 19.5t19.5 7.5h90q26 0 23 -27l-76 -612
q0 -11 10 -11h629q10 0 10 11z" />
    <glyph glyph-name="I" unicode="I" horiz-adv-x="514" 
d="M172 0q-11 0 -17 7.5t-5 19.5l169 1380q1 12 9.5 19.5t19.5 7.5h90q26 0 23 -27l-170 -1380q-3 -27 -29 -27h-90z" />
    <glyph glyph-name="J" unicode="J" horiz-adv-x="1153" 
d="M469 -16q-204 0 -314 117.5t-87 310.5l12 94q1 12 9.5 19t19.5 7h90q25 0 22 -26l-12 -94q-17 -135 59 -218t217 -83t237.5 83t113.5 218l122 995q0 12 8.5 19.5t20.5 7.5h88q26 0 23 -27l-121 -995q-25 -193 -164.5 -310.5t-343.5 -117.5z" />
    <glyph glyph-name="K" unicode="K" horiz-adv-x="1214" 
d="M172 0q-11 0 -17 7.5t-5 19.5l169 1380q1 12 9.5 19.5t19.5 7.5h90q26 0 23 -27l-84 -684q0 -16 12 -4l709 700q15 15 35 15h98q17 0 19.5 -10.5t-9.5 -22.5l-547 -559q-8 -8 -4 -15l424 -794q7 -13 1 -23t-21 -10h-103q-17 0 -30 16l-379 707q-7 10 -15 2l-211 -203
q-6 -12 -6 -14l-59 -481q-3 -27 -29 -27h-90z" />
    <glyph glyph-name="L" unicode="L" horiz-adv-x="1128" 
d="M172 0q-11 0 -17 7.5t-5 19.5l169 1380q1 12 9.5 19.5t19.5 7.5h90q26 0 23 -27l-156 -1270q0 -10 8 -10h695q11 0 17 -7.5t5 -19.5l-10 -73q-3 -27 -29 -27h-819z" />
    <glyph glyph-name="M" unicode="M" horiz-adv-x="1413" 
d="M172 0q-11 0 -17 7.5t-5 19.5l169 1380q1 12 9.5 19.5t19.5 7.5h94q18 0 27 -19l291 -592q6 -12 12 0l438 592q16 19 33 19h92q26 0 23 -27l-168 -1380q-1 -12 -10 -19.5t-21 -7.5h-88q-25 0 -22 27l139 1130q0 5 -2 7t-5 0.5t-5 -5.5l-377 -512q-15 -18 -33 -18h-45
q-18 0 -27 18l-252 512q-1 4 -3.5 5.5t-5 -0.5t-3.5 -7l-139 -1130q-3 -27 -29 -27h-90z" />
    <glyph glyph-name="N" unicode="N" horiz-adv-x="1337" 
d="M172 0q-11 0 -17 7.5t-5 19.5l169 1380q1 12 9.5 19.5t19.5 7.5h90q18 0 27 -19l532 -1114q1 -4 3.5 -5t5.5 1.5t4 7.5l135 1102q3 27 29 27h90q11 0 17 -7.5t5 -19.5l-170 -1380q-1 -12 -9.5 -19.5t-19.5 -7.5h-90q-16 0 -28 18l-531 1119q-2 4 -5 5t-5 -1.5t-2 -7.5
l-135 -1106q-3 -27 -29 -27h-90z" />
    <glyph glyph-name="O" unicode="O" horiz-adv-x="1234" 
d="M573 -16q-213 0 -326 130t-87 345l63 516q26 214 172.5 344.5t358.5 130.5q215 0 329 -130.5t88 -344.5l-63 -516q-28 -215 -174 -345t-361 -130zM590 109q151 0 253.5 94.5t121.5 249.5l65 524q19 156 -61 251t-230 95q-149 0 -252 -95.5t-122 -250.5l-66 -524
q-19 -155 61.5 -249.5t229.5 -94.5z" />
    <glyph glyph-name="P" unicode="P" horiz-adv-x="1175" 
d="M852 1436q174 0 267 -110.5t71 -291.5q-22 -179 -143 -287t-299 -108h-386q-10 0 -10 -10l-76 -602q-3 -27 -28 -27h-88q-26 0 -23 27l168 1382q1 12 10 19.5t21 7.5h516zM754 760q118 0 200 75t97 197q15 124 -49 200.5t-183 76.5h-375q-10 0 -10 -11l-65 -528
q0 -10 8 -10h377z" />
    <glyph glyph-name="Q" unicode="Q" horiz-adv-x="1144" 
d="M711 1450q205 0 315 -128t84 -335l-68 -549q-22 -183 -138.5 -304t-291.5 -144q-10 -3 -10 -13l-24 -186q-3 -27 -29 -27h-90q-23 0 -23 27l25 186q0 9 -8 13q-170 23 -258.5 144.5t-65.5 303.5l68 549q26 207 167.5 335t346.5 128zM903 440l68 553q19 147 -58.5 238.5
t-218.5 91.5t-239 -91t-117 -239l-68 -553q-19 -148 57.5 -238.5t219.5 -90.5q141 0 239 90.5t117 238.5z" />
    <glyph glyph-name="R" unicode="R" horiz-adv-x="1216" 
d="M963 0q-22 0 -29 20l-213 631q0 8 -10 8h-332q-10 0 -10 -10l-78 -622q-3 -27 -29 -27h-90q-11 0 -17 7.5t-5 19.5l169 1382q1 12 9.5 19.5t19.5 7.5h510q171 0 263 -109t69 -285q-17 -145 -103.5 -243t-220.5 -129q-10 -2 -6 -13l219 -626q7 -31 -24 -31h-92zM459 1309
q-9 0 -13 -11l-61 -512q-3 -10 8 -10h367q116 0 197 73t94 191q15 120 -47.5 194.5t-178.5 74.5h-366z" />
    <glyph glyph-name="S" unicode="S" horiz-adv-x="1163" 
d="M551 -16q-220 0 -337 104.5t-95 278.5l6 57q1 12 10 19.5t21 7.5h84q25 0 22 -27l-6 -49q-14 -118 71.5 -191t247.5 -73q152 0 240.5 66t102.5 177q7 54 -7.5 95.5t-58.5 80t-102.5 71t-157.5 77.5q-86 37 -130 58t-102.5 59.5t-84 75t-41 92t-7.5 124.5
q22 172 150 267.5t332 95.5q218 0 332 -106.5t92 -282.5l-5 -39q-3 -27 -28 -27h-88q-26 0 -23 27l4 31q14 120 -66.5 195t-242.5 75q-140 0 -222 -59.5t-95 -171.5q-4 -38 0.5 -68.5t23.5 -57t39.5 -45.5t65 -42.5t81.5 -40t105 -45.5q101 -45 162.5 -79.5t121 -86
t81.5 -117.5t12 -150q-21 -170 -155.5 -273t-352.5 -103z" />
    <glyph glyph-name="T" unicode="T" horiz-adv-x="1130" 
d="M1155 1434q26 0 23 -27l-9 -76q-3 -26 -30 -26h-381q-10 0 -10 -11l-156 -1267q-1 -12 -9.5 -19.5t-19.5 -7.5h-90q-25 0 -22 27l155 1267q0 11 -8 11h-367q-25 0 -22 26l10 76q3 27 29 27h907z" />
    <glyph glyph-name="U" unicode="U" horiz-adv-x="1288" 
d="M602 -16q-213 0 -327.5 125.5t-88.5 332.5l117 965q1 12 10 19.5t21 7.5h88q25 0 22 -27l-118 -969q-17 -147 63 -237t229 -90t250.5 90t120.5 237l119 969q1 12 9.5 19.5t19.5 7.5h90q25 0 22 -27l-119 -965q-25 -207 -169.5 -332.5t-358.5 -125.5z" />
    <glyph glyph-name="V" unicode="V" horiz-adv-x="1169" 
d="M494 0q-24 0 -27 23l-260 1380q-3 14 4 22.5t20 8.5h97q21 0 24 -23l215 -1190q0 -5 2.5 -7t5.5 0t5 7l507 1190q9 23 31 23h92q14 0 19.5 -9t-0.5 -22l-604 -1380q-9 -23 -31 -23h-100z" />
    <glyph glyph-name="W" unicode="W" horiz-adv-x="1732" 
d="M418 0q-24 0 -27 23l-207 1380q-1 13 6 22t19 9h98q22 0 25 -23l162 -1110q2 -6 6 -6t6 6l414 1110q10 23 32 23h97q21 0 24 -23l154 -1112q0 -6 4.5 -6t7.5 6l434 1112q9 23 31 23h90q28 0 18 -31l-540 -1380q-9 -23 -31 -23h-94q-22 0 -29 23l-145 1138q0 6 -4.5 6
t-7.5 -6l-422 -1138q-10 -23 -33 -23h-88z" />
    <glyph glyph-name="X" unicode="X" horiz-adv-x="1169" 
d="M61 0q-15 0 -19 10t5 23l498 678q3 6 0 12l-330 678q-5 14 1.5 23.5t21.5 9.5h98q16 0 26 -19l281 -575q6 -12 12 0l420 575q16 19 33 19h96q15 0 18.5 -10t-5.5 -23l-494 -680q-5 -5 -2 -12l328 -676q6 -13 -1 -23t-22 -10h-94q-17 0 -29 18l-278 574q-3 13 -13 0
l-422 -574q-12 -18 -30 -18h-99z" />
    <glyph glyph-name="Y" unicode="Y" horiz-adv-x="1126" 
d="M479 2q-25 0 -22 27l73 600q0 2 -1 6t-1 6l-315 760q-5 14 1.5 23.5t21.5 9.5h96q20 0 26 -19l256 -618q5 -8 13 0l409 618q10 19 31 19h96q15 0 19.5 -10t-4.5 -23l-502 -760q-4 -8 -4 -12l-74 -600q-1 -12 -9.5 -19.5t-19.5 -7.5h-90z" />
    <glyph glyph-name="Z" unicode="Z" horiz-adv-x="1091" 
d="M76 0q-26 0 -23 27l10 88q3 17 15 32l864 1147q6 13 -4 13h-702q-26 0 -23 26l10 74q3 27 29 27h844q25 0 22 -27l-10 -88q-3 -20 -14 -33l-863 -1147q-6 -12 5 -12h700q11 0 17 -7.5t5 -19.5l-10 -73q-3 -27 -28 -27h-844z" />
    <glyph glyph-name="bracketleft" unicode="[" horiz-adv-x="755" 
d="M18 -248q-11 0 -17 7.5t-5 19.5l219 1780q1 12 9.5 19t19.5 7h372q11 0 17.5 -7t5.5 -19l-10 -74q-3 -27 -29 -27h-246q-9 0 -12 -10l-190 -1559q0 -10 8 -10h248q25 0 22 -26l-8 -74q-3 -27 -29 -27h-375z" />
    <glyph glyph-name="backslash" unicode="\" horiz-adv-x="708" 
d="M606 31q3 -13 -4.5 -22t-21.5 -9h-86q-24 0 -27 23l-266 1380q-3 14 4 22.5t20 8.5h88q22 0 25 -23z" />
    <glyph glyph-name="bracketright" unicode="]" horiz-adv-x="755" 
d="M625 -221q-1 -12 -9.5 -19.5t-19.5 -7.5h-375q-11 0 -17 7.5t-5 19.5l10 74q3 26 29 26h247q10 0 13 10l190 1559q0 10 -8 10h-246q-25 0 -22 27l8 74q3 26 29 26h372q11 0 17.5 -7t5.5 -19z" />
    <glyph glyph-name="asciicircum" unicode="^" horiz-adv-x="894" 
d="M147 629q-29 0 -16 30l379 754q9 21 31 21h82q19 0 28 -21l195 -754q3 -13 -4 -21.5t-21 -8.5h-69q-21 0 -27 20l-156 623q-3 15 -12 0l-309 -623q-9 -20 -31 -20h-70z" />
    <glyph glyph-name="underscore" unicode="_" horiz-adv-x="960" 
d="M43 0q-11 0 -17.5 7.5t-5.5 19.5l9 63q1 12 9 19.5t19 7.5h795q25 0 22 -27l-6 -63q-2 -12 -10 -19.5t-20 -7.5h-795z" />
    <glyph glyph-name="grave" unicode="`" horiz-adv-x="397" 
d="M432 1214q5 -14 -1 -23t-21 -9h-70q-17 0 -29 18l-100 211q-6 13 -0.5 23t20.5 10h84q23 0 29 -19z" />
    <glyph glyph-name="a" unicode="a" horiz-adv-x="1075" 
d="M858 1010q3 26 31 26h88q25 0 22 -26l-120 -983q-3 -27 -29 -27h-88q-25 0 -25 27l11 75q2 6 -2.5 8t-10.5 -4q-106 -122 -264 -122q-138 0 -223.5 73.5t-106.5 200.5q-16 84 4 260q20 167 56 254q52 131 156 206t245 75q160 0 236 -121q3 -6 7.5 -4t4.5 8zM733 268
q44 80 64 250q20 171 -4 254q-16 70 -65 112t-126 42q-78 0 -141.5 -41t-98.5 -109q-56 -87 -75 -258q-20 -166 4 -248q15 -74 70.5 -116.5t138.5 -42.5q156 0 233 157z" />
    <glyph glyph-name="b" unicode="b" horiz-adv-x="1077" 
d="M987 772q12 -86 -8 -254q-19 -168 -59 -260q-52 -127 -156 -200.5t-242 -73.5q-160 0 -237 125q-3 4 -7 2.5t-6 -7.5l-8 -77q-1 -12 -10 -19.5t-21 -7.5h-88q-25 0 -22 27l170 1380q3 27 29 27h88q25 0 22 -27l-57 -473q0 -16 12 -4q107 123 266 123q142 0 227.5 -75
t106.5 -206zM772 270q46 82 66 248q12 109 8.5 161.5t-21.5 96.5q-19 68 -72 109t-130 41t-135.5 -42t-92.5 -112q-47 -84 -67 -254q-21 -177 4 -250q16 -72 64.5 -114.5t127.5 -42.5q83 0 149.5 42.5t98.5 116.5z" />
    <glyph glyph-name="c" unicode="c" horiz-adv-x="1032" 
d="M496 -16q-144 0 -236.5 76.5t-114.5 207.5q-12 86 7 254q19 155 57 250q52 128 164 204.5t256 76.5q146 0 242 -76t114 -189q4 -20 4 -55q0 -28 -26 -31l-89 -10q-26 -3 -26 23q0 4 -1 12t-1 12q-8 78 -71.5 132.5t-162.5 54.5t-172.5 -54.5t-103.5 -144.5
q-29 -78 -43 -207q-16 -130 -8 -209q8 -91 68 -145.5t159 -54.5q98 0 173.5 52t102.5 132q5 5 5 10q0 2 2 2q6 26 32 23l84 -15q28 -4 19 -30q-1 -4 -2.5 -9t-4 -13t-3.5 -13q-44 -119 -160.5 -192.5t-263.5 -73.5z" />
    <glyph glyph-name="d" unicode="d" horiz-adv-x="1077" 
d="M909 1407q1 12 9.5 19.5t19.5 7.5h90q26 0 23 -27l-170 -1380q-3 -27 -29 -27h-90q-11 0 -17.5 7.5t-5.5 19.5l11 77q1 6 -2.5 8t-8.5 -3q-109 -125 -268 -125q-138 0 -223.5 73.5t-106.5 200.5q-16 84 4 260q20 167 56 254q52 131 156 206t245 75q161 0 238 -123
q3 -6 6.5 -4t5.5 8zM733 268q44 80 64 250q20 171 -4 254q-16 70 -65 112t-126 42q-78 0 -141.5 -41t-98.5 -109q-56 -87 -75 -258q-20 -166 4 -248q15 -74 70.5 -116.5t138.5 -42.5q156 0 233 157z" />
    <glyph glyph-name="e" unicode="e" horiz-adv-x="1060" 
d="M524 109q90 1 160.5 41.5t112.5 111.5q14 25 34 12l56 -32q21 -14 6 -35q-60 -103 -163 -163t-234 -60q-139 0 -226 67.5t-114 188.5q-24 101 -2 282q19 169 47 238q50 134 162 213.5t258 79.5q172 0 259 -93t95 -260q3 -71 -14 -204q-3 -27 -29 -27h-635q-12 0 -12 -10
q-12 -103 -6 -150q9 -91 73.5 -145.5t171.5 -54.5zM604 926q-98 0 -168 -52.5t-102 -140.5q-18 -49 -33 -139q0 -10 8 -10h512q10 0 10 10q7 99 5 131q-9 91 -70 146t-162 55z" />
    <glyph glyph-name="f" unicode="f" horiz-adv-x="706" 
d="M678 1307q-111 0 -157 -50.5t-60 -171.5l-4 -38q-1 -4 1 -7.5t7 -3.5h215q25 0 22 -26l-10 -80q-3 -27 -28 -27h-215q-11 0 -11 -10l-106 -866q-1 -12 -10 -19.5t-21 -7.5h-86q-25 0 -22 27l106 866q0 10 -10 10h-125q-11 0 -17.5 7.5t-5.5 19.5l11 80q1 12 9 19t19 7
h125q12 0 12 11l7 47q22 187 98.5 263.5t257.5 76.5h53q11 0 17.5 -7.5t5.5 -19.5l-11 -74q-3 -26 -28 -26h-39z" />
    <glyph glyph-name="g" unicode="g" horiz-adv-x="1062" 
d="M862 1010q3 26 31 26h88q26 0 23 -26l-119 -975q-16 -126 -67.5 -216.5t-132.5 -141t-179.5 -70.5t-218.5 -13q-26 3 -23 29l15 82q3 28 28 25q209 -9 311.5 64t124.5 245l9 72q2 6 -2.5 8t-8.5 -4q-106 -121 -272 -121q-129 0 -220.5 71.5t-111.5 202.5q-11 89 8 250
q20 176 58 262q51 123 154 198t233 75q172 0 252 -117q4 -6 8 -4t4 8zM768 313q18 59 35 207q12 107 14.5 141t-0.5 66q-5 87 -61.5 143t-151.5 56q-94 0 -165 -55.5t-107 -143.5q-28 -67 -45 -205q-18 -148 -6 -207q9 -86 69.5 -142t155.5 -56q98 0 167 55.5t95 140.5z" />
    <glyph glyph-name="h" unicode="h" horiz-adv-x="1071" 
d="M666 1051q157 0 239 -97t62 -258l-82 -669q-3 -27 -29 -27h-90q-11 0 -17.5 7.5t-5.5 19.5l80 641q14 114 -42.5 185t-162.5 71q-101 0 -174.5 -59t-95.5 -156l-84 -682q-1 -12 -10 -19.5t-21 -7.5h-88q-25 0 -22 27l170 1380q3 27 29 27h88q25 0 22 -27l-57 -473
q0 -7 2.5 -9t7.5 3q99 123 281 123z" />
    <glyph glyph-name="i" unicode="i" horiz-adv-x="487" 
d="M354 1223q-47 0 -73.5 29.5t-20.5 76.5q6 46 40 75.5t81 29.5t73.5 -29.5t20.5 -75.5q-6 -47 -40 -76.5t-81 -29.5zM162 0q-26 0 -23 27l119 983q3 26 31 26h88q25 0 22 -26l-120 -983q-3 -27 -29 -27h-88z" />
    <glyph glyph-name="j" unicode="j" horiz-adv-x="462" 
d="M344 1219q-47 0 -73.5 30t-20.5 76t41.5 76.5t79.5 30.5q46 0 74 -30t22 -77q-6 -46 -40 -76t-83 -30zM-135 -426q-26 0 -23 27l8 71q3 27 29 27q210 6 234 211l135 1100q3 26 28 26h91q11 0 17 -7t5 -19l-135 -1100q-22 -173 -114 -254t-275 -82z" />
    <glyph glyph-name="k" unicode="k" horiz-adv-x="995" 
d="M145 0q-25 0 -22 27l170 1380q3 27 29 27h88q25 0 22 -27l-100 -827q-2 -6 2 -9.5t8 2.5l471 449q11 14 33 14h106q15 0 19 -10t-8 -22l-281 -281q-6 -6 -2 -14l213 -678q5 -14 -1.5 -22.5t-21.5 -8.5h-94q-19 0 -26 20l-181 592q0 3 -2 4t-5 0.5t-5 -2.5l-246 -233
q-6 -12 -6 -14l-41 -340q-1 -12 -10 -19.5t-21 -7.5h-88z" />
    <glyph glyph-name="l" unicode="l" horiz-adv-x="460" 
d="M145 0q-25 0 -22 27l170 1380q3 27 29 27h88q25 0 22 -27l-168 -1380q-1 -12 -10 -19.5t-21 -7.5h-88z" />
    <glyph glyph-name="m" unicode="m" horiz-adv-x="1642" 
d="M1266 1051q148 0 223 -91.5t55 -252.5l-82 -680q-2 -12 -10 -19.5t-20 -7.5h-86q-26 0 -23 27l80 651q13 113 -41 179.5t-156 66.5q-105 0 -178 -65.5t-86 -176.5l-80 -655q-1 -12 -10 -19.5t-21 -7.5h-88q-25 0 -22 27l80 651q13 113 -40.5 179.5t-156.5 66.5
q-105 0 -176 -65t-84 -177l-80 -655q-1 -12 -10 -19.5t-21 -7.5h-88q-25 0 -22 27l121 983q3 26 28 26h90q11 0 17.5 -7t5.5 -19l-10 -72q0 -16 12 -4q102 117 277 117q101 0 169.5 -43t96.5 -121q3 -11 12 -2q54 83 138.5 124.5t185.5 41.5z" />
    <glyph glyph-name="n" unicode="n" horiz-adv-x="1071" 
d="M666 1051q157 0 239 -97t62 -258l-82 -669q-3 -27 -29 -27h-90q-11 0 -17.5 7.5t-5.5 19.5l80 641q14 114 -42.5 185t-162.5 71q-101 0 -174.5 -59t-95.5 -156l-84 -682q-1 -12 -10 -19.5t-21 -7.5h-88q-25 0 -22 27l121 983q3 26 28 26h90q11 0 17.5 -7t5.5 -19l-10 -76
q0 -7 2.5 -9t7.5 3q99 123 281 123z" />
    <glyph glyph-name="o" unicode="o" horiz-adv-x="1085" 
d="M502 -16q-145 0 -238.5 75.5t-116.5 208.5q-14 96 5 252q18 153 55 250q56 132 168 207.5t258 75.5q144 0 237 -75.5t115 -205.5q15 -103 -4 -252q-19 -157 -57 -252q-56 -132 -168 -208t-254 -76zM518 111q95 0 169.5 53.5t109.5 146.5q24 64 41 207q19 141 10 207
q-11 92 -73 146.5t-161 54.5q-95 0 -168.5 -54.5t-109.5 -146.5q-24 -60 -41 -207q-19 -139 -10 -207q11 -93 72.5 -146.5t160.5 -53.5z" />
    <glyph glyph-name="p" unicode="p" horiz-adv-x="1089" 
d="M995 778q15 -92 -4 -260q-20 -171 -55 -254q-52 -131 -155.5 -205.5t-245.5 -74.5q-161 0 -238 122q-3 6 -6.5 4t-5.5 -8l-58 -473q-3 -26 -30 -26h-88q-26 0 -23 26l170 1381q3 26 29 26h88q25 0 22 -26l-8 -78q-1 -6 2 -7.5t8 3.5q106 125 269 125q138 0 223 -74
t106 -201zM772 260q59 87 78 258q20 166 -4 248q-15 74 -70.5 117t-138.5 43q-80 0 -140 -43t-94 -115q-43 -78 -63 -250q-20 -171 4 -254q16 -70 65 -111.5t126 -41.5q78 0 141 40.5t96 108.5z" />
    <glyph glyph-name="q" unicode="q" horiz-adv-x="1089" 
d="M860 1010q3 26 31 26h88q25 0 22 -26l-167 -1381q-3 -26 -31 -26h-88q-26 0 -23 26l58 473q2 6 -2.5 8t-10.5 -4q-106 -122 -266 -122q-142 0 -227.5 74.5t-106.5 205.5q-12 86 8 254q19 165 60 260q52 127 155.5 201t241.5 74q161 0 238 -125q2 -3 4.5 -3.5t4.5 1.5t3 6
zM729 264q48 86 68 254q21 177 -4 250q-16 72 -65 115t-128 43q-83 0 -149.5 -43t-98.5 -117q-45 -79 -65 -248q-13 -108 -9.5 -161.5t23.5 -96.5q18 -68 70.5 -108.5t130.5 -40.5q77 0 135 41.5t92 111.5z" />
    <glyph glyph-name="r" unicode="r" horiz-adv-x="722" 
d="M653 1047q62 0 107 -25q17 -8 10 -33l-33 -90q-6 -26 -32 -16q-37 13 -97 10q-104 -3 -180.5 -78t-89.5 -190l-74 -598q-1 -12 -10 -19.5t-21 -7.5h-88q-25 0 -22 27l121 983q3 26 28 26h90q11 0 17.5 -7t5.5 -19l-14 -115q-1 -7 2 -8.5t8 4.5q105 156 272 156z" />
    <glyph glyph-name="s" unicode="s" horiz-adv-x="958" 
d="M449 -10q-168 0 -263.5 78.5t-81.5 193.5l2 19q3 26 29 26h86q11 0 17.5 -5.5t5.5 -12.5l-2 -19q-8 -67 53.5 -117.5t163.5 -50.5q103 0 173 48.5t79 121.5q5 38 -7.5 66t-49 49t-63 32t-86.5 30l-18 6q-44 14 -71.5 23t-67 25.5t-64 32t-51 38.5t-40.5 49t-21 61t-2 76
q17 131 127 209t272 78q165 0 257.5 -80t78.5 -203q-1 -12 -10 -19.5t-21 -7.5h-79q-12 0 -19.5 4.5t-5.5 10.5l2 12q8 70 -51 117t-168 47q-101 0 -168 -42.5t-76 -115.5q-4 -37 9.5 -64.5t49 -49t68.5 -34.5t92 -32q151 -45 212 -81q132 -79 114 -226
q-17 -132 -127.5 -212.5t-277.5 -80.5z" />
    <glyph glyph-name="t" unicode="t" horiz-adv-x="722" 
d="M686 942q-1 -12 -9.5 -19.5t-19.5 -7.5h-217q-9 0 -12 -10l-72 -598q-12 -97 25 -137.5t129 -40.5h45q11 0 17.5 -7.5t5.5 -19.5l-11 -71q-3 -26 -28 -29h-68q-69 0 -117.5 11t-85.5 38.5t-51 80t-4 130.5l80 643q0 10 -10 10h-113q-26 0 -23 27l9 68q3 26 28 26h115
q3 0 6.5 3.5t3.5 7.5l29 229q3 27 29 27h86q11 0 17 -7.5t5 -19.5l-29 -229q0 -11 9 -11h217q25 0 22 -26z" />
    <glyph glyph-name="u" unicode="u" horiz-adv-x="1064" 
d="M852 1010q3 26 29 26h88q25 0 22 -26l-121 -983q0 -12 -8 -19.5t-20 -7.5h-88q-26 0 -23 27l8 77q2 6 -2 8.5t-8 -3.5q-104 -123 -278 -123q-148 0 -237.5 90t-70.5 248l84 686q3 26 29 26h90q26 0 23 -26l-80 -643q-14 -116 41.5 -185t163.5 -69q113 0 188.5 69.5
t89.5 184.5z" />
    <glyph glyph-name="v" unicode="v" horiz-adv-x="944" 
d="M379 0q-24 0 -27 23l-200 983q-3 13 4.5 21.5t19.5 8.5h103q21 0 24 -22l152 -797q0 -5 2 -7t4.5 0t3.5 7l346 797q8 22 31 22l102 -2q12 0 17.5 -8t-0.5 -22l-441 -981q-10 -23 -33 -23h-108z" />
    <glyph glyph-name="w" unicode="w" horiz-adv-x="1431" 
d="M332 0q-22 0 -25 23l-157 983q-3 13 4.5 21.5t19.5 8.5h94q22 0 25 -22l108 -799q1 -6 6 -6t7 6l311 799q8 22 31 22h86q23 0 26 -22l117 -799q1 -6 6 -6t6 6l312 799q8 22 32 22l91 -2q14 0 19 -8t-1 -22l-401 -981q-9 -23 -31 -23h-98q-22 0 -25 23l-123 755q0 6 -4 6
t-6 -6l-301 -755q-9 -23 -31 -23h-98z" />
    <glyph glyph-name="x" unicode="x" horiz-adv-x="948" 
d="M41 0q-14 0 -17 10.5t7 22.5l383 479q5 5 2 12l-266 480q-7 12 -1.5 22t19.5 10h96q18 0 31 -16l207 -381q4 -11 14 0l301 381q13 16 33 16h106q14 0 17.5 -10t-6.5 -22l-385 -480q-5 -5 -2 -12l268 -479q7 -12 0.5 -22.5t-21.5 -10.5h-96q-18 0 -31 16l-206 381
q-4 11 -15 0l-303 -381q-13 -16 -33 -16h-102z" />
    <glyph glyph-name="y" unicode="y" horiz-adv-x="915" 
d="M23 -410q-14 0 -11 27l8 72q1 12 7 19t12 7h14q111 0 165.5 52.5t127.5 226.5q4 4 2 12l-211 1000q-3 13 5 21.5t22 8.5h92q24 0 27 -22l157 -803q1 -5 3.5 -7t5.5 0t4 7l350 803q5 22 28 22h97q14 0 19 -8t-1 -22l-500 -1096q-49 -104 -85 -161.5t-83 -96t-101 -50.5
t-140 -12h-14z" />
    <glyph glyph-name="z" unicode="z" horiz-adv-x="884" 
d="M53 0q-25 0 -22 27l10 88q3 15 16 32l650 744q4 5 2.5 8.5t-7.5 3.5h-530q-25 0 -22 27l10 80q3 26 28 26h686q26 0 23 -26l-10 -88q-2 -15 -17 -33l-655 -744q-5 -5 -3.5 -8.5t7.5 -3.5h545q11 0 17 -7.5t5 -19.5l-10 -79q-1 -12 -9 -19.5t-19 -7.5h-695z" />
    <glyph glyph-name="braceleft" unicode="{" horiz-adv-x="600" 
d="M322 -248q-106 0 -149 56.5t-28 177.5l56 444q9 87 -9 129.5t-69 52.5q-24 6 -21 29l9 70q3 22 28 28q52 9 81 52.5t40 128.5l53 434q15 120 71.5 175.5t162.5 55.5h119q25 0 22 -26l-8 -74q-1 -12 -10 -19.5t-21 -7.5h-69q-114 0 -131 -151l-50 -398q-10 -93 -40 -146.5
t-83 -80.5q-8 -6 -2 -12q46 -28 62 -83t6 -147l-49 -407q-21 -154 94 -154h70q11 0 17 -7t5 -19l-10 -74q-3 -27 -29 -27h-118z" />
    <glyph glyph-name="bar" unicode="|" horiz-adv-x="329" 
d="M59 -164q-25 0 -22 27l205 1667q3 26 28 26h90q26 0 23 -26l-205 -1667q-1 -12 -9 -19.5t-19 -7.5h-91z" />
    <glyph glyph-name="braceright" unicode="}" horiz-adv-x="600" 
d="M139 -248h-121q-11 0 -17 7.5t-5 19.5l10 74q3 26 29 26h69q114 0 132 154l51 407q20 176 123 230q10 7 2 12q-46 27 -63 81t-5 146l49 398q17 151 -94 151h-70q-25 0 -22 27l8 74q1 12 9.5 19t19.5 7h118q106 0 149 -55.5t30 -175.5l-56 -434q-9 -86 9 -129t69 -52
q24 -6 21 -28l-9 -70q-3 -23 -26 -29q-54 -11 -83.5 -53.5t-39.5 -128.5l-53 -444q-15 -121 -72 -177.5t-162 -56.5z" />
    <glyph glyph-name="asciitilde" unicode="~" horiz-adv-x="995" 
d="M705 473q-42 0 -81.5 12.5t-58 23t-55.5 34.5q-87 53 -152 53q-94 0 -155 -80q-18 -21 -37 -6l-41 31q-21 15 -6 37q40 67 107.5 107t144.5 40q80 0 164 -53q4 -2 25.5 -16t28 -17.5t25.5 -13.5t31 -13t30.5 -6.5t37.5 -3.5q42 0 72 19.5t65 58.5q18 21 37 6l49 -35
q18 -15 6 -37q-98 -141 -237 -141z" />
    <glyph glyph-name="uni00A0" unicode="&#xa0;" horiz-adv-x="397" 
 />
    <glyph glyph-name="exclamdown" unicode="&#xa1;" horiz-adv-x="641" 
d="M455 1450q51 0 82.5 -35t25.5 -86q-6 -50 -48.5 -85.5t-90.5 -35.5t-81.5 35.5t-27.5 85.5q6 51 46 86t94 35zM340 965q3 26 29 26h67q26 0 23 -26l-101 -914q-3 -26 -28 -26h-90q-26 0 -23 26z" />
    <glyph glyph-name="cent" unicode="&#xa2;" horiz-adv-x="1032" 
d="M811 479q4 4 4 10l2 3q6 25 33 22l84 -14q27 -4 18 -31q-1 -4 -2.5 -9t-4 -13t-3.5 -13q-41 -109 -143 -180.5t-234 -83.5q-10 0 -10 -10l-12 -131q-1 -12 -10 -19.5t-21 -7.5h-72q-11 0 -17 7.5t-5 19.5l20 135q3 8 -6 12q-108 22 -176.5 94.5t-87.5 182.5q-13 90 6 254
q19 153 57 249q43 106 129.5 178.5t198.5 94.5q12 3 12 12l13 135q1 12 9 19.5t19 7.5h72q26 0 23 -27l-19 -131q-2 -10 8 -10q129 -12 213 -85t99 -177q4 -20 4 -55q0 -28 -27 -31l-88 -10q-27 -3 -27 22q0 17 -2 25q-8 78 -71 132t-162 54t-172 -54.5t-105 -144.5
q-29 -78 -43 -206q-16 -130 -8 -209q8 -91 68.5 -146t159.5 -55q98 0 173.5 52t102.5 132z" />
    <glyph glyph-name="sterling" unicode="&#xa3;" horiz-adv-x="1204" 
d="M397 139q-6 -5 -4 -8.5t8 -3.5h684q26 0 23 -27l-8 -73q-3 -27 -29 -27h-840q-11 0 -17 7.5t-5 19.5l10 79q2 17 23 31q51 32 86 97t45 149l28 238q3 10 -8 10h-143q-26 0 -23 26l9 68q1 12 9 19.5t19 7.5h144q9 0 12 10l35 287q23 184 137 289.5t293 111.5
q139 6 225.5 -63t114.5 -203q3 -11 -4.5 -20.5t-20.5 -12.5l-86 -16q-23 -6 -29 20q-20 91 -71 131t-137 37q-119 -3 -192.5 -72.5t-88.5 -199.5l-35 -289q-3 -10 8 -10h373q26 0 23 -27l-9 -68q-3 -26 -28 -26h-373q-9 0 -12 -10l-29 -234q-17 -158 -117 -248z" />
    <glyph glyph-name="currency" unicode="&#xa4;" horiz-adv-x="1034" 
d="M942 616q-15 -129 -98 -227q-5 -8 -2 -14l108 -127q7 -9 6 -20t-10 -19l-61 -49q-22 -16 -37 2l-105 123q-3 6 -12 0q-112 -72 -233 -72q-117 0 -209 66q-9 6 -15 0l-127 -117q-20 -18 -36 -2l-50 49q-17 17 5 39l131 117q5 5 2 14q-65 105 -47 237q16 134 98 232
q5 8 2 14l-109 127q-14 16 7 37l59 49q22 16 37 -2l102 -121q3 -6 12 0q112 72 236 72q130 0 223 -80q9 -6 15 0l141 129q19 19 35 2l49 -49q9 -8 8 -19t-12 -20l-148 -133q-5 -5 -2 -14q52 -100 37 -224zM274 616q-13 -114 57 -195t181 -81q113 0 202.5 80.5t104.5 195.5
q12 117 -58 199t-179 82q-113 0 -204 -82.5t-104 -198.5z" />
    <glyph glyph-name="yen" unicode="&#xa5;" horiz-adv-x="1366" 
d="M1286 1434q15 0 19 -10t-5 -23l-458 -694q-6 -13 6 -13h223q26 0 23 -26l-4 -35q-1 -12 -10 -19.5t-21 -7.5h-258q-10 0 -10 -10l-21 -164q0 -10 8 -10h258q26 0 23 -27l-4 -37q-3 -26 -29 -26h-258q-9 0 -12 -10l-35 -293q-1 -12 -9.5 -19.5t-19.5 -7.5h-90
q-25 0 -22 27l36 293q0 10 -10 10h-268q-11 0 -17.5 7t-5.5 19l7 37q3 27 28 27h268q11 0 11 10l20 164q0 10 -8 10h-268q-26 0 -23 27l4 35q3 26 29 26h233q5 0 8.5 3.5t0.5 9.5l-289 694q-5 14 1 23.5t21 9.5h97q20 0 26 -19l256 -618q7 -10 13 0l409 618q13 19 33 19h94z
" />
    <glyph glyph-name="brokenbar" unicode="&#xa6;" horiz-adv-x="329" 
d="M180 815q-25 0 -22 27l84 688q3 26 28 26h90q26 0 23 -26l-84 -688q-1 -12 -10 -19.5t-21 -7.5h-88zM59 -164q-25 0 -22 27l84 688q1 12 9.5 19.5t19.5 7.5h90q25 0 22 -27l-84 -688q-1 -12 -9 -19.5t-19 -7.5h-91z" />
    <glyph glyph-name="section" unicode="&#xa7;" horiz-adv-x="907" 
d="M362 -424q-147 0 -221 90t-57 244l4 41q3 26 29 26h88q24 0 24 -24l-4 -23q-12 -105 31.5 -167t128.5 -62q82 0 143 61t72 150q6 55 -8 95.5t-55 69t-69 41.5t-88 34q-1 1 -2.5 1.5t-2.5 0.5q-86 31 -138.5 66.5t-80.5 96.5q-33 77 -21 181q12 116 78 198q66 91 170 119
q12 3 2 10q-81 37 -126.5 117t-33.5 182q15 133 120.5 228.5t252.5 95.5q142 0 221 -91.5t64 -234.5l-4 -28q-3 -27 -29 -27h-90q-10 0 -17 7t-6 16l2 20q12 93 -32.5 153t-124.5 60q-84 0 -145 -63t-72 -152q-11 -90 46 -145t169 -95q145 -48 204 -131q57 -85 41 -215
q-16 -116 -75 -200q-67 -100 -162 -121q-7 -2 -8 -3.5t4 -4.5q178 -87 155 -293q-19 -141 -125 -232.5t-252 -91.5zM451 283q120 0 182 90q39 54 49 135q12 92 -23 149q-55 78 -149 78q-55 0 -104.5 -29.5t-81.5 -76.5q-39 -53 -48 -127q-10 -80 17 -127q48 -92 158 -92z
" />
    <glyph glyph-name="dieresis" unicode="&#xa8;" horiz-adv-x="636" 
d="M264 1229q-41 0 -64.5 26.5t-19.5 67.5t35 68.5t72 27.5t63.5 -27.5t16.5 -68.5q-4 -41 -33.5 -67.5t-69.5 -26.5zM598 1229q-41 0 -64 26.5t-18 67.5t34.5 68.5t70.5 27.5t63.5 -27t17.5 -69q-5 -41 -34 -67.5t-70 -26.5z" />
    <glyph glyph-name="copyright" unicode="&#xa9;" horiz-adv-x="1726" 
d="M821 -16q-154 0 -281 56t-210 153t-121 233t-19 291q20 155 91 291t178 233t247.5 153t294.5 56t280.5 -56t209.5 -153t120.5 -233t18.5 -291q-25 -207 -138 -375t-289.5 -263t-381.5 -95zM831 74q180 0 334 84t252.5 230.5t120.5 328.5q22 183 -39.5 329.5t-195 230
t-314.5 83.5q-180 0 -334 -83.5t-252 -230.5t-120 -329t40 -328.5t195 -230.5t313 -84zM868 350q-99 0 -152 57.5t-42 153.5l39 313q12 95 78.5 152t166.5 57q98 0 150.5 -55t42.5 -147q-3 -23 -29 -23l-35 2q-24 0 -24 12v11q7 55 -24.5 89t-90.5 34q-60 0 -99.5 -33.5
t-47.5 -89.5l-39 -332q-8 -56 23.5 -89.5t91.5 -33.5q59 0 99.5 34t47.5 89q0 22 29 22l34 2q12 0 19 -3t6 -7v-10q-12 -93 -79.5 -149t-164.5 -56z" />
    <glyph glyph-name="ordfeminine" unicode="&#xaa;" horiz-adv-x="643" 
d="M420 1155h145q10 0 10 10l7 47q9 70 -27 114t-115 44q-56 0 -99 -24t-62 -64q-9 -25 -31 -22l-37 4q-12 2 -17 10t-1 20q23 70 94.5 113t165.5 43q115 0 173 -62.5t46 -164.5l-54 -441q-3 -26 -28 -26h-39q-11 0 -17.5 7t-5.5 19l4 33q2 6 -2 8t-8 -4q-73 -76 -205 -76
q-96 0 -151.5 48.5t-44.5 142.5q12 102 93 161.5t206 59.5zM340 819q80 0 142 41.5t71 112.5l12 96q0 10 -10 10h-137q-86 0 -142 -35t-65 -102q-7 -62 28.5 -92.5t100.5 -30.5zM78 590q1 12 9 19t19 7h482q25 0 22 -26l-6 -55q-1 -12 -9.5 -19.5t-19.5 -7.5h-481
q-25 0 -22 27z" />
    <glyph glyph-name="guillemotleft" unicode="&#xab;" horiz-adv-x="1073" 
d="M545 252q9 -12 2.5 -22.5t-21.5 -10.5h-84q-22 0 -30 17l-205 321q-12 19 6 37l283 321q14 17 34 17h82q17 0 21 -10.5t-8 -22.5l-279 -315q-7 -10 -2 -17zM860 252q8 -12 2.5 -22.5t-22.5 -10.5h-84q-20 0 -29 17l-205 321q-15 18 4 37l283 321q14 17 35 17h84
q15 0 18.5 -10.5t-8.5 -22.5l-279 -315q-5 -8 -2 -17z" />
    <glyph glyph-name="logicalnot" unicode="&#xac;" horiz-adv-x="993" 
d="M121 678q1 12 9.5 19.5t19.5 7.5h786q25 0 22 -27l-38 -320q-3 -26 -29 -26h-74q-25 0 -22 26l26 209q0 11 -10 11h-676q-25 0 -22 26z" />
    <glyph glyph-name="uni00AD" unicode="&#xad;" horiz-adv-x="782" 
d="M133 573q-11 0 -17 7.5t-5 19.5l10 74q3 26 29 26h575q26 0 23 -26l-9 -74q-1 -12 -9 -19.5t-19 -7.5h-578z" />
    <glyph glyph-name="registered" unicode="&#xae;" horiz-adv-x="894" 
d="M588 1462q164 0 263 -115.5t79 -281.5q-22 -169 -148.5 -285t-289.5 -116q-165 0 -264.5 116.5t-77.5 284.5q20 166 147.5 281.5t290.5 115.5zM500 735q133 0 237 96t121 234q17 135 -64 230.5t-214 95.5t-238.5 -95.5t-122.5 -230.5q-17 -138 65 -234t216 -96zM674 1137
q-9 -68 -64 -93q-7 -4 -4 -14l33 -121q3 -13 -4 -21.5t-21 -8.5h-14q-21 0 -27 20l-30 125q-4 8 -11 8h-28q-10 0 -10 -10l-15 -117q-1 -12 -9 -19t-19 -7h-11q-25 0 -22 26l37 314q3 26 30 26h99q45 0 70.5 -31t19.5 -77zM524 1190q-9 0 -12 -10l-10 -88q0 -11 8 -11h43
q24 0 40 15t19 39q3 26 -9 40.5t-36 14.5h-43z" />
    <glyph glyph-name="macron" unicode="&#xaf;" horiz-adv-x="534" 
d="M135 1217q-25 0 -22 26l6 51q1 12 9 19.5t19 7.5h484q25 0 22 -27l-6 -51q-3 -26 -29 -26h-483z" />
    <glyph glyph-name="degree" unicode="&#xb0;" horiz-adv-x="757" 
d="M461 997q-135 0 -216.5 95.5t-64.5 234.5q17 138 122 233t239 95q135 0 217 -95t65 -233q-19 -140 -123 -235t-239 -95zM473 1100q93 0 165.5 66t82.5 161q12 95 -44 160t-149 65q-91 0 -163 -65t-82 -160q-12 -95 43.5 -161t146.5 -66z" />
    <glyph glyph-name="plusminus" unicode="&#xb1;" horiz-adv-x="993" 
d="M616 795q-1 -4 1.5 -7.5t7.5 -3.5h321q26 0 23 -26l-8 -74q-1 -12 -9.5 -19.5t-19.5 -7.5h-324q-10 0 -10 -10l-39 -323q-1 -12 -10 -19.5t-21 -7.5h-71q-11 0 -17.5 7.5t-5.5 19.5l41 323q0 10 -8 10h-324q-11 0 -17 7.5t-5 19.5l10 74q3 26 29 26h321q9 0 13 11l41 340
q3 26 28 26h72q25 0 22 -26zM63 0q-25 0 -22 27l8 73q1 12 10 19.5t21 7.5h786q26 0 23 -27l-10 -73q-3 -27 -29 -27h-787z" />
    <glyph glyph-name="uni00B2" unicode="&#xb2;" horiz-adv-x="647" 
d="M168 905q-11 0 -17.5 7.5t-5.5 19.5l7 45q3 20 16 33q203 213 301 321q130 139 141 219q6 60 -30 96.5t-101 36.5t-108 -37t-49 -98l-5 -22q0 -12 -8 -19.5t-20 -7.5h-49q-26 0 -23 27l4 37q13 96 88.5 154.5t179.5 58.5q112 0 172 -63.5t48 -160.5q-11 -101 -138 -247
q-116 -132 -274 -297q-5 -4 -3.5 -8.5t7.5 -4.5h340q26 0 23 -26l-5 -37q-2 -12 -10 -19.5t-20 -7.5h-461z" />
    <glyph glyph-name="uni00B3" unicode="&#xb3;" horiz-adv-x="638" 
d="M657 1323q22 -66 11 -156q-8 -83 -45 -145q-76 -131 -236 -131q-84 0 -139 45.5t-70 122.5q-8 34 -4 80q3 26 29 26h49q24 0 24 -26q-3 -26 0 -49q5 -48 38 -77.5t85 -29.5q85 0 129 72q30 47 39 114q9 75 -10 127q-28 72 -111 72q-17 0 -32 -6q-24 -9 -35 8l-19 29
q-11 18 5 37l221 223q9 12 -4 12h-310q-25 0 -22 27l4 37q3 26 31 26h424q25 0 22 -26l-6 -45q0 -16 -14 -33l-201 -207q-7 -11 4 -14q107 -14 143 -113z" />
    <glyph glyph-name="acute" unicode="&#xb4;" horiz-adv-x="397" 
d="M199 1182q-15 0 -19.5 9t4.5 23l140 211q13 19 32 19h86q14 0 17 -10t-6 -23l-152 -211q-15 -18 -33 -18h-69z" />
    <glyph glyph-name="uni00B5" unicode="&#xb5;" horiz-adv-x="1085" 
d="M864 1010q3 26 31 26h88q26 0 23 -26l-121 -983q-3 -27 -29 -27h-90q-11 0 -17.5 7.5t-5.5 19.5l11 77q2 6 -2.5 8.5t-8.5 -3.5q-104 -123 -278 -123q-113 0 -189 49q-4 3 -8 1.5t-4 -7.5l-51 -412q-3 -27 -29 -27h-90q-25 0 -22 27l82 659v13q0 11 4 35l84 686
q3 26 28 26h92q11 0 17.5 -7t5.5 -19l-84 -682q-2 -100 52.5 -157.5t154.5 -57.5q113 0 188.5 69.5t89.5 184.5z" />
    <glyph glyph-name="paragraph" unicode="&#xb6;" horiz-adv-x="1146" 
d="M641 1434h432q26 0 23 -27l-219 -1790q-3 -27 -29 -27h-55q-26 0 -23 27l207 1698q3 10 -8 10h-250q-10 0 -10 -10l-209 -1698q-1 -12 -9.5 -19.5t-19.5 -7.5h-59q-11 0 -17.5 7.5t-5.5 19.5l109 885q3 10 -9 10q-169 12 -264.5 142t-72.5 319q23 196 162 328.5
t327 132.5z" />
    <glyph glyph-name="periodcentered" unicode="&#xb7;" horiz-adv-x="245" 
d="M51 6q-53 0 -83.5 34.5t-24.5 86.5q6 50 46.5 85.5t90.5 35.5q48 0 81 -35.5t27 -85.5q-6 -51 -46 -86t-91 -35z" />
    <glyph glyph-name="cedilla" unicode="&#xb8;" horiz-adv-x="278" 
d="M-61 -371q-23 7 -17 31l10 33q6 27 33 20q48 -10 87.5 6.5t53.5 63.5q29 90 -69 184q-11 13 -6 23t22 10h39q19 0 31 -12q126 -117 78 -246q-16 -46 -47.5 -75t-69.5 -38.5t-74.5 -9t-70.5 9.5z" />
    <glyph glyph-name="uni00B9" unicode="&#xb9;" horiz-adv-x="364" 
d="M336 1759q12 6 33 6h59q11 0 17.5 -7t5.5 -19l-101 -807q-3 -27 -28 -27h-50q-25 0 -22 27l88 723q2 5 -2 8t-8 2l-62 -16q-13 -3 -19.5 3.5t-4.5 20.5l2 25q3 20 24 31z" />
    <glyph glyph-name="ordmasculine" unicode="&#xba;" horiz-adv-x="694" 
d="M399 752q-91 0 -148.5 49t-76.5 137q-10 58 0 164q11 90 39 164q35 87 107 135.5t165 48.5q89 0 149 -49t75 -135q9 -50 -2 -162q-13 -100 -39 -166q-35 -87 -107 -136.5t-162 -49.5zM412 840q57 0 102.5 34.5t65.5 92.5q17 41 28 135q11 97 6 133q-9 60 -45.5 93.5
t-95.5 33.5t-103.5 -34t-66.5 -93q-20 -51 -29 -133q-10 -91 -4 -135q6 -59 43.5 -93t98.5 -34zM113 508q-26 0 -23 27l6 57q1 12 9.5 19t19.5 7h516q11 0 17.5 -7t5.5 -19l-9 -57q-3 -27 -28 -27h-514z" />
    <glyph glyph-name="guillemotright" unicode="&#xbb;" horiz-adv-x="1073" 
d="M213 219q-15 0 -18.5 10.5t8.5 22.5l278 315q5 8 2 17l-202 315q-8 12 -2.5 22.5t22.5 10.5h84q21 0 29 -17l204 -321q13 -20 -4 -37l-282 -321q-14 -17 -35 -17h-84zM528 219q-17 0 -20.5 10.5t8.5 22.5l279 315q7 10 2 17l-201 315q-9 12 -3 22.5t21 10.5h84
q20 0 31 -17l205 -321q12 -19 -6 -37l-283 -321q-14 -17 -35 -17h-82z" />
    <glyph glyph-name="onequarter" unicode="&#xbc;" horiz-adv-x="1576" 
d="M309 600q-3 -27 -28 -27h-50q-25 0 -22 27l88 723q1 5 -2 8t-8 2l-62 -16q-13 -3 -19.5 3.5t-4.5 20.5l2 25q3 20 24 31l68 30q17 7 33 7h59q26 0 23 -27zM1190 1415q13 19 31 19h53q15 0 18 -10t-6 -23l-1007 -1383q-15 -18 -33 -18h-56q-15 0 -18 10t6 23zM1483 326
q25 0 22 -27l-6 -41q-3 -27 -29 -27h-30q-13 0 -13 -10l-24 -194q-3 -27 -29 -27h-49q-25 0 -22 27l24 194q0 10 -10 10h-338q-26 0 -23 27l5 37q0 13 12 33l291 512q10 20 32 20h50q15 0 19.5 -9t-3.5 -22l-277 -491q-3 -4 -1.5 -8t6.5 -4h239q9 0 12 10l21 172q3 27 29 27
h49q25 0 22 -27l-20 -172q0 -10 8 -10h33z" />
    <glyph glyph-name="onehalf" unicode="&#xbd;" horiz-adv-x="1556" 
d="M309 600q-3 -27 -28 -27h-50q-25 0 -22 27l88 723q1 5 -2 8t-8 2l-62 -16q-13 -3 -19.5 3.5t-4.5 20.5l2 25q3 20 24 31l68 30q17 7 33 7h59q26 0 23 -27zM1190 1415q13 19 31 19h53q15 0 18 -10t-6 -23l-1007 -1383q-15 -18 -33 -18h-56q-15 0 -18 10t6 23zM1094 102
q-3 -3 -3.5 -6t1.5 -4.5t6 -1.5h340q25 0 22 -27l-4 -36q-1 -12 -10 -19.5t-21 -7.5h-460q-11 0 -17.5 7.5t-5.5 19.5l6 45q3 18 17 32q186 195 301 322q130 139 141 219q6 60 -29.5 96.5t-101.5 36.5q-65 0 -108.5 -37t-49.5 -98l-2 -22q-1 -12 -10 -19.5t-21 -7.5h-49
q-25 0 -22 27l4 36q13 96 88.5 154.5t179.5 58.5q112 0 171.5 -63t47.5 -160q-11 -104 -137 -248q-116 -132 -274 -297z" />
    <glyph glyph-name="threequarters" unicode="&#xbe;" horiz-adv-x="1775" 
d="M584 707q-77 -132 -236 -132q-84 0 -139 45.5t-70 122.5q-8 34 -4 80q3 27 29 27h49q25 0 25 -27q-3 -26 0 -49q5 -48 37.5 -77t84.5 -29q85 0 129 71q30 46 39 115q10 81 -10 127q-28 72 -110 72q-18 0 -33 -6q-24 -9 -35 8l-18 28q-11 19 4 37l221 223q10 13 -2 13
h-312q-11 0 -17 7t-5 19l4 37q1 12 10 19.5t21 7.5h424q25 0 22 -27l-4 -45q-3 -16 -16 -33l-201 -206q-8 -13 4 -15q106 -11 143 -112q22 -66 11 -156q-8 -83 -45 -145zM1389 1415q13 19 30 19h54q15 0 18 -10t-6 -23l-1008 -1383q-15 -18 -33 -18h-55q-15 0 -18 10t6 23z
M1681 326q26 0 23 -27l-6 -41q-3 -27 -29 -27h-31q-12 0 -12 -10l-24 -194q-3 -27 -29 -27h-49q-26 0 -23 27l25 194q0 10 -10 10h-338q-26 0 -23 27l4 37q0 13 12 33l291 512q10 20 33 20h49q15 0 20 -9t-3 -22l-277 -491q-3 -4 -1.5 -8t5.5 -4h240q9 0 12 10l21 172
q3 27 28 27h49q26 0 23 -27l-21 -172q0 -10 9 -10h32z" />
    <glyph glyph-name="questiondown" unicode="&#xbf;" horiz-adv-x="915" 
d="M571 1020q50 0 80.5 -34t24.5 -83q-6 -47 -46 -82t-87 -35q-48 0 -79.5 35t-25.5 82q6 49 45.5 83t87.5 34zM575 614q26 0 23 -26l-14 -115q-8 -62 -39.5 -114t-73 -85t-90.5 -70.5t-90.5 -71t-73 -85.5t-39.5 -115q-12 -103 44.5 -165t160.5 -62q107 0 179.5 63
t84.5 166l8 58q3 24 29 24l88 -4q26 0 23 -26l-7 -52q-20 -163 -138 -262.5t-288 -99.5q-168 0 -256.5 98t-68.5 262q9 69 34.5 127t60 97t74.5 72.5t79.5 61t72.5 55t56 62t28 74.5l13 107q3 26 30 26h90z" />
    <glyph glyph-name="Agrave" unicode="&#xc0;" horiz-adv-x="1206" 
d="M801 1612q5 -14 -1.5 -23.5t-21.5 -9.5h-69q-17 0 -29 18l-100 211q-6 14 -0.5 23.5t20.5 9.5h84q23 0 29 -18zM975 0q-22 0 -25 23l-49 249q0 1 -1 3l-1.5 3t-2 2t-3.5 1h-592q-3 0 -12 -9l-107 -249q-9 -23 -30 -23h-97q-14 0 -19 9t1 22l606 1380q9 23 31 23h127
q23 0 26 -23l269 -1380q3 -13 -4 -22t-21 -9h-96zM350 412q-3 -13 6 -13h512q4 0 7 4t2 9l-156 837q0 5 -2 7t-5 0t-5 -7z" />
    <glyph glyph-name="Aacute" unicode="&#xc1;" horiz-adv-x="1206" 
d="M940 1841q13 0 16 -9.5t-6 -23.5l-151 -211q-15 -18 -33 -18h-70q-15 0 -19 9.5t5 23.5l139 211q12 18 33 18h86zM975 0q-22 0 -25 23l-49 249q0 1 -1 3l-1.5 3t-2 2t-3.5 1h-592q-3 0 -12 -9l-107 -249q-9 -23 -30 -23h-97q-14 0 -19 9t1 22l606 1380q9 23 31 23h127
q23 0 26 -23l269 -1380q3 -13 -4 -22t-21 -9h-96zM350 412q-3 -13 6 -13h512q4 0 7 4t2 9l-156 837q0 5 -2 7t-5 0t-5 -7z" />
    <glyph glyph-name="Acircumflex" unicode="&#xc2;" horiz-adv-x="1206" 
d="M780 1745q-6 8 -14 0l-137 -164q-13 -16 -33 -16h-64q-17 0 -20 10t8 22l180 209q14 17 35 17h92q23 0 31 -17l131 -209q8 -12 2.5 -22t-22.5 -10h-64q-18 0 -31 16zM975 0q-22 0 -25 23l-49 249q0 1 -1 3l-1.5 3t-2 2t-3.5 1h-592q-3 0 -12 -9l-107 -249q-9 -23 -30 -23
h-97q-14 0 -19 9t1 22l606 1380q9 23 31 23h127q23 0 26 -23l269 -1380q3 -13 -4 -22t-21 -9h-96zM350 412q-3 -13 6 -13h512q4 0 7 4t2 9l-156 837q0 5 -2 7t-5 0t-5 -7z" />
    <glyph glyph-name="Atilde" unicode="&#xc3;" horiz-adv-x="1206" 
d="M686 1700q-30 0 -52.5 -10.5t-47.5 -38.5q-23 -23 -39 -9l-25 21q-19 15 -4 37q72 102 172 102q23 0 45.5 -8t34.5 -15.5t35 -23.5q3 -2 15 -9.5t16.5 -10.5t14 -8.5t16 -8t15 -4.5t15.5 -2q57 0 100 55q18 21 37 9l29 -19q18 -15 2 -37q-37 -57 -85.5 -83.5t-92.5 -26.5
q-55 0 -117 49q-19 16 -29 22.5t-24.5 12.5t-30.5 6zM975 0q-22 0 -25 23l-49 249q0 1 -1 3l-1.5 3t-2 2t-3.5 1h-592q-3 0 -12 -9l-107 -249q-9 -23 -30 -23h-97q-14 0 -19 9t1 22l606 1380q9 23 31 23h127q23 0 26 -23l269 -1380q3 -13 -4 -22t-21 -9h-96zM350 412
q-3 -13 6 -13h512q4 0 7 4t2 9l-156 837q0 5 -2 7t-5 0t-5 -7z" />
    <glyph glyph-name="Adieresis" unicode="&#xc4;" horiz-adv-x="1206" 
d="M594 1626q-43 0 -66.5 26.5t-17.5 67.5q5 41 35 69t71 28q39 0 62 -27.5t18 -69.5q-4 -41 -33 -67.5t-69 -26.5zM928 1626q-43 0 -65.5 26.5t-16.5 67.5q5 42 34 69.5t70 27.5t64 -27.5t18 -69.5q-6 -42 -34.5 -68t-69.5 -26zM975 0q-22 0 -25 23l-49 249q0 1 -1 3
l-1.5 3t-2 2t-3.5 1h-592q-3 0 -12 -9l-107 -249q-9 -23 -30 -23h-97q-14 0 -19 9t1 22l606 1380q9 23 31 23h127q23 0 26 -23l269 -1380q3 -13 -4 -22t-21 -9h-96zM350 412q-3 -13 6 -13h512q4 0 7 4t2 9l-156 837q0 5 -2 7t-5 0t-5 -7z" />
    <glyph glyph-name="Aring" unicode="&#xc5;" horiz-adv-x="1206" 
d="M752 1563q-88 0 -140.5 61t-42.5 150q10 88 78 148t156 60t140.5 -60t41.5 -148q-10 -89 -78 -150t-155 -61zM795 1905q-54 0 -97 -38t-49 -93q-7 -56 25.5 -94t87.5 -38q53 0 94.5 37.5t48.5 94.5q6 55 -25.5 93t-84.5 38zM975 0q-22 0 -25 23l-49 249q0 1 -1 3l-1.5 3
t-2 2t-3.5 1h-592q-3 0 -12 -9l-107 -249q-9 -23 -30 -23h-97q-14 0 -19 9t1 22l606 1380q9 23 31 23h127q23 0 26 -23l269 -1380q3 -13 -4 -22t-21 -9h-96zM350 412q-3 -13 6 -13h512q4 0 7 4t2 9l-156 837q0 5 -2 7t-5 0t-5 -7z" />
    <glyph glyph-name="AE" unicode="&#xc6;" horiz-adv-x="1828" 
d="M1839 1333q-3 -26 -31 -26h-667q-13 0 -13 -11l-61 -501q0 -11 8 -11h451q25 0 22 -26l-8 -74q-3 -27 -29 -27h-450q-9 0 -12 -10l-62 -510q-3 -10 8 -10h670q11 0 17.5 -7.5t5.5 -19.5l-11 -73q-3 -27 -28 -27h-795q-26 0 -23 27l31 243q0 11 -10 11h-487q-10 0 -13 -9
l-159 -254q-9 -18 -33 -18h-103q-15 0 -19 9t5 22l879 1384q10 19 30 19h873q25 0 22 -27zM440 412q-4 -6 -2 -9.5t8 -3.5h422q3 0 7 3.5t4 7.5l104 843q0 7 -4.5 8.5t-7.5 -4.5z" />
    <glyph glyph-name="Ccedilla" unicode="&#xc7;" horiz-adv-x="1206" 
d="M1159 997q0 -9 -26 -12l-91 -6q-12 -1 -19 2.5t-5 9.5l2 13q17 145 -61 232t-226 87q-147 0 -247 -87.5t-119 -231.5l-70 -574q-17 -144 61.5 -231.5t225.5 -87.5q148 0 247.5 87t116.5 232q4 26 29 23l90 -4q25 0 25 -11l-2 -10q-25 -201 -168.5 -323.5t-354.5 -122.5
q-7 0 6 -13q105 -110 60 -229q-16 -46 -47 -75t-69 -38.5t-74.5 -9t-71.5 9.5q-20 6 -17 31l11 33q6 27 32 20q50 -10 89 6.5t53 63.5q33 99 -95 211l-12 6q-148 39 -222 155t-52 283l67 563q26 203 170 327t353 124q211 0 324.5 -121.5t88.5 -320.5z" />
    <glyph glyph-name="Egrave" unicode="&#xc8;" horiz-adv-x="1202" 
d="M829 1634q6 -13 0 -22.5t-20 -9.5h-70q-16 0 -28 18l-101 211q-6 14 0 23.5t21 9.5h84q22 0 28 -19zM1210 1333q-3 -26 -28 -26h-723q-9 0 -13 -11l-61 -501q0 -11 10 -11h504q26 0 23 -26l-9 -74q-2 -12 -10 -19.5t-20 -7.5h-504q-9 0 -12 -10l-62 -510q0 -10 8 -10h723
q26 0 23 -27l-8 -73q-1 -12 -9.5 -19.5t-19.5 -7.5h-850q-11 0 -17 7.5t-5 19.5l169 1380q1 12 9.5 19.5t19.5 7.5h850q11 0 17.5 -7.5t5.5 -19.5z" />
    <glyph glyph-name="Eacute" unicode="&#xc9;" horiz-adv-x="1202" 
d="M971 1864q13 0 16 -10t-6 -23l-152 -211q-15 -18 -32 -18h-70q-15 0 -19 9t5 23l139 211q13 19 33 19h86zM1210 1333q-3 -26 -28 -26h-723q-9 0 -13 -11l-61 -501q0 -11 10 -11h504q26 0 23 -26l-9 -74q-2 -12 -10 -19.5t-20 -7.5h-504q-9 0 -12 -10l-62 -510
q0 -10 8 -10h723q26 0 23 -27l-8 -73q-1 -12 -9.5 -19.5t-19.5 -7.5h-850q-11 0 -17 7.5t-5 19.5l169 1380q1 12 9.5 19.5t19.5 7.5h850q11 0 17.5 -7.5t5.5 -19.5z" />
    <glyph glyph-name="Ecircumflex" unicode="&#xca;" horiz-adv-x="1202" 
d="M811 1767q-6 8 -14 0l-138 -163q-14 -17 -32 -17h-64q-17 0 -20 10.5t8 22.5l180 209q13 16 33 16h94q20 0 31 -16l131 -209q8 -12 2 -22.5t-23 -10.5h-63q-17 0 -31 17zM1210 1333q-3 -26 -28 -26h-723q-9 0 -13 -11l-61 -501q0 -11 10 -11h504q26 0 23 -26l-9 -74
q-2 -12 -10 -19.5t-20 -7.5h-504q-9 0 -12 -10l-62 -510q0 -10 8 -10h723q26 0 23 -27l-8 -73q-1 -12 -9.5 -19.5t-19.5 -7.5h-850q-11 0 -17 7.5t-5 19.5l169 1380q1 12 9.5 19.5t19.5 7.5h850q11 0 17.5 -7.5t5.5 -19.5z" />
    <glyph glyph-name="Edieresis" unicode="&#xcb;" horiz-adv-x="1202" 
d="M623 1649q-41 0 -64.5 26.5t-17.5 67.5q5 41 35 68.5t71 27.5q40 0 62.5 -27.5t17.5 -68.5q-6 -42 -34.5 -68t-69.5 -26zM956 1649q-41 0 -64 26.5t-18 67.5q6 42 36 69t71 27t64 -27t18 -69q-6 -42 -35.5 -68t-71.5 -26zM1210 1333q-3 -26 -28 -26h-723q-9 0 -13 -11
l-61 -501q0 -11 10 -11h504q26 0 23 -26l-9 -74q-2 -12 -10 -19.5t-20 -7.5h-504q-9 0 -12 -10l-62 -510q0 -10 8 -10h723q26 0 23 -27l-8 -73q-1 -12 -9.5 -19.5t-19.5 -7.5h-850q-11 0 -17 7.5t-5 19.5l169 1380q1 12 9.5 19.5t19.5 7.5h850q11 0 17.5 -7.5t5.5 -19.5z
" />
    <glyph glyph-name="Igrave" unicode="&#xcc;" horiz-adv-x="514" 
d="M459 1634q6 -13 -1 -22.5t-22 -9.5h-69q-18 0 -27 18l-100 211q-6 13 -0.5 23t18.5 10h86q21 0 27 -19zM172 0q-11 0 -17 7.5t-5 19.5l169 1380q1 12 9.5 19.5t19.5 7.5h90q26 0 23 -27l-170 -1380q-3 -27 -29 -27h-90z" />
    <glyph glyph-name="Iacute" unicode="&#xcd;" horiz-adv-x="514" 
d="M356 1602q-15 0 -19 9t5 23l139 211q9 19 31 19h86q15 0 18 -10t-6 -23l-153 -211q-12 -18 -31 -18h-70zM172 0q-11 0 -17 7.5t-5 19.5l169 1380q1 12 9.5 19.5t19.5 7.5h90q26 0 23 -27l-170 -1380q-3 -27 -29 -27h-90z" />
    <glyph glyph-name="Icircumflex" unicode="&#xce;" horiz-adv-x="514" 
d="M190 1587q-15 0 -18 10.5t6 22.5l182 209q11 16 33 16h94q21 0 29 -16l131 -209q8 -12 2.5 -22.5t-20.5 -10.5h-64q-20 0 -30 17l-95 163q-7 11 -14 0l-137 -163q-17 -17 -35 -17h-64zM172 0q-11 0 -17 7.5t-5 19.5l169 1380q1 12 9.5 19.5t19.5 7.5h90q26 0 23 -27
l-170 -1380q-3 -27 -29 -27h-90z" />
    <glyph glyph-name="Idieresis" unicode="&#xcf;" horiz-adv-x="514" 
d="M252 1649q-41 0 -64.5 26.5t-19.5 67.5q5 41 35 68.5t73 27.5q40 0 62 -27.5t16 -68.5q-4 -41 -33 -67.5t-69 -26.5zM586 1649q-41 0 -64 26.5t-18 67.5q5 42 34 69t70 27q42 0 65 -27t17 -69q-5 -41 -34 -67.5t-70 -26.5zM172 0q-11 0 -17 7.5t-5 19.5l169 1380
q1 12 9.5 19.5t19.5 7.5h90q26 0 23 -27l-170 -1380q-3 -27 -29 -27h-90z" />
    <glyph glyph-name="Eth" unicode="&#xd0;" horiz-adv-x="1357" 
d="M940 1434q197 0 300.5 -107t80.5 -289l-78 -643q-23 -183 -152.5 -289t-326.5 -106h-463q-11 0 -17 7.5t-5 19.5l81 655q0 10 -10 10h-92q-25 0 -22 27l6 53q1 12 9 19.5t19 7.5h95q10 0 10 10l74 598q1 12 9 19.5t19 7.5h463zM1104 414l74 604q17 133 -49 211t-197 78
h-344q-9 0 -13 -11l-59 -487q0 -10 8 -10h230q25 0 22 -27l-6 -53q-1 -12 -9.5 -19.5t-19.5 -7.5h-229q-10 0 -10 -10l-68 -545q0 -10 8 -10h344q129 0 215 77.5t103 209.5z" />
    <glyph glyph-name="Ntilde" unicode="&#xd1;" horiz-adv-x="1337" 
d="M954 1632q-54 0 -116 49q-21 17 -29 23t-23 12t-32 6q-58 0 -99 -49q-22 -22 -39 -8l-26 21q-17 13 -4 36q73 103 172 103q24 0 47 -8.5t34 -15t35 -23.5q62 -43 93 -43q55 0 100 55q15 21 35 8l28 -18q19 -16 -6 -51q-37 -49 -83 -73t-87 -24zM172 0q-11 0 -17 7.5
t-5 19.5l169 1380q1 12 9.5 19.5t19.5 7.5h90q18 0 27 -19l532 -1114q1 -4 3.5 -5t5.5 1.5t4 7.5l135 1102q3 27 29 27h90q11 0 17 -7.5t5 -19.5l-170 -1380q-1 -12 -9.5 -19.5t-19.5 -7.5h-90q-16 0 -28 18l-531 1119q-2 4 -5 5t-5 -1.5t-2 -7.5l-135 -1106q-3 -27 -29 -27
h-90z" />
    <glyph glyph-name="Ograve" unicode="&#xd2;" horiz-adv-x="1234" 
d="M817 1628q6 -13 0 -23t-20 -10h-70q-19 0 -29 19l-100 211q-6 13 -0.5 23t18.5 10h86q20 0 29 -19zM573 -16q-213 0 -326 130t-87 345l63 516q26 214 172.5 344.5t358.5 130.5q215 0 329 -130.5t88 -344.5l-63 -516q-28 -215 -174 -345t-361 -130zM590 109
q151 0 253.5 94.5t121.5 249.5l65 524q19 156 -61 251t-230 95q-149 0 -252 -95.5t-122 -250.5l-66 -524q-19 -155 61.5 -249.5t229.5 -94.5z" />
    <glyph glyph-name="Oacute" unicode="&#xd3;" horiz-adv-x="1234" 
d="M715 1595q-15 0 -19.5 9.5t4.5 23.5l140 211q13 19 32 19h84q15 0 18.5 -10t-5.5 -23l-154 -211q-13 -19 -31 -19h-69zM573 -16q-213 0 -326 130t-87 345l63 516q26 214 172.5 344.5t358.5 130.5q215 0 329 -130.5t88 -344.5l-63 -516q-28 -215 -174 -345t-361 -130z
M590 109q151 0 253.5 94.5t121.5 249.5l65 524q19 156 -61 251t-230 95q-149 0 -252 -95.5t-122 -250.5l-66 -524q-19 -155 61.5 -249.5t229.5 -94.5z" />
    <glyph glyph-name="Ocircumflex" unicode="&#xd4;" horiz-adv-x="1234" 
d="M549 1581q-15 0 -18 10.5t8 22.5l180 209q11 16 33 16h94q20 0 28 -16l134 -209q6 -12 0 -22.5t-21 -10.5h-63q-18 0 -31 16l-94 164q-7 11 -15 0l-137 -164q-16 -16 -35 -16h-63zM573 -16q-213 0 -326 130t-87 345l63 516q26 214 172.5 344.5t358.5 130.5
q215 0 329 -130.5t88 -344.5l-63 -516q-28 -215 -174 -345t-361 -130zM590 109q151 0 253.5 94.5t121.5 249.5l65 524q19 156 -61 251t-230 95q-149 0 -252 -95.5t-122 -250.5l-66 -524q-19 -155 61.5 -249.5t229.5 -94.5z" />
    <glyph glyph-name="Otilde" unicode="&#xd5;" horiz-adv-x="1234" 
d="M905 1626q-55 0 -117 49q-19 16 -29 22.5t-25 12.5t-32 6q-29 0 -51 -10.5t-47 -38.5q-22 -22 -39 -8l-24 20q-21 14 -4 37q70 103 172 103q23 0 45.5 -8.5t33.5 -15t35 -23.5q2 -1 9.5 -6.5t10 -7t9.5 -6.5t10.5 -6.5t10 -5t10.5 -5t10 -3.5t11.5 -2.5t10.5 -0.5
q58 0 101 55q18 21 37 8l26 -18q20 -16 -6 -52q-37 -49 -82.5 -72.5t-85.5 -23.5zM573 -16q-213 0 -326 130t-87 345l63 516q26 214 172.5 344.5t358.5 130.5q215 0 329 -130.5t88 -344.5l-63 -516q-28 -215 -174 -345t-361 -130zM590 109q151 0 253.5 94.5t121.5 249.5
l65 524q19 156 -61 251t-230 95q-149 0 -252 -95.5t-122 -250.5l-66 -524q-19 -155 61.5 -249.5t229.5 -94.5z" />
    <glyph glyph-name="Odieresis" unicode="&#xd6;" horiz-adv-x="1234" 
d="M610 1642q-41 0 -65 27t-19 68q6 41 37 68.5t72 27.5q40 0 62.5 -27.5t17.5 -68.5q-6 -41 -35.5 -68t-69.5 -27zM944 1642q-41 0 -64 26.5t-18 68.5q6 42 36 69t71 27t63.5 -27.5t16.5 -68.5q-5 -41 -34.5 -68t-70.5 -27zM573 -16q-213 0 -326 130t-87 345l63 516
q26 214 172.5 344.5t358.5 130.5q215 0 329 -130.5t88 -344.5l-63 -516q-28 -215 -174 -345t-361 -130zM590 109q151 0 253.5 94.5t121.5 249.5l65 524q19 156 -61 251t-230 95q-149 0 -252 -95.5t-122 -250.5l-66 -524q-19 -155 61.5 -249.5t229.5 -94.5z" />
    <glyph glyph-name="multiply" unicode="&#xd7;" horiz-adv-x="837" 
d="M819 930q15 -18 -4 -37l-256 -234q-3 -3 -3.5 -8t1.5 -8l193 -227q16 -19 -5 -37l-57 -53q-22 -18 -37 0l-192 227q-5 9 -17 0l-256 -234q-19 -17 -36 0l-46 54q-15 18 7 37l256 233q9 9 2 16l-203 240q-15 18 4 37l57 53q19 19 35 0l205 -239q8 -8 16 0l256 233
q19 19 35 0z" />
    <glyph glyph-name="Oslash" unicode="&#xd8;" horiz-adv-x="1245" 
d="M1065 1360q-5 -10 2 -14q143 -134 113 -371l-64 -516q-26 -215 -171.5 -345t-360.5 -130q-160 0 -267 75q-8 8 -12 -4l-67 -114q-14 -21 -35 -21h-58q-15 0 -19.5 9t3.5 22l102 178q6 6 2 14q-87 129 -63 316l63 516q26 214 171.5 344.5t359.5 130.5q118 0 205 -41
q9 -4 14 4l51 92q14 21 35 21h59q15 0 20 -9t-3 -22zM309 453q-9 -84 13 -154q0 -6 3.5 -6t6.5 6l569 979q5 8 -2 12q-59 33 -151 33q-149 0 -251.5 -95.5t-121.5 -250.5zM975 453l65 524q15 144 -49 233q-3 4 -7.5 3.5t-6.5 -5.5l-590 -1009q-4 -9 2 -15q75 -75 211 -75
q151 0 253.5 94.5t121.5 249.5z" />
    <glyph glyph-name="Ugrave" unicode="&#xd9;" horiz-adv-x="1288" 
d="M846 1636q6 -13 -0.5 -22.5t-20.5 -9.5h-69q-20 0 -29 18l-100 211q-6 13 -0.5 23t20.5 10h84q23 0 29 -19zM602 -16q-213 0 -327.5 125.5t-88.5 332.5l117 965q1 12 10 19.5t21 7.5h88q25 0 22 -27l-118 -969q-17 -147 63 -237t229 -90t250.5 90t120.5 237l119 969
q1 12 9.5 19.5t19.5 7.5h90q25 0 22 -27l-119 -965q-25 -207 -169.5 -332.5t-358.5 -125.5z" />
    <glyph glyph-name="Uacute" unicode="&#xda;" horiz-adv-x="1288" 
d="M743 1604q-15 0 -19 9t5 23l139 211q13 19 33 19h84q15 0 18 -10t-6 -23l-153 -211q-12 -18 -31 -18h-70zM602 -16q-213 0 -327.5 125.5t-88.5 332.5l117 965q1 12 10 19.5t21 7.5h88q25 0 22 -27l-118 -969q-17 -147 63 -237t229 -90t250.5 90t120.5 237l119 969
q1 12 9.5 19.5t19.5 7.5h90q25 0 22 -27l-119 -965q-25 -207 -169.5 -332.5t-358.5 -125.5z" />
    <glyph glyph-name="Ucircumflex" unicode="&#xdb;" horiz-adv-x="1288" 
d="M578 1589q-15 0 -18.5 10.5t7.5 22.5l181 209q11 16 32 16h94q20 0 31 -16l131 -209q7 -12 1.5 -22.5t-21.5 -10.5h-64q-16 0 -30 17l-95 163q-7 11 -14 0l-137 -163q-14 -17 -33 -17h-65zM602 -16q-213 0 -327.5 125.5t-88.5 332.5l117 965q1 12 10 19.5t21 7.5h88
q25 0 22 -27l-118 -969q-17 -147 63 -237t229 -90t250.5 90t120.5 237l119 969q1 12 9.5 19.5t19.5 7.5h90q25 0 22 -27l-119 -965q-25 -207 -169.5 -332.5t-358.5 -125.5z" />
    <glyph glyph-name="Udieresis" unicode="&#xdc;" horiz-adv-x="1288" 
d="M639 1651q-41 0 -64.5 26.5t-19.5 67.5q6 41 37 68.5t72 27.5q39 0 61.5 -27t17.5 -69q-6 -42 -34.5 -68t-69.5 -26zM973 1651q-41 0 -64 26.5t-18 67.5q6 42 35.5 69t70.5 27t64 -27t18 -69q-6 -41 -35.5 -67.5t-70.5 -26.5zM602 -16q-213 0 -327.5 125.5t-88.5 332.5
l117 965q1 12 10 19.5t21 7.5h88q25 0 22 -27l-118 -969q-17 -147 63 -237t229 -90t250.5 90t120.5 237l119 969q1 12 9.5 19.5t19.5 7.5h90q25 0 22 -27l-119 -965q-25 -207 -169.5 -332.5t-358.5 -125.5z" />
    <glyph glyph-name="Yacute" unicode="&#xdd;" horiz-adv-x="1126" 
d="M659 1577q-15 0 -19 9.5t5 23.5l139 211q9 18 31 18h86q15 0 18 -9.5t-6 -23.5l-153 -211q-12 -18 -33 -18h-68zM479 2q-25 0 -22 27l73 600q0 2 -1 6t-1 6l-315 760q-5 14 1.5 23.5t21.5 9.5h96q20 0 26 -19l256 -618q5 -8 13 0l409 618q10 19 31 19h96q15 0 19.5 -10
t-4.5 -23l-502 -760q-4 -8 -4 -12l-74 -600q-1 -12 -9.5 -19.5t-19.5 -7.5h-90z" />
    <glyph glyph-name="Thorn" unicode="&#xde;" horiz-adv-x="1126" 
d="M762 1112q177 0 270.5 -109t71.5 -288q-23 -177 -146.5 -285t-295.5 -108h-338q-11 0 -11 -11l-37 -284q-3 -27 -28 -27h-88q-26 0 -23 27l168 1380q1 12 10 19.5t21 7.5h88q25 0 22 -27l-34 -285q0 -10 8 -10h342zM666 442q119 0 200.5 73.5t96.5 197.5q13 124 -50 198
t-180 74h-327q-10 0 -13 -10l-63 -522q0 -11 8 -11h328z" />
    <glyph glyph-name="germandbls" unicode="&#xdf;" horiz-adv-x="1169" 
d="M145 0q-25 0 -22 27l125 1017q24 189 154 298.5t319 109.5q208 0 313 -99.5t86 -277.5q-12 -110 -66.5 -189.5t-144.5 -115.5q-13 -6 -2 -12q81 -39 120 -134t24 -225q-24 -190 -158.5 -294.5t-372.5 -104.5h-131q-25 0 -22 27l8 71q1 12 10 19.5t21 7.5h145
q161 0 251.5 74.5t108.5 212.5q17 140 -45 215t-202 78h-140q-25 0 -22 26l6 64q3 26 31 26h141q135 0 210.5 65.5t86.5 184.5q12 121 -52.5 187.5t-211.5 66.5q-122 0 -214 -72t-110 -198l-125 -1028q-1 -12 -10 -19.5t-21 -7.5h-88z" />
    <glyph glyph-name="agrave" unicode="&#xe0;" horiz-adv-x="1075" 
d="M690 1214q5 -14 -1 -23t-21 -9h-70q-18 0 -27 18l-102 211q-6 13 -0.5 23t20.5 10h86q21 0 27 -19zM858 1010q3 26 31 26h88q25 0 22 -26l-120 -983q-3 -27 -29 -27h-88q-25 0 -25 27l11 75q2 6 -2.5 8t-10.5 -4q-106 -122 -264 -122q-138 0 -223.5 73.5t-106.5 200.5
q-16 84 4 260q20 167 56 254q52 131 156 206t245 75q160 0 236 -121q3 -6 7.5 -4t4.5 8zM733 268q44 80 64 250q20 171 -4 254q-16 70 -65 112t-126 42q-78 0 -141.5 -41t-98.5 -109q-56 -87 -75 -258q-20 -166 4 -248q15 -74 70.5 -116.5t138.5 -42.5q156 0 233 157z" />
    <glyph glyph-name="aacute" unicode="&#xe1;" horiz-adv-x="1075" 
d="M829 1444q13 0 17 -10t-4 -23l-154 -211q-15 -18 -33 -18h-69q-15 0 -19.5 9t4.5 23l140 211q13 19 32 19h86zM858 1010q3 26 31 26h88q25 0 22 -26l-120 -983q-3 -27 -29 -27h-88q-25 0 -25 27l11 75q2 6 -2.5 8t-10.5 -4q-106 -122 -264 -122q-138 0 -223.5 73.5
t-106.5 200.5q-16 84 4 260q20 167 56 254q52 131 156 206t245 75q160 0 236 -121q3 -6 7.5 -4t4.5 8zM733 268q44 80 64 250q20 171 -4 254q-16 70 -65 112t-126 42q-78 0 -141.5 -41t-98.5 -109q-56 -87 -75 -258q-20 -166 4 -248q15 -74 70.5 -116.5t138.5 -42.5
q156 0 233 157z" />
    <glyph glyph-name="acircumflex" unicode="&#xe2;" horiz-adv-x="1075" 
d="M670 1348q-4 11 -15 0l-137 -164q-14 -17 -33 -17h-63q-17 0 -20 10.5t8 22.5l180 209q13 16 35 16h92q23 0 31 -16l131 -209q8 -12 2 -22.5t-23 -10.5h-63q-19 0 -29 17zM858 1010q3 26 31 26h88q25 0 22 -26l-120 -983q-3 -27 -29 -27h-88q-25 0 -25 27l11 75
q2 6 -2.5 8t-10.5 -4q-106 -122 -264 -122q-138 0 -223.5 73.5t-106.5 200.5q-16 84 4 260q20 167 56 254q52 131 156 206t245 75q160 0 236 -121q3 -6 7.5 -4t4.5 8zM733 268q44 80 64 250q20 171 -4 254q-16 70 -65 112t-126 42q-78 0 -141.5 -41t-98.5 -109
q-56 -87 -75 -258q-20 -166 4 -248q15 -74 70.5 -116.5t138.5 -42.5q156 0 233 157z" />
    <glyph glyph-name="atilde" unicode="&#xe3;" horiz-adv-x="1075" 
d="M575 1303q-30 0 -52 -10.5t-48 -39.5q-19 -22 -39 -8l-24 21q-17 14 -4 37q72 102 172 102q23 0 45.5 -8.5t33.5 -15t35 -23.5q3 -2 15 -9.5t16.5 -10.5t14 -8.5t16 -8t15 -4.5t15.5 -2q58 0 101 55q18 21 37 8l28 -18q17 -14 4 -37q-38 -57 -87 -84t-93 -27
q-54 0 -117 50q-19 16 -29 22.5t-24.5 12.5t-30.5 6zM858 1010q3 26 31 26h88q25 0 22 -26l-120 -983q-3 -27 -29 -27h-88q-25 0 -25 27l11 75q2 6 -2.5 8t-10.5 -4q-106 -122 -264 -122q-138 0 -223.5 73.5t-106.5 200.5q-16 84 4 260q20 167 56 254q52 131 156 206t245 75
q160 0 236 -121q3 -6 7.5 -4t4.5 8zM733 268q44 80 64 250q20 171 -4 254q-16 70 -65 112t-126 42q-78 0 -141.5 -41t-98.5 -109q-56 -87 -75 -258q-20 -166 4 -248q15 -74 70.5 -116.5t138.5 -42.5q156 0 233 157z" />
    <glyph glyph-name="adieresis" unicode="&#xe4;" horiz-adv-x="1075" 
d="M483 1229q-42 0 -66 26.5t-18 67.5q4 41 35 68.5t72 27.5q40 0 62.5 -27.5t17.5 -68.5q-4 -41 -33.5 -67.5t-69.5 -26.5zM817 1229q-43 0 -65.5 26.5t-16.5 67.5q5 41 34.5 68.5t70.5 27.5t64 -27t18 -69q-4 -41 -34 -67.5t-71 -26.5zM858 1010q3 26 31 26h88
q25 0 22 -26l-120 -983q-3 -27 -29 -27h-88q-25 0 -25 27l11 75q2 6 -2.5 8t-10.5 -4q-106 -122 -264 -122q-138 0 -223.5 73.5t-106.5 200.5q-16 84 4 260q20 167 56 254q52 131 156 206t245 75q160 0 236 -121q3 -6 7.5 -4t4.5 8zM733 268q44 80 64 250q20 171 -4 254
q-16 70 -65 112t-126 42q-78 0 -141.5 -41t-98.5 -109q-56 -87 -75 -258q-20 -166 4 -248q15 -74 70.5 -116.5t138.5 -42.5q156 0 233 157z" />
    <glyph glyph-name="aring" unicode="&#xe5;" horiz-adv-x="1075" 
d="M641 1165q-88 0 -140.5 61t-41.5 150q11 88 78.5 148.5t156.5 60.5q86 0 138.5 -60.5t41.5 -148.5q-10 -89 -77.5 -150t-155.5 -61zM684 1507q-54 0 -96.5 -38t-48.5 -93q-7 -56 25 -93.5t87 -37.5q53 0 95.5 37.5t48.5 93.5q6 55 -26 93t-85 38zM858 1010q3 26 31 26h88
q25 0 22 -26l-120 -983q-3 -27 -29 -27h-88q-25 0 -25 27l11 75q2 6 -2.5 8t-10.5 -4q-106 -122 -264 -122q-138 0 -223.5 73.5t-106.5 200.5q-16 84 4 260q20 167 56 254q52 131 156 206t245 75q160 0 236 -121q3 -6 7.5 -4t4.5 8zM733 268q44 80 64 250q20 171 -4 254
q-16 70 -65 112t-126 42q-78 0 -141.5 -41t-98.5 -109q-56 -87 -75 -258q-20 -166 4 -248q15 -74 70.5 -116.5t138.5 -42.5q156 0 233 157z" />
    <glyph glyph-name="ae" unicode="&#xe6;" horiz-adv-x="1654" 
d="M401 -16q-72 0 -131 15.5t-105.5 48t-68 89.5t-12.5 133q19 151 138.5 237.5t312.5 86.5h229q9 0 12 10l10 86q13 106 -37.5 171t-170.5 65q-92 0 -157.5 -37.5t-90.5 -102.5q-9 -23 -33 -20l-88 10q-12 2 -17.5 10.5t-1.5 20.5q34 109 145 177.5t255 68.5q117 0 194 -50
t101 -129q3 -12 12 0q49 75 139 127t193 52q136 0 230.5 -77.5t111.5 -205.5q8 -72 -17 -270q-3 -29 -28 -29h-615q-10 0 -10 -10q-5 -40 -12 -127q-7 -103 63 -158t183 -55q175 0 264 145q13 27 37 13l53 -33q20 -14 8 -35q-54 -99 -159.5 -163t-237.5 -64
q-110 0 -190.5 46.5t-108.5 125.5q-7 11 -13 2q-51 -82 -157 -128t-230 -46zM918 604q0 -10 10 -10h489q10 0 13 10q7 83 4 121q-6 88 -66 144.5t-156 56.5t-169 -55.5t-101 -145.5q-10 -30 -24 -121zM430 100q115 0 206.5 58.5t104.5 169.5l17 133q0 10 -8 10h-209
q-134 0 -218 -48t-96 -140q-10 -87 46.5 -135t156.5 -48z" />
    <glyph glyph-name="ccedilla" unicode="&#xe7;" horiz-adv-x="1032" 
d="M788 295q5 5 5 10q0 2 2 2q6 26 32 23l84 -15q28 -4 19 -30q-1 -4 -2.5 -9t-4 -13t-3.5 -13q-42 -108 -143 -180t-230 -82q-6 -1 -7.5 -5.5t3.5 -7.5q107 -113 63 -233q-16 -46 -47.5 -75t-69.5 -38.5t-74.5 -9t-70.5 9.5q-22 6 -16 31l10 33q6 27 33 20q48 -10 87.5 6.5
t53.5 63.5q32 90 -84 203l-12 6q-111 18 -180.5 91t-90.5 185q-12 86 7 254q19 155 57 250q52 128 164 204.5t256 76.5q146 0 242 -76t114 -189q4 -20 4 -55q0 -28 -26 -31l-89 -10q-26 -3 -26 23q0 4 -1 12t-1 12q-8 78 -71.5 132.5t-162.5 54.5t-172.5 -54.5
t-103.5 -144.5q-29 -78 -43 -207q-16 -130 -8 -209q8 -91 68 -145.5t159 -54.5q98 0 173.5 52t102.5 132z" />
    <glyph glyph-name="egrave" unicode="&#xe8;" horiz-adv-x="1060" 
d="M682 1231q6 -13 -1 -23t-22 -10h-69q-18 0 -27 19l-102 210q-5 14 0.5 23.5t19.5 9.5h86q21 0 27 -18zM524 109q90 1 160.5 41.5t112.5 111.5q14 25 34 12l56 -32q21 -14 6 -35q-60 -103 -163 -163t-234 -60q-139 0 -226 67.5t-114 188.5q-24 101 -2 282q19 169 47 238
q50 134 162 213.5t258 79.5q172 0 259 -93t95 -260q3 -71 -14 -204q-3 -27 -29 -27h-635q-12 0 -12 -10q-12 -103 -6 -150q9 -91 73.5 -145.5t171.5 -54.5zM604 926q-98 0 -168 -52.5t-102 -140.5q-18 -49 -33 -139q0 -10 8 -10h512q10 0 10 10q7 99 5 131q-9 91 -70 146
t-162 55z" />
    <glyph glyph-name="eacute" unicode="&#xe9;" horiz-adv-x="1060" 
d="M821 1460q15 0 18.5 -10t-5.5 -23l-154 -210q-16 -19 -33 -19h-69q-14 0 -18 10t5 23l137 211q12 18 33 18h86zM524 109q90 1 160.5 41.5t112.5 111.5q14 25 34 12l56 -32q21 -14 6 -35q-60 -103 -163 -163t-234 -60q-139 0 -226 67.5t-114 188.5q-24 101 -2 282
q19 169 47 238q50 134 162 213.5t258 79.5q172 0 259 -93t95 -260q3 -71 -14 -204q-3 -27 -29 -27h-635q-12 0 -12 -10q-12 -103 -6 -150q9 -91 73.5 -145.5t171.5 -54.5zM604 926q-98 0 -168 -52.5t-102 -140.5q-18 -49 -33 -139q0 -10 8 -10h512q10 0 10 10q7 99 5 131
q-9 91 -70 146t-162 55z" />
    <glyph glyph-name="ecircumflex" unicode="&#xea;" horiz-adv-x="1060" 
d="M662 1364q-2 4 -6 4t-7 -4l-139 -164q-13 -16 -33 -16h-63q-17 0 -20.5 10.5t7.5 22.5l181 208q14 17 34 17h93q21 0 30 -17l131 -208q8 -12 2.5 -22.5t-22.5 -10.5h-64q-18 0 -28 16zM524 109q90 1 160.5 41.5t112.5 111.5q14 25 34 12l56 -32q21 -14 6 -35
q-60 -103 -163 -163t-234 -60q-139 0 -226 67.5t-114 188.5q-24 101 -2 282q19 169 47 238q50 134 162 213.5t258 79.5q172 0 259 -93t95 -260q3 -71 -14 -204q-3 -27 -29 -27h-635q-12 0 -12 -10q-12 -103 -6 -150q9 -91 73.5 -145.5t171.5 -54.5zM604 926
q-98 0 -168 -52.5t-102 -140.5q-18 -49 -33 -139q0 -10 8 -10h512q10 0 10 10q7 99 5 131q-9 91 -70 146t-162 55z" />
    <glyph glyph-name="edieresis" unicode="&#xeb;" horiz-adv-x="1060" 
d="M475 1245q-41 0 -64.5 26.5t-19.5 67.5q5 41 35.5 69t71.5 28q39 0 62 -27.5t18 -69.5q-4 -41 -33.5 -67.5t-69.5 -26.5zM809 1245q-41 0 -64.5 26.5t-17.5 67.5q5 42 34 69.5t70 27.5t64 -27.5t18 -69.5q-5 -41 -34 -67.5t-70 -26.5zM524 109q90 1 160.5 41.5
t112.5 111.5q14 25 34 12l56 -32q21 -14 6 -35q-60 -103 -163 -163t-234 -60q-139 0 -226 67.5t-114 188.5q-24 101 -2 282q19 169 47 238q50 134 162 213.5t258 79.5q172 0 259 -93t95 -260q3 -71 -14 -204q-3 -27 -29 -27h-635q-12 0 -12 -10q-12 -103 -6 -150
q9 -91 73.5 -145.5t171.5 -54.5zM604 926q-98 0 -168 -52.5t-102 -140.5q-18 -49 -33 -139q0 -10 8 -10h512q10 0 10 10q7 99 5 131q-9 91 -70 146t-162 55z" />
    <glyph glyph-name="igrave" unicode="&#xec;" horiz-adv-x="438" 
d="M369 1235q6 -13 -1 -23t-22 -10h-70q-16 0 -26 19l-103 211q-5 14 0.5 23t20.5 9h86q21 0 27 -18zM133 0q-25 0 -22 27l120 983q3 26 29 26h90q26 0 23 -26l-121 -983q-1 -12 -9.5 -19.5t-19.5 -7.5h-90z" />
    <glyph glyph-name="iacute" unicode="&#xed;" horiz-adv-x="438" 
d="M264 1202q-14 0 -17.5 10t5.5 23l137 211q12 18 33 18h86q15 0 18 -9t-6 -23l-153 -211q-16 -19 -33 -19h-70zM133 0q-25 0 -22 27l120 983q3 26 29 26h90q26 0 23 -26l-121 -983q-1 -12 -9.5 -19.5t-19.5 -7.5h-90z" />
    <glyph glyph-name="icircumflex" unicode="&#xee;" horiz-adv-x="438" 
d="M100 1188q-17 0 -20 10.5t8 22.5l180 209q13 16 35 16h92q23 0 31 -16l131 -209q8 -12 2.5 -22.5t-22.5 -10.5h-64q-19 0 -29 16l-96 164q-2 4 -5.5 4t-6.5 -4l-139 -164q-13 -16 -33 -16h-64zM133 0q-25 0 -22 27l120 983q3 26 29 26h90q26 0 23 -26l-121 -983
q-1 -12 -9.5 -19.5t-19.5 -7.5h-90z" />
    <glyph glyph-name="idieresis" unicode="&#xef;" horiz-adv-x="569" 
d="M229 1249q-41 0 -64.5 26.5t-19.5 67.5q5 41 35.5 69t71.5 28q39 0 62 -27.5t18 -69.5q-4 -41 -33.5 -67.5t-69.5 -26.5zM563 1249q-41 0 -64.5 26.5t-17.5 67.5q5 42 34.5 69.5t70.5 27.5t64 -27.5t18 -69.5q-4 -41 -34 -67.5t-71 -26.5zM205 0q-26 0 -23 27l121 983
q3 26 29 26h90q11 0 17 -7t5 -19l-120 -983q-1 -12 -9.5 -19.5t-19.5 -7.5h-90z" />
    <glyph glyph-name="eth" unicode="&#xf0;" horiz-adv-x="1044" 
d="M950 727q2 -82 -14 -227q-12 -98 -22 -150t-29 -94q-48 -122 -159.5 -197t-252.5 -75q-139 0 -230 74.5t-112 197.5q-13 69 8 244q19 166 51 241q37 101 121.5 167.5t192.5 76.5q78 12 159.5 -3.5t127.5 -55.5q3 -3 5 -3.5t3 1.5t0 6q-23 112 -101 237q-7 7 -14 4
l-180 -53q-28 -8 -31 19l-6 34q-3 27 22 33l138 39q13 4 6 14q-49 64 -129 144q-12 12 -7.5 22.5t23.5 10.5h96q19 0 31 -15q74 -82 109 -129q7 -7 14 -4l152 45q27 9 30 -18l6 -35q0 -25 -22 -33l-107 -31q-13 -4 -8 -12q139 -207 129 -475zM756 295q17 49 37 201
q16 154 12 196q-9 89 -68 143t-153 54t-165 -54t-102 -143q-15 -45 -36 -196q-17 -161 -11 -201q8 -89 65.5 -143t151.5 -54q93 0 165.5 54.5t103.5 142.5z" />
    <glyph glyph-name="ntilde" unicode="&#xf1;" horiz-adv-x="1071" 
d="M575 1303q-30 0 -52 -10.5t-48 -39.5q-19 -22 -39 -8l-24 21q-17 14 -4 37q72 102 172 102q23 0 45.5 -8.5t33.5 -15t35 -23.5q3 -2 15 -9.5t16.5 -10.5t14 -8.5t16 -8t15 -4.5t15.5 -2q58 0 101 55q18 21 37 8l28 -18q17 -14 4 -37q-38 -57 -87 -84t-93 -27
q-54 0 -117 50q-19 16 -29 22.5t-24.5 12.5t-30.5 6zM666 1051q157 0 239 -97t62 -258l-82 -669q-3 -27 -29 -27h-90q-11 0 -17.5 7.5t-5.5 19.5l80 641q14 114 -42.5 185t-162.5 71q-101 0 -174.5 -59t-95.5 -156l-84 -682q-1 -12 -10 -19.5t-21 -7.5h-88q-25 0 -22 27
l121 983q3 26 28 26h90q11 0 17.5 -7t5.5 -19l-10 -76q0 -7 2.5 -9t7.5 3q99 123 281 123z" />
    <glyph glyph-name="ograve" unicode="&#xf2;" horiz-adv-x="1085" 
d="M694 1231q5 -14 -1 -23.5t-21 -9.5h-70q-18 0 -27 19l-102 210q-6 14 0 23.5t21 9.5h86q20 0 26 -18zM502 -16q-145 0 -238.5 75.5t-116.5 208.5q-14 96 5 252q18 153 55 250q56 132 168 207.5t258 75.5q144 0 237 -75.5t115 -205.5q15 -103 -4 -252q-19 -157 -57 -252
q-56 -132 -168 -208t-254 -76zM518 111q95 0 169.5 53.5t109.5 146.5q24 64 41 207q19 141 10 207q-11 92 -73 146.5t-161 54.5q-95 0 -168.5 -54.5t-109.5 -146.5q-24 -60 -41 -207q-19 -139 -10 -207q11 -93 72.5 -146.5t160.5 -53.5z" />
    <glyph glyph-name="oacute" unicode="&#xf3;" horiz-adv-x="1085" 
d="M590 1198q-15 0 -19.5 10t4.5 23l140 211q12 18 33 18h86q13 0 16 -10t-6 -23l-152 -210q-16 -19 -33 -19h-69zM502 -16q-145 0 -238.5 75.5t-116.5 208.5q-14 96 5 252q18 153 55 250q56 132 168 207.5t258 75.5q144 0 237 -75.5t115 -205.5q15 -103 -4 -252
q-19 -157 -57 -252q-56 -132 -168 -208t-254 -76zM518 111q95 0 169.5 53.5t109.5 146.5q24 64 41 207q19 141 10 207q-11 92 -73 146.5t-161 54.5q-95 0 -168.5 -54.5t-109.5 -146.5q-24 -60 -41 -207q-19 -139 -10 -207q11 -93 72.5 -146.5t160.5 -53.5z" />
    <glyph glyph-name="ocircumflex" unicode="&#xf4;" horiz-adv-x="1085" 
d="M426 1184q-17 0 -20 10.5t8 22.5l180 208q14 17 35 17h92q23 0 31 -17l131 -208q8 -12 2 -22.5t-23 -10.5h-63q-19 0 -29 16l-96 164q-4 11 -15 0l-137 -164q-13 -16 -33 -16h-63zM502 -16q-145 0 -238.5 75.5t-116.5 208.5q-14 96 5 252q18 153 55 250q56 132 168 207.5
t258 75.5q144 0 237 -75.5t115 -205.5q15 -103 -4 -252q-19 -157 -57 -252q-56 -132 -168 -208t-254 -76zM518 111q95 0 169.5 53.5t109.5 146.5q24 64 41 207q19 141 10 207q-11 92 -73 146.5t-161 54.5q-95 0 -168.5 -54.5t-109.5 -146.5q-24 -60 -41 -207
q-19 -139 -10 -207q11 -93 72.5 -146.5t160.5 -53.5z" />
    <glyph glyph-name="otilde" unicode="&#xf5;" horiz-adv-x="1085" 
d="M780 1229q-54 0 -116 49q-19 16 -29 22.5t-24.5 12.5t-30.5 6q-31 0 -53.5 -10.5t-47.5 -38.5q-20 -24 -39 -8l-24 20q-17 14 -4 37q72 102 172 102q23 0 45.5 -8.5t33.5 -15t35 -23.5q3 -2 13 -8.5t14 -9t12.5 -7.5t14 -7.5t13 -5.5t14 -4t12.5 -1q57 0 100 55
q18 21 37 9l28 -19q19 -16 -6 -51q-39 -49 -84 -72.5t-86 -23.5zM502 -16q-145 0 -238.5 75.5t-116.5 208.5q-14 96 5 252q18 153 55 250q56 132 168 207.5t258 75.5q144 0 237 -75.5t115 -205.5q15 -103 -4 -252q-19 -157 -57 -252q-56 -132 -168 -208t-254 -76zM518 111
q95 0 169.5 53.5t109.5 146.5q24 64 41 207q19 141 10 207q-11 92 -73 146.5t-161 54.5q-95 0 -168.5 -54.5t-109.5 -146.5q-24 -60 -41 -207q-19 -139 -10 -207q11 -93 72.5 -146.5t160.5 -53.5z" />
    <glyph glyph-name="odieresis" unicode="&#xf6;" horiz-adv-x="1085" 
d="M487 1245q-43 0 -66.5 26.5t-17.5 67.5q5 41 35.5 69t71.5 28q39 0 62 -27.5t18 -69.5q-4 -41 -33.5 -67.5t-69.5 -26.5zM821 1245q-43 0 -65.5 26.5t-16.5 67.5q5 42 34.5 69.5t70.5 27.5t64 -27.5t18 -69.5q-6 -42 -35 -68t-70 -26zM502 -16q-145 0 -238.5 75.5
t-116.5 208.5q-14 96 5 252q18 153 55 250q56 132 168 207.5t258 75.5q144 0 237 -75.5t115 -205.5q15 -103 -4 -252q-19 -157 -57 -252q-56 -132 -168 -208t-254 -76zM518 111q95 0 169.5 53.5t109.5 146.5q24 64 41 207q19 141 10 207q-11 92 -73 146.5t-161 54.5
q-95 0 -168.5 -54.5t-109.5 -146.5q-24 -60 -41 -207q-19 -139 -10 -207q11 -93 72.5 -146.5t160.5 -53.5z" />
    <glyph glyph-name="divide" unicode="&#xf7;" horiz-adv-x="993" 
d="M565 901q-43 0 -69 31.5t-21 77.5q6 43 41 73.5t76 30.5q42 0 70 -31t22 -73q-6 -45 -41.5 -77t-77.5 -32zM137 602q-25 0 -22 27l10 73q3 27 29 27h786q26 0 23 -27l-11 -73q-3 -27 -28 -27h-787zM485 252q-43 0 -69 31t-21 75q6 43 41 75t76 32t68.5 -32t23.5 -75
q-6 -44 -41.5 -75t-77.5 -31z" />
    <glyph glyph-name="oslash" unicode="&#xf8;" horiz-adv-x="1095" 
d="M997 772q15 -103 -4 -252q-20 -159 -59 -252q-54 -132 -166.5 -208t-253.5 -76q-137 0 -231 69q-8 5 -15 -2l-78 -102q-16 -23 -36 -6l-50 39q-16 13 0 36l95 121q4 7 0 15q-28 54 -39 114q-15 100 4 252q18 153 55 250q56 132 168 207.5t258 75.5q114 0 201 -52
q7 -2 14 5l68 88q6 10 16 12t19 -6l49 -39q18 -15 2 -37l-74 -94q-4 -8 0 -15q46 -64 57 -143zM297 311q0 -12 2 -18q1 -4 3 -5.5t4.5 -0.5t4.5 4l451 588q7 7 -2 12q-56 35 -133 35q-96 0 -170.5 -54.5t-108.5 -146.5q-22 -54 -43 -207q-16 -144 -8 -207zM809 311
q24 64 41 207q19 141 10 207q-2 26 -14 61q-9 13 -15 0l-462 -606q-10 -6 -2 -14q64 -55 163 -55q95 0 169.5 53.5t109.5 146.5z" />
    <glyph glyph-name="ugrave" unicode="&#xf9;" horiz-adv-x="1064" 
d="M680 1214q6 -13 -1 -22.5t-22 -9.5h-69q-18 0 -27 18l-102 211q-5 14 0.5 23.5t19.5 9.5h86q21 0 27 -19zM852 1010q3 26 29 26h88q25 0 22 -26l-121 -983q0 -12 -8 -19.5t-20 -7.5h-88q-26 0 -23 27l8 77q2 6 -2 8.5t-8 -3.5q-104 -123 -278 -123q-148 0 -237.5 90
t-70.5 248l84 686q3 26 29 26h90q26 0 23 -26l-80 -643q-14 -116 41.5 -185t163.5 -69q113 0 188.5 69.5t89.5 184.5z" />
    <glyph glyph-name="uacute" unicode="&#xfa;" horiz-adv-x="1064" 
d="M819 1444q15 0 18 -10t-6 -23l-153 -211q-15 -18 -33 -18h-70q-14 0 -17.5 9t5.5 23l139 211q10 19 31 19h86zM852 1010q3 26 29 26h88q25 0 22 -26l-121 -983q0 -12 -8 -19.5t-20 -7.5h-88q-26 0 -23 27l8 77q2 6 -2 8.5t-8 -3.5q-104 -123 -278 -123q-148 0 -237.5 90
t-70.5 248l84 686q3 26 29 26h90q26 0 23 -26l-80 -643q-14 -116 41.5 -185t163.5 -69q113 0 188.5 69.5t89.5 184.5z" />
    <glyph glyph-name="ucircumflex" unicode="&#xfb;" horiz-adv-x="1064" 
d="M659 1348q-1 4 -5 4t-7 -4l-139 -164q-14 -17 -33 -17h-63q-17 0 -20.5 10.5t7.5 22.5l181 209q13 16 34 16h93q22 0 30 -16l131 -209q8 -12 2.5 -22.5t-22.5 -10.5h-64q-18 0 -28 17zM852 1010q3 26 29 26h88q25 0 22 -26l-121 -983q0 -12 -8 -19.5t-20 -7.5h-88
q-26 0 -23 27l8 77q2 6 -2 8.5t-8 -3.5q-104 -123 -278 -123q-148 0 -237.5 90t-70.5 248l84 686q3 26 29 26h90q26 0 23 -26l-80 -643q-14 -116 41.5 -185t163.5 -69q113 0 188.5 69.5t89.5 184.5z" />
    <glyph glyph-name="udieresis" unicode="&#xfc;" horiz-adv-x="1064" 
d="M473 1229q-41 0 -64.5 26.5t-19.5 67.5t35 68.5t72 27.5q39 0 61.5 -27t17.5 -69q-4 -41 -33 -67.5t-69 -26.5zM807 1229q-41 0 -64 26.5t-18 67.5q5 42 34 69t70 27t64 -27t18 -69q-5 -41 -34 -67.5t-70 -26.5zM852 1010q3 26 29 26h88q25 0 22 -26l-121 -983
q0 -12 -8 -19.5t-20 -7.5h-88q-26 0 -23 27l8 77q2 6 -2 8.5t-8 -3.5q-104 -123 -278 -123q-148 0 -237.5 90t-70.5 248l84 686q3 26 29 26h90q26 0 23 -26l-80 -643q-14 -116 41.5 -185t163.5 -69q113 0 188.5 69.5t89.5 184.5z" />
    <glyph glyph-name="yacute" unicode="&#xfd;" horiz-adv-x="915" 
d="M506 1190q-15 0 -19 10t5 23l139 211q12 18 33 18h84q15 0 18 -10t-6 -23l-152 -211q-15 -18 -33 -18h-69zM23 -410q-14 0 -11 27l8 72q1 12 7 19t12 7h14q111 0 165.5 52.5t127.5 226.5q4 4 2 12l-211 1000q-3 13 5 21.5t22 8.5h92q24 0 27 -22l157 -803q1 -5 3.5 -7
t5.5 0t4 7l350 803q5 22 28 22h97q14 0 19 -8t-1 -22l-500 -1096q-49 -104 -85 -161.5t-83 -96t-101 -50.5t-140 -12h-14z" />
    <glyph glyph-name="thorn" unicode="&#xfe;" horiz-adv-x="1064" 
d="M977 772q12 -86 -8 -254q-19 -165 -60 -260q-52 -127 -155.5 -200.5t-241.5 -73.5q-151 0 -227 112q-5 4 -9 2t-6 -8l-57 -473q-3 -27 -29 -27h-90q-25 0 -22 27l221 1790q3 27 29 27h88q25 0 22 -27l-55 -459q-2 -6 2 -8t8 2q108 111 256 111q142 0 227.5 -75
t106.5 -206zM762 270q47 84 67 248q11 108 7.5 161.5t-21.5 96.5q-19 68 -72.5 109t-130.5 41q-75 0 -134 -42t-93 -112q-30 -55 -45 -119l-33 -274q0 -65 15 -111q16 -72 64.5 -114.5t127.5 -42.5q83 0 149.5 42.5t98.5 116.5z" />
    <glyph glyph-name="ydieresis" unicode="&#xff;" horiz-adv-x="915" 
d="M401 1237q-41 0 -64.5 26.5t-19.5 67.5q6 41 37 68.5t72 27.5q40 0 62.5 -27.5t17.5 -68.5q-6 -42 -35 -68t-70 -26zM735 1237q-41 0 -64 26.5t-18 67.5q6 42 36 69t71 27t64 -27t18 -69q-6 -42 -35.5 -68t-71.5 -26zM23 -410q-14 0 -11 27l8 72q1 12 7 19t12 7h14
q111 0 165.5 52.5t127.5 226.5q4 4 2 12l-211 1000q-3 13 5 21.5t22 8.5h92q24 0 27 -22l157 -803q1 -5 3.5 -7t5.5 0t4 7l350 803q5 22 28 22h97q14 0 19 -8t-1 -22l-500 -1096q-49 -104 -85 -161.5t-83 -96t-101 -50.5t-140 -12h-14z" />
    <glyph glyph-name="Amacron" unicode="&#x100;" horiz-adv-x="1206" 
d="M1014 1718q25 0 22 -26l-6 -52q-1 -12 -9.5 -19t-19.5 -7h-483q-25 0 -22 26l6 52q3 26 28 26h484zM975 0q-22 0 -25 23l-49 249q0 1 -1 3l-1.5 3t-2 2t-3.5 1h-592q-3 0 -12 -9l-107 -249q-9 -23 -30 -23h-97q-14 0 -19 9t1 22l606 1380q9 23 31 23h127q23 0 26 -23
l269 -1380q3 -13 -4 -22t-21 -9h-96zM350 412q-3 -13 6 -13h512q4 0 7 4t2 9l-156 837q0 5 -2 7t-5 0t-5 -7z" />
    <glyph glyph-name="amacron" unicode="&#x101;" horiz-adv-x="1075" 
d="M903 1321q26 0 23 -27l-6 -51q-3 -26 -29 -26h-483q-26 0 -23 26l6 51q1 12 9.5 19.5t19.5 7.5h483zM858 1010q3 26 31 26h88q25 0 22 -26l-120 -983q-3 -27 -29 -27h-88q-25 0 -25 27l11 75q2 6 -2.5 8t-10.5 -4q-106 -122 -264 -122q-138 0 -223.5 73.5t-106.5 200.5
q-16 84 4 260q20 167 56 254q52 131 156 206t245 75q160 0 236 -121q3 -6 7.5 -4t4.5 8zM733 268q44 80 64 250q20 171 -4 254q-16 70 -65 112t-126 42q-78 0 -141.5 -41t-98.5 -109q-56 -87 -75 -258q-20 -166 4 -248q15 -74 70.5 -116.5t138.5 -42.5q156 0 233 157z" />
    <glyph glyph-name="Abreve" unicode="&#x102;" horiz-adv-x="1206" 
d="M750 1540q-85 0 -140 54.5t-53 136.5q0 26 27 26h34q23 0 23 -24q3 -50 36.5 -82.5t82.5 -32.5q47 0 87 32.5t54 82.5q6 24 31 24h37q12 0 17.5 -7t2.5 -19q-20 -82 -87.5 -136.5t-151.5 -54.5zM975 0q-22 0 -25 23l-49 249q0 1 -1 3l-1.5 3t-2 2t-3.5 1h-592
q-3 0 -12 -9l-107 -249q-9 -23 -30 -23h-97q-14 0 -19 9t1 22l606 1380q9 23 31 23h127q23 0 26 -23l269 -1380q3 -13 -4 -22t-21 -9h-96zM350 412q-3 -13 6 -13h512q4 0 7 4t2 9l-156 837q0 5 -2 7t-5 0t-5 -7z" />
    <glyph glyph-name="abreve" unicode="&#x103;" horiz-adv-x="1075" 
d="M639 1143q-84 0 -138.5 54t-54.5 136q0 12 7.5 19.5t19.5 7.5h35q24 0 24 -25q2 -50 35 -82t82 -32q47 0 88 32.5t56 81.5q6 25 28 25h37q12 0 18 -7.5t3 -19.5q-20 -82 -88 -136t-152 -54zM858 1010q3 26 31 26h88q25 0 22 -26l-120 -983q-3 -27 -29 -27h-88
q-25 0 -25 27l11 75q2 6 -2.5 8t-10.5 -4q-106 -122 -264 -122q-138 0 -223.5 73.5t-106.5 200.5q-16 84 4 260q20 167 56 254q52 131 156 206t245 75q160 0 236 -121q3 -6 7.5 -4t4.5 8zM733 268q44 80 64 250q20 171 -4 254q-16 70 -65 112t-126 42q-78 0 -141.5 -41
t-98.5 -109q-56 -87 -75 -258q-20 -166 4 -248q15 -74 70.5 -116.5t138.5 -42.5q156 0 233 157z" />
    <glyph glyph-name="Aogonek" unicode="&#x104;" horiz-adv-x="1257" 
d="M1049 -287q28 7 28 -20l2 -33q0 -25 -24 -31q-37 -9 -73.5 -9.5t-72 9t-60 38.5t-28.5 75q-16 131 144 250q7 8 0 10q-11 3 -15 21l-49 249q0 1 -1 3l-1.5 3t-2 2t-3.5 1h-592q-3 0 -12 -9l-107 -249q-9 -23 -30 -23h-97q-14 0 -19 9t1 22l606 1380q9 23 31 23h127
q23 0 26 -23l269 -1380q7 -31 -2 -31h-7q-4 0 -12 -4q-71 -50 -113 -105.5t-36 -107.5q3 -47 38 -63.5t85 -6.5zM350 412q-3 -13 6 -13h512q4 0 7 4t2 9l-156 837q0 5 -2 7t-5 0t-5 -7z" />
    <glyph glyph-name="aogonek" unicode="&#x105;" horiz-adv-x="1191" 
d="M817 -287q27 7 27 -20l2 -33q0 -25 -23 -31q-37 -9 -73.5 -9.5t-72 9t-60 38.5t-29.5 75q-17 135 149 252q2 2 2 12q-2 4 -2 21l11 75q2 6 -2.5 8t-10.5 -4q-106 -122 -264 -122q-138 0 -223.5 73.5t-106.5 200.5q-16 84 4 260q20 167 56 254q52 131 156 206t245 75
q160 0 236 -121q3 -6 7.5 -4t4.5 8l8 74q3 26 31 26h88q25 0 22 -26l-120 -983q-3 -27 -17 -27h-8q-4 0 -12 -4q-158 -112 -150 -213q3 -47 38 -63.5t87 -6.5zM733 268q44 80 64 250q20 171 -4 254q-16 70 -65 112t-126 42q-78 0 -141.5 -41t-98.5 -109q-56 -87 -75 -258
q-20 -166 4 -248q15 -74 70.5 -116.5t138.5 -42.5q156 0 233 157z" />
    <glyph glyph-name="Cacute" unicode="&#x106;" horiz-adv-x="1206" 
d="M709 1595q-15 0 -19.5 9.5t4.5 23.5l140 211q13 19 32 19h84q15 0 18.5 -10t-5.5 -23l-152 -211q-16 -19 -33 -19h-69zM567 -18q-209 0 -322 125t-87 329l67 563q26 203 170 327t353 124q211 0 324.5 -121.5t88.5 -320.5q-3 -20 -28 -23l-91 -6q-12 -1 -19 2.5t-5 9.5
l2 13q17 145 -61 232t-226 87q-147 0 -247 -87.5t-119 -231.5l-70 -574q-17 -144 61.5 -231.5t225.5 -87.5q148 0 247.5 87t116.5 232q4 26 29 23l90 -4q25 0 25 -11l-2 -10q-25 -201 -168.5 -323.5t-354.5 -122.5z" />
    <glyph glyph-name="cacute" unicode="&#x107;" horiz-adv-x="1032" 
d="M586 1198q-15 0 -19.5 10t4.5 23l140 211q12 18 32 18h86q13 0 17 -10t-4 -23l-154 -210q-16 -19 -33 -19h-69zM496 -16q-144 0 -236.5 76.5t-114.5 207.5q-12 86 7 254q19 155 57 250q52 128 164 204.5t256 76.5q146 0 242 -76t114 -189q4 -20 4 -55q0 -28 -26 -31
l-89 -10q-26 -3 -26 23q0 4 -1 12t-1 12q-8 78 -71.5 132.5t-162.5 54.5t-172.5 -54.5t-103.5 -144.5q-29 -78 -43 -207q-16 -130 -8 -209q8 -91 68 -145.5t159 -54.5q98 0 173.5 52t102.5 132q5 5 5 10q0 2 2 2q6 26 32 23l84 -15q28 -4 19 -30q-1 -4 -2.5 -9t-4 -13
t-3.5 -13q-44 -119 -160.5 -192.5t-263.5 -73.5z" />
    <glyph glyph-name="Cdotaccent" unicode="&#x10a;" horiz-adv-x="1206" 
d="M768 1614q-40 0 -62 25t-18 65q5 38 34 64t69 26q36 0 57 -25.5t16 -64.5q-4 -39 -31.5 -64.5t-64.5 -25.5zM567 -18q-209 0 -322 125t-87 329l67 563q26 203 170 327t353 124q211 0 324.5 -121.5t88.5 -320.5q-3 -20 -28 -23l-91 -6q-12 -1 -19 2.5t-5 9.5l2 13
q17 145 -61 232t-226 87q-147 0 -247 -87.5t-119 -231.5l-70 -574q-17 -144 61.5 -231.5t225.5 -87.5q148 0 247.5 87t116.5 232q4 26 29 23l90 -4q25 0 25 -11l-2 -10q-25 -201 -168.5 -323.5t-354.5 -122.5z" />
    <glyph glyph-name="cdotaccent" unicode="&#x10b;" horiz-adv-x="1032" 
d="M645 1217q-40 0 -62 25t-18 65q5 38 34 64t69 26q37 0 58.5 -26t16.5 -64q-6 -40 -33 -65t-65 -25zM496 -16q-144 0 -236.5 76.5t-114.5 207.5q-12 86 7 254q19 155 57 250q52 128 164 204.5t256 76.5q146 0 242 -76t114 -189q4 -20 4 -55q0 -28 -26 -31l-89 -10
q-26 -3 -26 23q0 4 -1 12t-1 12q-8 78 -71.5 132.5t-162.5 54.5t-172.5 -54.5t-103.5 -144.5q-29 -78 -43 -207q-16 -130 -8 -209q8 -91 68 -145.5t159 -54.5q98 0 173.5 52t102.5 132q5 5 5 10q0 2 2 2q6 26 32 23l84 -15q28 -4 19 -30q-1 -4 -2.5 -9t-4 -13t-3.5 -13
q-44 -119 -160.5 -192.5t-263.5 -73.5z" />
    <glyph glyph-name="Ccaron" unicode="&#x10c;" horiz-adv-x="1206" 
d="M711 1575q-21 0 -31 16l-121 209q-7 14 -0.5 23.5t21.5 9.5h59q19 0 29 -16l98 -164q2 -5 5.5 -5t6.5 5l137 164q16 16 35 16h60q15 0 18.5 -9.5t-6.5 -23.5l-174 -209q-16 -16 -35 -16h-102zM567 -18q-209 0 -322 125t-87 329l67 563q26 203 170 327t353 124
q211 0 324.5 -121.5t88.5 -320.5q-3 -20 -28 -23l-91 -6q-12 -1 -19 2.5t-5 9.5l2 13q17 145 -61 232t-226 87q-147 0 -247 -87.5t-119 -231.5l-70 -574q-17 -144 61.5 -231.5t225.5 -87.5q148 0 247.5 87t116.5 232q4 26 29 23l90 -4q25 0 25 -11l-2 -10
q-25 -201 -168.5 -323.5t-354.5 -122.5z" />
    <glyph glyph-name="ccaron" unicode="&#x10d;" horiz-adv-x="1032" 
d="M588 1178q-18 0 -31 16l-121 209q-7 13 -0.5 23t21.5 10h59q19 0 29 -17l98 -164q3 -11 14 0l138 164q14 17 32 17h60q15 0 18.5 -10t-6.5 -23l-174 -209q-16 -16 -35 -16h-102zM496 -16q-144 0 -236.5 76.5t-114.5 207.5q-12 86 7 254q19 155 57 250q52 128 164 204.5
t256 76.5q146 0 242 -76t114 -189q4 -20 4 -55q0 -28 -26 -31l-89 -10q-26 -3 -26 23q0 4 -1 12t-1 12q-8 78 -71.5 132.5t-162.5 54.5t-172.5 -54.5t-103.5 -144.5q-29 -78 -43 -207q-16 -130 -8 -209q8 -91 68 -145.5t159 -54.5q98 0 173.5 52t102.5 132q5 5 5 10q0 2 2 2
q6 26 32 23l84 -15q28 -4 19 -30q-1 -4 -2.5 -9t-4 -13t-3.5 -13q-44 -119 -160.5 -192.5t-263.5 -73.5z" />
    <glyph glyph-name="Dcaron" unicode="&#x10e;" horiz-adv-x="1226" 
d="M715 1552q-19 0 -29 17l-123 211q-7 13 0 22.5t21 9.5h59q21 0 31 -16l96 -164q7 -10 14 0l138 164q16 16 34 16h60q14 0 17 -9t-7 -23l-174 -211q-14 -17 -33 -17h-104zM172 0q-11 0 -17 7.5t-5 19.5l169 1380q1 12 9.5 19.5t19.5 7.5h463q197 0 300.5 -107t80.5 -289
l-78 -643q-23 -183 -152.5 -289t-326.5 -106h-463zM305 137q0 -10 8 -10h344q129 0 215 77.5t103 209.5l74 604q17 133 -49 211t-197 78h-344q-9 0 -13 -11z" />
    <glyph glyph-name="dcaron" unicode="&#x10f;" horiz-adv-x="1267" 
d="M1264 1425q13 19 32 19h84q15 0 18.5 -10t-5.5 -23l-154 -211q-12 -18 -31 -18h-69q-15 0 -19.5 9t4.5 23zM840 930q3 -6 6.5 -4t5.5 8l57 473q1 12 9.5 19.5t19.5 7.5h90q26 0 23 -27l-170 -1380q-3 -27 -29 -27h-90q-11 0 -17.5 7.5t-5.5 19.5l11 77q1 6 -2.5 8
t-8.5 -3q-109 -125 -268 -125q-138 0 -223.5 73.5t-106.5 200.5q-16 84 4 260q20 167 56 254q52 131 156 206t245 75q161 0 238 -123zM733 268q44 80 64 250q20 171 -4 254q-16 70 -65 112t-126 42q-78 0 -141.5 -41t-98.5 -109q-56 -87 -75 -258q-20 -166 4 -248
q15 -74 70.5 -116.5t138.5 -42.5q156 0 233 157z" />
    <glyph glyph-name="Dcroat" unicode="&#x110;" horiz-adv-x="1357" 
d="M940 1434q197 0 300.5 -107t80.5 -289l-78 -643q-23 -183 -152.5 -289t-326.5 -106h-463q-11 0 -17 7.5t-5 19.5l81 655q0 10 -10 10h-92q-25 0 -22 27l6 53q1 12 9 19.5t19 7.5h95q10 0 10 10l74 598q1 12 9 19.5t19 7.5h463zM1104 414l74 604q17 133 -49 211t-197 78
h-344q-9 0 -13 -11l-59 -487q0 -10 8 -10h230q25 0 22 -27l-6 -53q-1 -12 -9.5 -19.5t-19.5 -7.5h-229q-10 0 -10 -10l-68 -545q0 -10 8 -10h344q129 0 215 77.5t103 209.5z" />
    <glyph glyph-name="dcroat" unicode="&#x111;" horiz-adv-x="1191" 
d="M1159 1270q26 0 23 -27l-6 -43q-3 -26 -29 -26h-115q-8 0 -12 -11l-139 -1136q-3 -27 -29 -27h-90q-11 0 -17.5 7.5t-5.5 19.5l11 77q1 6 -2.5 8t-8.5 -3q-109 -125 -268 -125q-138 0 -223.5 73.5t-106.5 200.5q-16 84 4 260q20 167 56 254q52 131 156 206t245 75
q161 0 238 -123q3 -6 6.5 -4t5.5 8l29 229q0 11 -11 11h-301q-25 0 -22 26l6 43q0 12 8.5 19.5t20.5 7.5h301q9 0 12 10l14 127q1 12 9.5 19.5t19.5 7.5h90q26 0 23 -27l-17 -127q0 -10 10 -10h115zM733 268q44 80 64 250q20 171 -4 254q-16 70 -65 112t-126 42
q-78 0 -141.5 -41t-98.5 -109q-56 -87 -75 -258q-20 -166 4 -248q15 -74 70.5 -116.5t138.5 -42.5q156 0 233 157z" />
    <glyph glyph-name="Emacron" unicode="&#x112;" horiz-adv-x="1202" 
d="M1044 1741q26 0 23 -27l-6 -51q-1 -12 -9.5 -19.5t-19.5 -7.5h-483q-26 0 -23 27l6 51q3 27 29 27h483zM1210 1333q-3 -26 -28 -26h-723q-9 0 -13 -11l-61 -501q0 -11 10 -11h504q26 0 23 -26l-9 -74q-2 -12 -10 -19.5t-20 -7.5h-504q-9 0 -12 -10l-62 -510q0 -10 8 -10
h723q26 0 23 -27l-8 -73q-1 -12 -9.5 -19.5t-19.5 -7.5h-850q-11 0 -17 7.5t-5 19.5l169 1380q1 12 9.5 19.5t19.5 7.5h850q11 0 17.5 -7.5t5.5 -19.5z" />
    <glyph glyph-name="emacron" unicode="&#x113;" horiz-adv-x="1060" 
d="M895 1337q26 0 23 -26l-7 -51q-3 -27 -28 -27h-484q-25 0 -22 27l6 51q1 12 9.5 19t19.5 7h483zM524 109q90 1 160.5 41.5t112.5 111.5q14 25 34 12l56 -32q21 -14 6 -35q-60 -103 -163 -163t-234 -60q-139 0 -226 67.5t-114 188.5q-24 101 -2 282q19 169 47 238
q50 134 162 213.5t258 79.5q172 0 259 -93t95 -260q3 -71 -14 -204q-3 -27 -29 -27h-635q-12 0 -12 -10q-12 -103 -6 -150q9 -91 73.5 -145.5t171.5 -54.5zM604 926q-98 0 -168 -52.5t-102 -140.5q-18 -49 -33 -139q0 -10 8 -10h512q10 0 10 10q7 99 5 131q-9 91 -70 146
t-162 55z" />
    <glyph glyph-name="Edotaccent" unicode="&#x116;" horiz-adv-x="1202" 
d="M786 1620q-40 0 -62 25t-17 65q5 38 33.5 64t68.5 26q37 0 58 -26t16 -64q-4 -39 -32 -64.5t-65 -25.5zM1210 1333q-3 -26 -28 -26h-723q-9 0 -13 -11l-61 -501q0 -11 10 -11h504q26 0 23 -26l-9 -74q-2 -12 -10 -19.5t-20 -7.5h-504q-9 0 -12 -10l-62 -510q0 -10 8 -10
h723q26 0 23 -27l-8 -73q-1 -12 -9.5 -19.5t-19.5 -7.5h-850q-11 0 -17 7.5t-5 19.5l169 1380q1 12 9.5 19.5t19.5 7.5h850q11 0 17.5 -7.5t5.5 -19.5z" />
    <glyph glyph-name="edotaccent" unicode="&#x117;" horiz-adv-x="1060" 
d="M639 1217q-41 0 -64 25t-18 65q5 38 33.5 64t68.5 26q38 0 59.5 -25.5t16.5 -64.5q-6 -40 -32.5 -65t-63.5 -25zM524 109q90 1 160.5 41.5t112.5 111.5q14 25 34 12l56 -32q21 -14 6 -35q-60 -103 -163 -163t-234 -60q-139 0 -226 67.5t-114 188.5q-24 101 -2 282
q19 169 47 238q50 134 162 213.5t258 79.5q172 0 259 -93t95 -260q3 -71 -14 -204q-3 -27 -29 -27h-635q-12 0 -12 -10q-12 -103 -6 -150q9 -91 73.5 -145.5t171.5 -54.5zM604 926q-98 0 -168 -52.5t-102 -140.5q-18 -49 -33 -139q0 -10 8 -10h512q10 0 10 10q7 99 5 131
q-9 91 -70 146t-162 55z" />
    <glyph glyph-name="Eogonek" unicode="&#x118;" horiz-adv-x="1202" 
d="M1210 1333q-3 -26 -28 -26h-723q-9 0 -13 -11l-61 -501q0 -11 10 -11h504q26 0 23 -26l-9 -74q-2 -12 -10 -19.5t-20 -7.5h-504q-9 0 -12 -10l-62 -510q0 -10 8 -10h723q26 0 23 -27l-8 -73q-1 -12 -9.5 -19.5t-19.5 -7.5h-367q-4 0 -12 -4q-135 -105 -127 -197
q3 -47 38 -63t87 -6q27 7 27 -21l2 -33q0 -24 -25 -30q-37 -9 -73.5 -10t-72 8.5t-59.5 38.5t-28 75q-13 120 116 230q6 4 5 8t-7 4h-354q-11 0 -17 7.5t-5 19.5l169 1380q1 12 9.5 19.5t19.5 7.5h850q11 0 17.5 -7.5t5.5 -19.5z" />
    <glyph glyph-name="eogonek" unicode="&#x119;" horiz-adv-x="1060" 
d="M524 109q90 1 160.5 41.5t112.5 111.5q14 25 34 12l56 -32q21 -14 6 -35q-52 -90 -139 -149t-195 -72q-4 0 -12 -4q-143 -106 -135 -201q3 -47 38 -63.5t87 -6.5q13 3 20 -2t6 -18l2 -33q0 -26 -22 -31q-37 -9 -73.5 -9.5t-72.5 9t-60.5 38.5t-29.5 75q-16 120 127 235
q9 9 -2 13q-112 15 -181.5 80t-94.5 172q-24 101 -2 282q19 169 47 238q50 134 162 213.5t258 79.5q172 0 259 -93t95 -260q3 -71 -14 -204q-3 -27 -29 -27h-635q-12 0 -12 -10q-12 -103 -6 -150q9 -91 73.5 -145.5t171.5 -54.5zM604 926q-98 0 -168 -52.5t-102 -140.5
q-18 -49 -33 -139q0 -10 8 -10h512q10 0 10 10q7 99 5 131q-9 91 -70 146t-162 55z" />
    <glyph glyph-name="Ecaron" unicode="&#x11a;" horiz-adv-x="1202" 
d="M866 1597q-16 -16 -35 -16h-102q-21 0 -31 16l-120 209q-7 14 -1 23.5t21 9.5h59q19 0 29 -16l98 -164q2 -5 6 -5t7 5l139 164q13 16 33 16h59q15 0 18.5 -9.5t-6.5 -23.5zM1210 1333q-3 -26 -28 -26h-723q-9 0 -13 -11l-61 -501q0 -11 10 -11h504q26 0 23 -26l-9 -74
q-2 -12 -10 -19.5t-20 -7.5h-504q-9 0 -12 -10l-62 -510q0 -10 8 -10h723q26 0 23 -27l-8 -73q-1 -12 -9.5 -19.5t-19.5 -7.5h-850q-11 0 -17 7.5t-5 19.5l169 1380q1 12 9.5 19.5t19.5 7.5h850q11 0 17.5 -7.5t5.5 -19.5z" />
    <glyph glyph-name="ecaron" unicode="&#x11b;" horiz-adv-x="1060" 
d="M715 1178q-17 -17 -35 -17h-102q-19 0 -29 17l-125 211q-6 13 0.5 22.5t21.5 9.5h60q18 0 31 -16l96 -164q7 -11 14 0l137 164q13 16 33 16h62q14 0 17 -9.5t-7 -22.5zM524 109q90 1 160.5 41.5t112.5 111.5q14 25 34 12l56 -32q21 -14 6 -35q-60 -103 -163 -163
t-234 -60q-139 0 -226 67.5t-114 188.5q-24 101 -2 282q19 169 47 238q50 134 162 213.5t258 79.5q172 0 259 -93t95 -260q3 -71 -14 -204q-3 -27 -29 -27h-635q-12 0 -12 -10q-12 -103 -6 -150q9 -91 73.5 -145.5t171.5 -54.5zM604 926q-98 0 -168 -52.5t-102 -140.5
q-18 -49 -33 -139q0 -10 8 -10h512q10 0 10 10q7 99 5 131q-9 91 -70 146t-162 55z" />
    <glyph glyph-name="Gbreve" unicode="&#x11e;" horiz-adv-x="1204" 
d="M760 1556q-84 0 -139.5 54.5t-55.5 136.5q0 12 8.5 19.5t20.5 7.5h35q22 0 22 -25q3 -49 36.5 -82t80.5 -33t88.5 33t54.5 82q6 25 29 25h39q12 0 17.5 -7.5t2.5 -19.5q-20 -82 -88 -136.5t-151 -54.5zM567 -16q-209 0 -322.5 124.5t-88.5 325.5l69 565q26 203 170 327
t353 124t321.5 -121.5t89.5 -312.5l-2 -21q-3 -26 -29 -26h-90q-25 0 -22 22l2 23q17 138 -60.5 223.5t-224.5 85.5t-247 -87.5t-119 -231.5l-70 -574q-17 -144 64 -231.5t229 -87.5q145 0 241 81.5t113 219.5l23 184q3 10 -9 10h-284q-11 0 -17.5 7.5t-5.5 19.5l11 74
q3 26 28 26h410q11 0 17 -7t5 -19l-32 -258q-27 -220 -168 -342.5t-355 -122.5z" />
    <glyph glyph-name="gbreve" unicode="&#x11f;" horiz-adv-x="1062" 
d="M651 1161q-84 0 -138 54.5t-54 136.5q0 26 26 26h35q23 0 23 -24q3 -50 36.5 -82.5t82.5 -32.5q47 0 87.5 32.5t55.5 82.5q3 24 29 24h36q12 0 18 -7t3 -19q-20 -82 -88 -136.5t-152 -54.5zM862 1010q3 26 31 26h88q26 0 23 -26l-119 -975q-16 -126 -67.5 -216.5
t-132.5 -141t-179.5 -70.5t-218.5 -13q-26 3 -23 29l15 82q3 28 28 25q209 -9 311.5 64t124.5 245l9 72q2 6 -2.5 8t-8.5 -4q-106 -121 -272 -121q-129 0 -220.5 71.5t-111.5 202.5q-11 89 8 250q20 176 58 262q51 123 154 198t233 75q172 0 252 -117q4 -6 8 -4t4 8z
M768 313q18 59 35 207q12 107 14.5 141t-0.5 66q-5 87 -61.5 143t-151.5 56q-94 0 -165 -55.5t-107 -143.5q-28 -67 -45 -205q-18 -148 -6 -207q9 -86 69.5 -142t155.5 -56q98 0 167 55.5t95 140.5z" />
    <glyph glyph-name="Gdotaccent" unicode="&#x120;" horiz-adv-x="1204" 
d="M766 1614q-40 0 -62 25t-18 65q5 38 33.5 64t68.5 26q37 0 58 -26t16 -64q-4 -39 -31.5 -64.5t-64.5 -25.5zM567 -16q-209 0 -322.5 124.5t-88.5 325.5l69 565q26 203 170 327t353 124t321.5 -121.5t89.5 -312.5l-2 -21q-3 -26 -29 -26h-90q-25 0 -22 22l2 23
q17 138 -60.5 223.5t-224.5 85.5t-247 -87.5t-119 -231.5l-70 -574q-17 -144 64 -231.5t229 -87.5q145 0 241 81.5t113 219.5l23 184q3 10 -9 10h-284q-11 0 -17.5 7.5t-5.5 19.5l11 74q3 26 28 26h410q11 0 17 -7t5 -19l-32 -258q-27 -220 -168 -342.5t-355 -122.5z" />
    <glyph glyph-name="gdotaccent" unicode="&#x121;" horiz-adv-x="1062" 
d="M657 1219q-40 0 -62 25t-17 65q5 38 33.5 64t68.5 26q37 0 58.5 -26t15.5 -64q-4 -40 -31.5 -65t-65.5 -25zM862 1010q3 26 31 26h88q26 0 23 -26l-119 -975q-16 -126 -67.5 -216.5t-132.5 -141t-179.5 -70.5t-218.5 -13q-26 3 -23 29l15 82q3 28 28 25q209 -9 311.5 64
t124.5 245l9 72q2 6 -2.5 8t-8.5 -4q-106 -121 -272 -121q-129 0 -220.5 71.5t-111.5 202.5q-11 89 8 250q20 176 58 262q51 123 154 198t233 75q172 0 252 -117q4 -6 8 -4t4 8zM768 313q18 59 35 207q12 107 14.5 141t-0.5 66q-5 87 -61.5 143t-151.5 56q-94 0 -165 -55.5
t-107 -143.5q-28 -67 -45 -205q-18 -148 -6 -207q9 -86 69.5 -142t155.5 -56q98 0 167 55.5t95 140.5z" />
    <glyph glyph-name="uni0122" unicode="&#x122;" horiz-adv-x="1204" 
d="M567 -16q-209 0 -322.5 124.5t-88.5 325.5l69 565q26 203 170 327t353 124t321.5 -121.5t89.5 -312.5l-2 -21q-3 -26 -29 -26h-90q-25 0 -22 22l2 23q17 138 -60.5 223.5t-224.5 85.5t-247 -87.5t-119 -231.5l-70 -574q-17 -144 64 -231.5t229 -87.5q145 0 241 81.5
t113 219.5l23 184q3 10 -9 10h-284q-11 0 -17.5 7.5t-5.5 19.5l11 74q3 26 28 26h410q11 0 17 -7t5 -19l-32 -258q-27 -220 -168 -342.5t-355 -122.5zM403 -395q-14 0 -17.5 9.5t5.5 23.5l139 210q10 19 31 19h86q15 0 18 -9.5t-6 -23.5l-153 -211q-15 -18 -33 -18h-70z" />
    <glyph glyph-name="uni0123" unicode="&#x123;" horiz-adv-x="1062" 
d="M801 1434q14 0 17.5 -10t-5.5 -23l-139 -211q-10 -19 -31 -19h-86q-15 0 -18 9.5t6 23.5l153 211q16 19 33 19h70zM862 1010q3 26 31 26h88q26 0 23 -26l-119 -975q-16 -126 -67.5 -216.5t-132.5 -141t-179.5 -70.5t-218.5 -13q-26 3 -23 29l15 82q3 28 28 25
q209 -9 311.5 64t124.5 245l9 72q2 6 -2.5 8t-8.5 -4q-106 -121 -272 -121q-129 0 -220.5 71.5t-111.5 202.5q-11 89 8 250q20 176 58 262q51 123 154 198t233 75q172 0 252 -117q4 -6 8 -4t4 8zM768 313q18 59 35 207q12 107 14.5 141t-0.5 66q-5 87 -61.5 143t-151.5 56
q-94 0 -165 -55.5t-107 -143.5q-28 -67 -45 -205q-18 -148 -6 -207q9 -86 69.5 -142t155.5 -56q98 0 167 55.5t95 140.5z" />
    <glyph glyph-name="Hbar" unicode="&#x126;" horiz-adv-x="1298" 
d="M1315 1145q25 0 22 -27l-6 -51q-1 -12 -9 -19.5t-19 -7.5h-86q-10 0 -13 -10l-123 -1003q-3 -27 -28 -27h-90q-11 0 -17.5 7.5t-5.5 19.5l78 620q0 10 -10 10h-629q-9 0 -12 -10l-76 -620q-3 -27 -29 -27h-90q-11 0 -17 7.5t-5 19.5l124 1003q0 10 -10 10h-84
q-25 0 -22 27l6 51q3 27 29 27h86q10 0 10 10l30 252q1 12 9.5 19.5t19.5 7.5h90q26 0 23 -27l-31 -252q0 -10 8 -10h631q10 0 10 10l31 252q1 12 9.5 19.5t19.5 7.5h90q25 0 22 -27l-30 -252q0 -10 8 -10h86zM1024 784q10 0 10 11l31 235q0 10 -10 10h-629q-9 0 -12 -10
l-29 -235q0 -11 10 -11h629z" />
    <glyph glyph-name="hbar" unicode="&#x127;" horiz-adv-x="1071" 
d="M666 1051q157 0 239 -97t62 -258l-82 -669q-3 -27 -29 -27h-90q-11 0 -17.5 7.5t-5.5 19.5l80 641q14 114 -42.5 185t-162.5 71q-101 0 -174.5 -59t-95.5 -156l-84 -682q-1 -12 -10 -19.5t-21 -7.5h-88q-25 0 -22 27l135 1106q0 10 -8 10h-109q-11 0 -17 7t-5 19l6 43
q3 27 29 27h108q10 0 10 10l21 158q3 27 29 27h88q25 0 22 -27l-18 -158q0 -10 8 -10h311q11 0 17.5 -7.5t5.5 -19.5l-6 -43q-3 -26 -29 -26h-311q-11 0 -11 -10l-24 -199q0 -7 2.5 -9t7.5 3q99 123 281 123z" />
    <glyph glyph-name="Imacron" unicode="&#x12a;" horiz-adv-x="514" 
d="M176 1636q-11 0 -17 7.5t-5 19.5l8 51q3 27 28 27h482q25 0 22 -27l-6 -51q-3 -27 -29 -27h-483zM172 0q-11 0 -17 7.5t-5 19.5l169 1380q1 12 9.5 19.5t19.5 7.5h90q26 0 23 -27l-170 -1380q-3 -27 -29 -27h-90z" />
    <glyph glyph-name="imacron" unicode="&#x12b;" horiz-adv-x="438" 
d="M86 1237q-26 0 -23 27l7 51q1 12 9 19t19 7h484q25 0 22 -26l-6 -51q-3 -27 -29 -27h-483zM133 0q-25 0 -22 27l120 983q3 26 29 26h90q26 0 23 -26l-121 -983q-1 -12 -9.5 -19.5t-19.5 -7.5h-90z" />
    <glyph glyph-name="Iogonek" unicode="&#x12e;" horiz-adv-x="651" 
d="M350 -287q27 7 27 -20l2 -33q0 -25 -23 -31q-37 -9 -73.5 -9.5t-72 9t-60 38.5t-29.5 75q-14 133 137 246q14 9 14 12h-4q-25 0 -22 27l170 1380q3 27 28 27h91q11 0 17 -7.5t5 -19.5l-172 -1387l-2 -20h-2q-164 -114 -156 -217q3 -47 38 -63.5t87 -6.5z" />
    <glyph glyph-name="iogonek" unicode="&#x12f;" horiz-adv-x="552" 
d="M410 1221q-40 0 -62 25t-18 65q5 38 33.5 64t68.5 26q37 0 58 -26t16 -64q-4 -39 -31.5 -64.5t-64.5 -25.5zM301 -287q27 7 27 -20l2 -33q0 -24 -23 -31q-38 -9 -74.5 -9.5t-72.5 9t-60 38.5t-28 75q-17 130 137 246l6 4.5t4.5 3.5t3.5 3t0 1h-4q-25 0 -22 27l120 983
q3 26 29 26h88q26 0 23 -26l-121 -990l-2 -20h-2q-164 -114 -156 -217q3 -47 38 -63.5t87 -6.5z" />
    <glyph glyph-name="Idotaccent" unicode="&#x130;" horiz-adv-x="514" 
d="M416 1620q-40 0 -63 25.5t-17 64.5q5 39 33 64.5t69 25.5q37 0 58 -26t16 -64q-4 -39 -31.5 -64.5t-64.5 -25.5zM172 0q-11 0 -17 7.5t-5 19.5l169 1380q1 12 9.5 19.5t19.5 7.5h90q26 0 23 -27l-170 -1380q-3 -27 -29 -27h-90z" />
    <glyph glyph-name="dotlessi" unicode="&#x131;" horiz-adv-x="438" 
d="M133 0q-25 0 -22 27l120 983q3 26 29 26h90q26 0 23 -26l-121 -983q-1 -12 -9.5 -19.5t-19.5 -7.5h-90z" />
    <glyph glyph-name="ij" unicode="&#x133;" horiz-adv-x="937" 
d="M354 1223q-47 0 -73.5 29.5t-20.5 76.5q6 46 40 75.5t81 29.5t73.5 -29.5t20.5 -75.5q-6 -47 -40 -76.5t-81 -29.5zM819 1219q-47 0 -73.5 30t-20.5 76t41.5 76.5t79.5 30.5q46 0 73 -30t23 -77q-6 -46 -40 -76t-83 -30zM162 0q-26 0 -23 27l119 983q3 26 31 26h88
q25 0 22 -26l-120 -983q-3 -27 -29 -27h-88zM340 -426q-26 0 -23 27l9 71q3 27 28 27q207 6 234 211l135 1100q0 12 8.5 19t20.5 7h88q25 0 22 -26l-135 -1100q-20 -173 -112 -254t-275 -82z" />
    <glyph glyph-name="uni0136" unicode="&#x136;" horiz-adv-x="1214" 
d="M172 0q-11 0 -17 7.5t-5 19.5l169 1380q1 12 9.5 19.5t19.5 7.5h90q26 0 23 -27l-84 -684q0 -16 12 -4l709 700q15 15 35 15h98q17 0 19.5 -10.5t-9.5 -22.5l-547 -559q-8 -8 -4 -15l424 -794q7 -13 1 -23t-21 -10h-103q-17 0 -30 16l-379 707q-7 10 -15 2l-211 -203
q-6 -12 -6 -14l-59 -481q-3 -27 -29 -27h-90zM434 -379q-15 0 -19 9.5t5 23.5l139 211q12 18 33 18h86q13 0 16 -9.5t-6 -23.5l-151 -210q-16 -19 -33 -19h-70z" />
    <glyph glyph-name="uni0137" unicode="&#x137;" horiz-adv-x="995" 
d="M145 0q-25 0 -22 27l170 1380q3 27 29 27h88q25 0 22 -27l-100 -827q-2 -6 2 -9.5t8 2.5l471 449q11 14 33 14h106q15 0 19 -10t-8 -22l-281 -281q-6 -6 -2 -14l213 -678q5 -14 -1.5 -22.5t-21.5 -8.5h-94q-19 0 -26 20l-181 592q0 3 -2 4t-5 0.5t-5 -2.5l-246 -233
q-6 -12 -6 -14l-41 -340q-1 -12 -10 -19.5t-21 -7.5h-88zM332 -379q-15 0 -19.5 9.5t4.5 23.5l140 211q9 18 30 18h86q15 0 18.5 -9.5t-5.5 -23.5l-154 -210q-13 -19 -31 -19h-69z" />
    <glyph glyph-name="Lacute" unicode="&#x139;" horiz-adv-x="1128" 
d="M352 1579q-14 0 -17.5 9.5t5.5 23.5l137 211q12 18 33 18h86q15 0 18 -9.5t-6 -23.5l-153 -211q-15 -18 -33 -18h-70zM172 0q-11 0 -17 7.5t-5 19.5l169 1380q1 12 9.5 19.5t19.5 7.5h90q26 0 23 -27l-156 -1270q0 -10 8 -10h695q11 0 17 -7.5t5 -19.5l-10 -73
q-3 -27 -29 -27h-819z" />
    <glyph glyph-name="lacute" unicode="&#x13a;" horiz-adv-x="460" 
d="M330 1579q-15 0 -19.5 9.5t4.5 23.5l140 211q9 18 30 18h86q15 0 18.5 -9.5t-5.5 -23.5l-154 -211q-12 -18 -31 -18h-69zM145 0q-25 0 -22 27l170 1380q3 27 29 27h88q25 0 22 -27l-168 -1380q-1 -12 -10 -19.5t-21 -7.5h-88z" />
    <glyph glyph-name="uni013B" unicode="&#x13b;" horiz-adv-x="1128" 
d="M172 0q-11 0 -17 7.5t-5 19.5l169 1380q1 12 9.5 19.5t19.5 7.5h90q26 0 23 -27l-156 -1270q0 -10 8 -10h695q11 0 17 -7.5t5 -19.5l-10 -73q-3 -27 -29 -27h-819zM369 -379q-15 0 -19.5 9.5t4.5 23.5l140 211q12 18 32 18h86q14 0 17 -9.5t-6 -23.5l-152 -210
q-16 -19 -33 -19h-69z" />
    <glyph glyph-name="uni013C" unicode="&#x13c;" horiz-adv-x="462" 
d="M145 0q-25 0 -22 27l170 1380q3 27 29 27h88q25 0 22 -27l-168 -1380q-1 -12 -10 -19.5t-21 -7.5h-88zM-31 -379q-15 0 -19 9.5t5 23.5l139 211q12 18 33 18h86q13 0 16 -9.5t-6 -23.5l-151 -210q-16 -19 -33 -19h-70z" />
    <glyph glyph-name="Lcaron" unicode="&#x13d;" horiz-adv-x="1128" 
d="M352 1542q-16 0 -30 17l-123 210q-6 13 0.5 23t21.5 10h60q17 0 30 -16l97 -164q7 -10 14 0l137 164q13 16 33 16h61q14 0 17.5 -10t-6.5 -23l-175 -210q-17 -17 -34 -17h-103zM172 0q-11 0 -17 7.5t-5 19.5l169 1380q1 12 9.5 19.5t19.5 7.5h90q26 0 23 -27l-156 -1270
q0 -10 8 -10h695q11 0 17 -7.5t5 -19.5l-10 -73q-3 -27 -29 -27h-819z" />
    <glyph glyph-name="lcaron" unicode="&#x13e;" horiz-adv-x="460" 
d="M328 1542q-19 0 -29 17l-123 210q-7 13 0 23t21 10h61q19 0 29 -16l96 -164q7 -10 14 0l138 164q16 16 34 16h60q15 0 18.5 -10t-6.5 -23l-176 -210q-14 -17 -33 -17h-104zM145 0q-25 0 -22 27l170 1380q3 27 29 27h88q25 0 22 -27l-168 -1380q-1 -12 -10 -19.5t-21 -7.5
h-88z" />
    <glyph glyph-name="Lslash" unicode="&#x141;" horiz-adv-x="1128" 
d="M305 137q0 -10 8 -10h695q11 0 17 -7.5t5 -19.5l-10 -73q-3 -27 -29 -27h-819q-11 0 -17 7.5t-5 19.5l59 471q0 6 -3.5 8t-8.5 -2l-213 -150q-21 -17 -35 4l-35 50q-12 21 12 36l295 211q8 4 8 13l90 739q1 12 9.5 19.5t19.5 7.5h90q26 0 23 -27l-76 -621q-2 -6 2 -8t8 2
l484 340q20 17 34 -4l33 -49q11 -19 -10 -37l-565 -401q-6 -3 -6 -13z" />
    <glyph glyph-name="lslash" unicode="&#x142;" horiz-adv-x="460" 
d="M610 856q9 -24 -12 -37l-248 -139q-8 -5 -8 -12l-78 -641q-1 -12 -10 -19.5t-21 -7.5h-88q-25 0 -22 27l67 546q0 6 -4 9t-8 0l-115 -66q-23 -15 -32 8l-23 54q-9 23 15 36l178 103q8 5 8 12l84 678q3 27 29 27h88q25 0 22 -27l-72 -586q0 -6 4 -7.5t9 1.5l180 103
q25 14 33 -9z" />
    <glyph glyph-name="Nacute" unicode="&#x143;" horiz-adv-x="1337" 
d="M764 1602q-14 0 -17.5 9t5.5 23l139 211q9 19 31 19h86q15 0 18 -10t-6 -23l-154 -211q-15 -18 -32 -18h-70zM172 0q-11 0 -17 7.5t-5 19.5l169 1380q1 12 9.5 19.5t19.5 7.5h90q18 0 27 -19l532 -1114q1 -4 3.5 -5t5.5 1.5t4 7.5l135 1102q3 27 29 27h90q11 0 17 -7.5
t5 -19.5l-170 -1380q-1 -12 -9.5 -19.5t-19.5 -7.5h-90q-16 0 -28 18l-531 1119q-2 4 -5 5t-5 -1.5t-2 -7.5l-135 -1106q-3 -27 -29 -27h-90z" />
    <glyph glyph-name="nacute" unicode="&#x144;" horiz-adv-x="1071" 
d="M829 1444q13 0 17 -10t-4 -23l-154 -211q-15 -18 -33 -18h-69q-15 0 -19.5 9t4.5 23l140 211q13 19 32 19h86zM666 1051q157 0 239 -97t62 -258l-82 -669q-3 -27 -29 -27h-90q-11 0 -17.5 7.5t-5.5 19.5l80 641q14 114 -42.5 185t-162.5 71q-101 0 -174.5 -59t-95.5 -156
l-84 -682q-1 -12 -10 -19.5t-21 -7.5h-88q-25 0 -22 27l121 983q3 26 28 26h90q11 0 17.5 -7t5.5 -19l-10 -76q0 -7 2.5 -9t7.5 3q99 123 281 123z" />
    <glyph glyph-name="uni0145" unicode="&#x145;" horiz-adv-x="1337" 
d="M172 0q-11 0 -17 7.5t-5 19.5l169 1380q1 12 9.5 19.5t19.5 7.5h90q18 0 27 -19l532 -1114q1 -4 3.5 -5t5.5 1.5t4 7.5l135 1102q3 27 29 27h90q11 0 17 -7.5t5 -19.5l-170 -1380q-1 -12 -9.5 -19.5t-19.5 -7.5h-90q-16 0 -28 18l-531 1119q-2 4 -5 5t-5 -1.5t-2 -7.5
l-135 -1106q-3 -27 -29 -27h-90zM487 -379q-14 0 -18.5 9.5t4.5 23.5l139 211q12 18 33 18h86q14 0 17.5 -9.5t-5.5 -23.5l-153 -210q-16 -19 -33 -19h-70z" />
    <glyph glyph-name="uni0146" unicode="&#x146;" horiz-adv-x="1071" 
d="M666 1051q157 0 239 -97t62 -258l-82 -669q-3 -27 -29 -27h-90q-11 0 -17.5 7.5t-5.5 19.5l80 641q14 114 -42.5 185t-162.5 71q-101 0 -174.5 -59t-95.5 -156l-84 -682q-1 -12 -10 -19.5t-21 -7.5h-88q-25 0 -22 27l121 983q3 26 28 26h90q11 0 17.5 -7t5.5 -19l-10 -76
q0 -7 2.5 -9t7.5 3q99 123 281 123zM350 -379q-14 0 -17.5 9.5t5.5 23.5l137 211q12 18 33 18h86q15 0 18 -9.5t-6 -23.5l-153 -210q-16 -19 -33 -19h-70z" />
    <glyph glyph-name="Ncaron" unicode="&#x147;" horiz-adv-x="1337" 
d="M766 1581q-19 0 -29 16l-123 209q-6 14 0 23.5t21 9.5h59q18 0 31 -16l96 -164q7 -11 15 0l137 164q13 16 33 16h61q14 0 17 -9.5t-7 -23.5l-174 -209q-13 -16 -33 -16h-104zM172 0q-11 0 -17 7.5t-5 19.5l169 1380q1 12 9.5 19.5t19.5 7.5h90q18 0 27 -19l532 -1114
q1 -4 3.5 -5t5.5 1.5t4 7.5l135 1102q3 27 29 27h90q11 0 17 -7.5t5 -19.5l-170 -1380q-1 -12 -9.5 -19.5t-19.5 -7.5h-90q-16 0 -28 18l-531 1119q-2 4 -5 5t-5 -1.5t-2 -7.5l-135 -1106q-3 -27 -29 -27h-90z" />
    <glyph glyph-name="ncaron" unicode="&#x148;" horiz-adv-x="1071" 
d="M725 1178q-17 -17 -35 -17h-102q-17 0 -31 17l-121 208q-7 14 -0.5 23.5t21.5 9.5h59q19 0 29 -16l98 -164q3 -11 14 0l138 164q13 16 32 16h60q15 0 18.5 -9.5t-6.5 -23.5zM666 1051q157 0 239 -97t62 -258l-82 -669q-3 -27 -29 -27h-90q-11 0 -17.5 7.5t-5.5 19.5
l80 641q14 114 -42.5 185t-162.5 71q-101 0 -174.5 -59t-95.5 -156l-84 -682q-1 -12 -10 -19.5t-21 -7.5h-88q-25 0 -22 27l121 983q3 26 28 26h90q11 0 17.5 -7t5.5 -19l-10 -76q0 -7 2.5 -9t7.5 3q99 123 281 123z" />
    <glyph glyph-name="Eng" unicode="&#x14a;" horiz-adv-x="1343" 
d="M1253 1151l2 -10h2l-139 -1127q-22 -177 -102 -256t-258 -80q-26 0 -23 27l8 72q3 26 31 26q94 1 140.5 49.5t60.5 145.5q0 8 -2 12l-535 1127q-2 4 -5 5t-5 -1.5t-2 -7.5l-135 -1106q-3 -27 -29 -27h-90q-11 0 -17 7.5t-5 19.5l169 1380q1 12 9.5 19.5t19.5 7.5h90
q18 0 27 -19l532 -1114q1 -4 3.5 -5t5.5 1.5t4 7.5l135 1102q3 27 29 27h90q11 0 17 -7.5t5 -19.5z" />
    <glyph glyph-name="eng" unicode="&#x14b;" horiz-adv-x="1073" 
d="M936 432q-3 -10 2 -10h2l-53 -438q-21 -167 -100 -249.5t-246 -88.5q-26 0 -23 26l8 68q3 26 29 29q166 12 188 211l2 14q1 3 -2 10v23l80 641q14 114 -42.5 185t-162.5 71q-101 0 -174.5 -59t-95.5 -156l-84 -682q-1 -12 -10 -19.5t-21 -7.5h-88q-25 0 -22 27l121 983
q3 26 28 26h90q11 0 17.5 -7t5.5 -19l-10 -76q0 -6 2.5 -8t7.5 4q100 121 281 121q157 0 239 -97t62 -258z" />
    <glyph glyph-name="Omacron" unicode="&#x14c;" horiz-adv-x="1234" 
d="M537 1630q-26 0 -23 27l6 51q3 27 29 27h483q11 0 17.5 -7.5t5.5 -19.5l-6 -51q-1 -12 -10 -19.5t-21 -7.5h-481zM573 -16q-213 0 -326 130t-87 345l63 516q26 214 172.5 344.5t358.5 130.5q215 0 329 -130.5t88 -344.5l-63 -516q-28 -215 -174 -345t-361 -130zM590 109
q151 0 253.5 94.5t121.5 249.5l65 524q19 156 -61 251t-230 95q-149 0 -252 -95.5t-122 -250.5l-66 -524q-19 -155 61.5 -249.5t229.5 -94.5z" />
    <glyph glyph-name="omacron" unicode="&#x14d;" horiz-adv-x="1085" 
d="M412 1233q-26 0 -23 27l6 51q3 26 29 26h483q26 0 23 -26l-6 -51q-1 -12 -9.5 -19.5t-19.5 -7.5h-483zM502 -16q-145 0 -238.5 75.5t-116.5 208.5q-14 96 5 252q18 153 55 250q56 132 168 207.5t258 75.5q144 0 237 -75.5t115 -205.5q15 -103 -4 -252q-19 -157 -57 -252
q-56 -132 -168 -208t-254 -76zM518 111q95 0 169.5 53.5t109.5 146.5q24 64 41 207q19 141 10 207q-11 92 -73 146.5t-161 54.5q-95 0 -168.5 -54.5t-109.5 -146.5q-24 -60 -41 -207q-19 -139 -10 -207q11 -93 72.5 -146.5t160.5 -53.5z" />
    <glyph glyph-name="Ohungarumlaut" unicode="&#x150;" horiz-adv-x="1234" 
d="M571 1591q-31 0 -14 31l131 213q12 18 35 18h76q15 0 19 -9.5t-5 -22.5l-139 -211q-10 -19 -31 -19h-72zM897 1591q-15 0 -20 8.5t4 22.5l137 213q12 18 33 18h73q14 0 18 -9.5t-5 -22.5l-142 -211q-9 -19 -30 -19h-68zM573 -16q-213 0 -326 130t-87 345l63 516
q26 214 172.5 344.5t358.5 130.5q215 0 329 -130.5t88 -344.5l-63 -516q-28 -215 -174 -345t-361 -130zM590 109q151 0 253.5 94.5t121.5 249.5l65 524q19 156 -61 251t-230 95q-149 0 -252 -95.5t-122 -250.5l-66 -524q-19 -155 61.5 -249.5t229.5 -94.5z" />
    <glyph glyph-name="ohungarumlaut" unicode="&#x151;" horiz-adv-x="1085" 
d="M446 1194q-31 0 -14 31l131 213q12 18 35 18h78q14 0 18.5 -10t-4.5 -23l-139 -211q-12 -18 -33 -18h-72zM772 1194q-15 0 -20 9t4 22l137 213q12 18 33 18h73q15 0 19.5 -10t-4.5 -23l-142 -211q-12 -18 -32 -18h-68zM502 -16q-145 0 -238.5 75.5t-116.5 208.5
q-14 96 5 252q18 153 55 250q56 132 168 207.5t258 75.5q144 0 237 -75.5t115 -205.5q15 -103 -4 -252q-19 -157 -57 -252q-56 -132 -168 -208t-254 -76zM518 111q95 0 169.5 53.5t109.5 146.5q24 64 41 207q19 141 10 207q-11 92 -73 146.5t-161 54.5q-95 0 -168.5 -54.5
t-109.5 -146.5q-24 -60 -41 -207q-19 -139 -10 -207q11 -93 72.5 -146.5t160.5 -53.5z" />
    <glyph glyph-name="OE" unicode="&#x152;" horiz-adv-x="1826" 
d="M1837 1333q-3 -26 -31 -26h-641q-10 0 -10 -11l-61 -501q-1 -4 1 -7.5t7 -3.5h422q25 0 22 -26l-8 -74q-3 -27 -29 -27h-424q-10 0 -10 -10l-63 -510q0 -10 8 -10h643q26 0 23 -27l-11 -73q-3 -27 -28 -27h-766q-26 0 -23 27l10 90q2 6 -2 8t-10 -4q-67 -65 -155 -101
t-185 -36q-180 0 -281.5 124.5t-78.5 319.5l71 576q23 195 156 320.5t313 125.5q196 0 308 -137q3 -6 7.5 -4t4.5 8l10 90q1 12 10 19.5t21 7.5h766q25 0 22 -27zM561 109q136 0 232.5 89t113.5 226l70 582q17 138 -56 227.5t-210 89.5q-135 0 -230 -89.5t-112 -227.5
l-72 -582q-17 -137 56 -226t208 -89z" />
    <glyph glyph-name="oe" unicode="&#x153;" horiz-adv-x="1703" 
d="M1182 109q78 0 148.5 40t111.5 107q13 26 35 12l51 -35q19 -13 6 -36q-61 -99 -161 -156t-222 -57q-109 0 -187.5 47t-121.5 129q-3 10 -13 0q-63 -80 -154.5 -128t-193.5 -48q-139 0 -229.5 77t-112.5 205q-8 72 13 254q19 173 51 252q50 127 160.5 204t248.5 77
q101 0 181.5 -47.5t124.5 -128.5q6 -8 14 0q62 81 151.5 128.5t190.5 47.5q142 0 235 -78.5t111 -204.5q9 -83 -12 -266q-1 -13 -9.5 -21t-19.5 -8h-621q-9 0 -12 -10q-13 -115 -6 -154q8 -94 70.5 -148t171.5 -54zM766 311q21 66 37 209q19 156 12 205q-6 91 -65 146
t-154 55q-93 0 -164.5 -55.5t-101.5 -145.5q-20 -54 -37 -205q-18 -148 -12 -209q8 -91 64.5 -145.5t150.5 -54.5q95 0 167.5 55t102.5 145zM1257 926q-95 0 -166.5 -55.5t-99.5 -145.5q-15 -37 -28 -137q-3 -10 8 -10h493q11 0 11 10q8 111 6 137q-8 90 -68 145.5
t-156 55.5z" />
    <glyph glyph-name="Racute" unicode="&#x154;" horiz-adv-x="1216" 
d="M932 1841q13 0 16.5 -9.5t-4.5 -23.5l-153 -211q-15 -18 -33 -18h-70q-15 0 -19 9.5t5 23.5l139 211q12 18 33 18h86zM963 0q-22 0 -29 20l-213 631q0 8 -10 8h-332q-10 0 -10 -10l-78 -622q-3 -27 -29 -27h-90q-11 0 -17 7.5t-5 19.5l169 1382q1 12 9.5 19.5t19.5 7.5
h510q171 0 263 -109t69 -285q-17 -145 -103.5 -243t-220.5 -129q-10 -2 -6 -13l219 -626q7 -31 -24 -31h-92zM459 1309q-9 0 -13 -11l-61 -512q-3 -10 8 -10h367q116 0 197 73t94 191q15 120 -47.5 194.5t-178.5 74.5h-366z" />
    <glyph glyph-name="racute" unicode="&#x155;" horiz-adv-x="722" 
d="M723 1458q15 0 18 -10t-6 -23l-153 -211q-12 -18 -31 -18h-70q-15 0 -19 10t5 23l139 211q9 18 31 18h86zM653 1047q62 0 107 -25q17 -8 10 -33l-33 -90q-6 -26 -32 -16q-37 13 -97 10q-104 -3 -180.5 -78t-89.5 -190l-74 -598q-1 -12 -10 -19.5t-21 -7.5h-88
q-25 0 -22 27l121 983q3 26 28 26h90q11 0 17.5 -7t5.5 -19l-14 -115q-1 -7 2 -8.5t8 4.5q105 156 272 156z" />
    <glyph glyph-name="uni0156" unicode="&#x156;" horiz-adv-x="1216" 
d="M866 670q-10 -2 -6 -13l219 -626q7 -31 -24 -31h-92q-22 0 -29 20l-213 631q0 8 -10 8h-332q-10 0 -10 -10l-78 -622q-3 -27 -29 -27h-90q-11 0 -17 7.5t-5 19.5l169 1382q1 12 9.5 19.5t19.5 7.5h510q171 0 263 -109t69 -285q-17 -145 -103.5 -243t-220.5 -129z
M459 1309q-9 0 -13 -11l-61 -512q-3 -10 8 -10h367q116 0 197 73t94 191q15 120 -47.5 194.5t-178.5 74.5h-366zM418 -379q-14 0 -18 9.5t3 23.5l140 211q12 18 32 18h87q15 0 18 -9.5t-6 -23.5l-154 -210q-16 -19 -33 -19h-69z" />
    <glyph glyph-name="uni0157" unicode="&#x157;" horiz-adv-x="729" 
d="M653 1047q62 0 107 -25q17 -8 10 -33l-33 -90q-6 -26 -32 -16q-37 13 -97 10q-104 -3 -180.5 -78t-89.5 -190l-74 -598q-1 -12 -10 -19.5t-21 -7.5h-88q-25 0 -22 27l121 983q3 26 28 26h90q11 0 17.5 -7t5.5 -19l-14 -115q-1 -7 2 -8.5t8 4.5q105 156 272 156zM-35 -379
q-15 0 -19 9.5t5 23.5l139 211q12 18 33 18h86q13 0 16 -9.5t-6 -23.5l-151 -210q-16 -19 -33 -19h-70z" />
    <glyph glyph-name="Rcaron" unicode="&#x158;" horiz-adv-x="1216" 
d="M827 1575q-16 -16 -34 -16h-103q-18 0 -31 16l-120 209q-7 14 -1 23.5t21 9.5h59q19 0 29 -17l98 -164q4 -11 15 0l137 164q14 17 33 17h59q15 0 18.5 -9.5t-6.5 -23.5zM963 0q-22 0 -29 20l-213 631q0 8 -10 8h-332q-10 0 -10 -10l-78 -622q-3 -27 -29 -27h-90
q-11 0 -17 7.5t-5 19.5l169 1382q1 12 9.5 19.5t19.5 7.5h510q171 0 263 -109t69 -285q-17 -145 -103.5 -243t-220.5 -129q-10 -2 -6 -13l219 -626q7 -31 -24 -31h-92zM459 1309q-9 0 -13 -11l-61 -512q-3 -10 8 -10h367q116 0 197 73t94 191q15 120 -47.5 194.5
t-178.5 74.5h-366z" />
    <glyph glyph-name="rcaron" unicode="&#x159;" horiz-adv-x="722" 
d="M618 1192q-13 -16 -32 -16h-105q-18 0 -28 16l-121 209q-7 13 -1.5 23t19.5 10h60q20 0 30 -17l97 -164q7 -11 14 0l137 164q17 17 35 17h59q14 0 18.5 -10t-5.5 -23zM653 1047q62 0 107 -25q17 -8 10 -33l-33 -90q-6 -26 -32 -16q-37 13 -97 10q-104 -3 -180.5 -78
t-89.5 -190l-74 -598q-1 -12 -10 -19.5t-21 -7.5h-88q-25 0 -22 27l121 983q3 26 28 26h90q11 0 17.5 -7t5.5 -19l-14 -115q-1 -7 2 -8.5t8 4.5q105 156 272 156z" />
    <glyph glyph-name="Sacute" unicode="&#x15a;" horiz-adv-x="1163" 
d="M670 1595q-14 0 -18 9.5t5 23.5l140 211q9 19 30 19h86q15 0 18.5 -10t-5.5 -23l-154 -211q-16 -19 -33 -19h-69zM551 -16q-220 0 -337 104.5t-95 278.5l6 57q1 12 10 19.5t21 7.5h84q25 0 22 -27l-6 -49q-14 -118 71.5 -191t247.5 -73q152 0 240.5 66t102.5 177
q7 54 -7.5 95.5t-58.5 80t-102.5 71t-157.5 77.5q-86 37 -130 58t-102.5 59.5t-84 75t-41 92t-7.5 124.5q22 172 150 267.5t332 95.5q218 0 332 -106.5t92 -282.5l-5 -39q-3 -27 -28 -27h-88q-26 0 -23 27l4 31q14 120 -66.5 195t-242.5 75q-140 0 -222 -59.5t-95 -171.5
q-4 -38 0.5 -68.5t23.5 -57t39.5 -45.5t65 -42.5t81.5 -40t105 -45.5q101 -45 162.5 -79.5t121 -86t81.5 -117.5t12 -150q-21 -170 -155.5 -273t-352.5 -103z" />
    <glyph glyph-name="sacute" unicode="&#x15b;" horiz-adv-x="958" 
d="M530 1192q-15 0 -19 10t5 23l139 211q9 18 31 18h86q15 0 18 -10t-6 -23l-153 -211q-12 -18 -31 -18h-70zM449 -10q-168 0 -263.5 78.5t-81.5 193.5l2 19q3 26 29 26h86q11 0 17.5 -5.5t5.5 -12.5l-2 -19q-8 -67 53.5 -117.5t163.5 -50.5q103 0 173 48.5t79 121.5
q5 38 -7.5 66t-49 49t-63 32t-86.5 30l-18 6q-44 14 -71.5 23t-67 25.5t-64 32t-51 38.5t-40.5 49t-21 61t-2 76q17 131 127 209t272 78q165 0 257.5 -80t78.5 -203q-1 -12 -10 -19.5t-21 -7.5h-79q-12 0 -19.5 4.5t-5.5 10.5l2 12q8 70 -51 117t-168 47q-101 0 -168 -42.5
t-76 -115.5q-4 -37 9.5 -64.5t49 -49t68.5 -34.5t92 -32q151 -45 212 -81q132 -79 114 -226q-17 -132 -127.5 -212.5t-277.5 -80.5z" />
    <glyph glyph-name="Scedilla" unicode="&#x15e;" horiz-adv-x="1163" 
d="M1059 360q-19 -159 -137.5 -260t-311.5 -114q-7 -1 -9 -6t3 -9q106 -109 62 -229q-16 -46 -47.5 -75t-70 -38.5t-75 -9t-70.5 9.5q-22 6 -16 31l10 33q6 27 33 20q48 -10 87.5 6.5t53.5 63.5q31 90 -82 199q-4 4 -12 4q-186 19 -282 121t-76 260l6 57q1 12 10 19.5
t21 7.5h84q25 0 22 -27l-6 -49q-14 -118 71.5 -191t247.5 -73q152 0 240.5 66t102.5 177q7 54 -7.5 95.5t-58.5 80t-102.5 71t-157.5 77.5q-86 37 -130 58t-102.5 59.5t-84 75t-41 92t-7.5 124.5q22 172 150 267.5t332 95.5q218 0 332 -106.5t92 -282.5l-5 -39
q-3 -27 -28 -27h-88q-26 0 -23 27l4 31q14 120 -66.5 195t-242.5 75q-140 0 -222 -59.5t-95 -171.5q-4 -38 0.5 -68.5t23.5 -57t39.5 -45.5t65 -42.5t81.5 -40t105 -45.5q101 -45 162.5 -79.5t121 -86t81.5 -117.5t12 -150z" />
    <glyph glyph-name="scedilla" unicode="&#x15f;" horiz-adv-x="958" 
d="M854 283q-15 -118 -106 -196t-232 -93q-12 -3 -6 -12q109 -112 65 -234q-16 -46 -47.5 -75t-69.5 -38.5t-74.5 -9t-70.5 9.5q-22 6 -16 31l10 33q6 27 33 20q48 -10 87.5 6.5t53.5 63.5q28 96 -82 199q-8 4 -12 4q-142 15 -218.5 90.5t-64.5 179.5l2 19q3 26 29 26h86
q11 0 17.5 -5.5t5.5 -12.5l-2 -19q-8 -67 53.5 -117.5t163.5 -50.5q103 0 173 48.5t79 121.5q5 38 -7.5 66t-49 49t-63 32t-86.5 30l-18 6q-44 14 -71.5 23t-67 25.5t-64 32t-51 38.5t-40.5 49t-21 61t-2 76q17 131 127 209t272 78q165 0 257.5 -80t78.5 -203
q-1 -12 -10 -19.5t-21 -7.5h-79q-12 0 -19.5 4.5t-5.5 10.5l2 12q8 70 -51 117t-168 47q-101 0 -168 -42.5t-76 -115.5q-4 -37 9.5 -64.5t49 -49t68.5 -34.5t92 -32q151 -45 212 -81q132 -79 114 -226z" />
    <glyph glyph-name="Scaron" unicode="&#x160;" horiz-adv-x="1163" 
d="M672 1575q-19 0 -29 16l-123 209q-6 14 0 23.5t21 9.5h59q18 0 31 -16l96 -164q7 -11 14 0l138 164q16 16 34 16h60q14 0 17 -9.5t-7 -23.5l-174 -209q-13 -16 -33 -16h-104zM551 -16q-220 0 -337 104.5t-95 278.5l6 57q1 12 10 19.5t21 7.5h84q25 0 22 -27l-6 -49
q-14 -118 71.5 -191t247.5 -73q152 0 240.5 66t102.5 177q7 54 -7.5 95.5t-58.5 80t-102.5 71t-157.5 77.5q-86 37 -130 58t-102.5 59.5t-84 75t-41 92t-7.5 124.5q22 172 150 267.5t332 95.5q218 0 332 -106.5t92 -282.5l-5 -39q-3 -27 -28 -27h-88q-26 0 -23 27l4 31
q14 120 -66.5 195t-242.5 75q-140 0 -222 -59.5t-95 -171.5q-4 -38 0.5 -68.5t23.5 -57t39.5 -45.5t65 -42.5t81.5 -40t105 -45.5q101 -45 162.5 -79.5t121 -86t81.5 -117.5t12 -150q-21 -170 -155.5 -273t-352.5 -103z" />
    <glyph glyph-name="scaron" unicode="&#x161;" horiz-adv-x="958" 
d="M530 1171q-18 0 -28 17l-121 209q-7 13 -1.5 23t19.5 10h60q20 0 30 -17l97 -164q7 -11 14 0l137 164q17 17 35 17h59q15 0 19 -10t-6 -23l-176 -209q-14 -17 -33 -17h-105zM449 -10q-168 0 -263.5 78.5t-81.5 193.5l2 19q3 26 29 26h86q11 0 17.5 -5.5t5.5 -12.5l-2 -19
q-8 -67 53.5 -117.5t163.5 -50.5q103 0 173 48.5t79 121.5q5 38 -7.5 66t-49 49t-63 32t-86.5 30l-18 6q-44 14 -71.5 23t-67 25.5t-64 32t-51 38.5t-40.5 49t-21 61t-2 76q17 131 127 209t272 78q165 0 257.5 -80t78.5 -203q-1 -12 -10 -19.5t-21 -7.5h-79q-12 0 -19.5 4.5
t-5.5 10.5l2 12q8 70 -51 117t-168 47q-101 0 -168 -42.5t-76 -115.5q-4 -37 9.5 -64.5t49 -49t68.5 -34.5t92 -32q151 -45 212 -81q132 -79 114 -226q-17 -132 -127.5 -212.5t-277.5 -80.5z" />
    <glyph glyph-name="uni0162" unicode="&#x162;" horiz-adv-x="1130" 
d="M758 1305q-10 0 -10 -11l-156 -1267q-3 -27 -10 -27q-4 0 8 -12q104 -110 59 -230q-16 -46 -47.5 -75t-69.5 -38.5t-74.5 -8.5t-70.5 10q-22 6 -16 30l10 33q3 13 12.5 18.5t20.5 2.5q49 -10 88 6.5t53 62.5q30 89 -78 197q-8 4 -12 4q-17 7 -14 27l155 1267q0 11 -8 11
h-367q-25 0 -22 26l10 76q3 27 29 27h907q26 0 23 -27l-9 -76q-3 -26 -30 -26h-381z" />
    <glyph glyph-name="uni0163" unicode="&#x163;" horiz-adv-x="722" 
d="M567 31q-3 -26 -28 -29h-68q-69 0 -117.5 11t-85.5 38.5t-51 80t-4 130.5l80 643q0 10 -10 10h-113q-26 0 -23 27l9 68q3 26 28 26h115q3 0 6.5 3.5t3.5 7.5l29 229q3 27 29 27h86q11 0 17 -7.5t5 -19.5l-29 -229q0 -11 9 -11h217q25 0 22 -26l-8 -68q-1 -12 -9.5 -19.5
t-19.5 -7.5h-217q-9 0 -12 -10l-72 -598q-12 -97 25 -137.5t129 -40.5h45q11 0 17.5 -7.5t5.5 -19.5zM434 -27q19 0 31 -12q127 -115 78 -246q-16 -46 -47.5 -75t-69.5 -38.5t-74.5 -8.5t-70.5 10q-23 7 -17 30l10 33q6 28 33 21q49 -10 88.5 6.5t53.5 62.5q28 89 -68 185
q-12 13 -7.5 22.5t21.5 9.5h39z" />
    <glyph glyph-name="Tcaron" unicode="&#x164;" horiz-adv-x="1130" 
d="M791 1559q-14 -17 -33 -17h-105q-18 0 -28 17l-123 210q-7 13 -0.5 23t20.5 10h62q18 0 28 -16l99 -164q1 -4 5 -4t7 4l137 164q16 16 35 16h59q15 0 19 -10t-6 -23zM1155 1434q26 0 23 -27l-9 -76q-3 -26 -30 -26h-381q-10 0 -10 -11l-156 -1267q-1 -12 -9.5 -19.5
t-19.5 -7.5h-90q-25 0 -22 27l155 1267q0 11 -8 11h-367q-25 0 -22 26l10 76q3 27 29 27h907z" />
    <glyph glyph-name="tcaron" unicode="&#x165;" horiz-adv-x="722" 
d="M508 1425q-13 -16 -33 -16h-104q-19 0 -29 16l-123 211q-7 13 0.5 23t22.5 10h59q19 0 29 -16l98 -164q2 -5 5.5 -5t6.5 5l138 164q16 16 34 16h60q15 0 18.5 -9.5t-6.5 -23.5zM686 942q-1 -12 -9.5 -19.5t-19.5 -7.5h-217q-9 0 -12 -10l-72 -598q-12 -97 25 -137.5
t129 -40.5h45q11 0 17.5 -7.5t5.5 -19.5l-11 -71q-3 -26 -28 -29h-68q-69 0 -117.5 11t-85.5 38.5t-51 80t-4 130.5l80 643q0 10 -10 10h-113q-26 0 -23 27l9 68q3 26 28 26h115q3 0 6.5 3.5t3.5 7.5l29 229q3 27 29 27h86q11 0 17 -7.5t5 -19.5l-29 -229q0 -11 9 -11h217
q25 0 22 -26z" />
    <glyph glyph-name="Tbar" unicode="&#x166;" horiz-adv-x="1191" 
d="M1169 1331q-3 -26 -30 -26h-381q-10 0 -10 -11l-54 -426q0 -10 8 -10h211q26 0 23 -27l-4 -43q-3 -26 -31 -26h-209q-9 0 -12 -10l-88 -725q-1 -12 -9.5 -19.5t-19.5 -7.5h-90q-25 0 -22 27l88 725q3 10 -9 10h-206q-26 0 -23 26l6 43q3 27 29 27h207q10 0 10 10l53 426
q0 11 -8 11h-367q-25 0 -22 26l10 76q3 27 29 27h907q26 0 23 -27z" />
    <glyph glyph-name="tbar" unicode="&#x167;" horiz-adv-x="1191" 
d="M686 942q-1 -12 -9.5 -19.5t-19.5 -7.5h-217q-9 0 -12 -10l-20 -182q-3 -10 8 -10h209q11 0 17 -7.5t5 -19.5l-6 -43q-3 -27 -29 -27h-209q-10 0 -10 -10l-37 -299q-12 -97 25 -137.5t129 -40.5h45q11 0 17.5 -7.5t5.5 -19.5l-11 -71q-3 -26 -28 -29h-68q-69 0 -117.5 11
t-85.5 38.5t-51 80t-4 130.5l43 344q0 10 -10 10h-101q-25 0 -22 27l4 43q1 12 10 19.5t21 7.5h100q9 0 12 10l23 182q0 10 -10 10h-113q-26 0 -23 27l9 68q3 26 28 26h115q3 0 6.5 3.5t3.5 7.5l29 229q3 27 29 27h86q11 0 17 -7.5t5 -19.5l-29 -229q0 -11 9 -11h217
q25 0 22 -26z" />
    <glyph glyph-name="Umacron" unicode="&#x16a;" horiz-adv-x="1288" 
d="M565 1638q-25 0 -22 27l6 51q3 27 29 27h483q11 0 17 -7.5t5 -19.5l-6 -51q-2 -12 -10 -19.5t-20 -7.5h-482zM602 -16q-213 0 -327.5 125.5t-88.5 332.5l117 965q1 12 10 19.5t21 7.5h88q25 0 22 -27l-118 -969q-17 -147 63 -237t229 -90t250.5 90t120.5 237l119 969
q1 12 9.5 19.5t19.5 7.5h90q25 0 22 -27l-119 -965q-25 -207 -169.5 -332.5t-358.5 -125.5z" />
    <glyph glyph-name="umacron" unicode="&#x16b;" horiz-adv-x="1064" 
d="M893 1321q25 0 22 -27l-6 -51q-3 -26 -28 -26h-484q-25 0 -22 26l6 51q1 12 9.5 19.5t19.5 7.5h483zM852 1010q3 26 29 26h88q25 0 22 -26l-121 -983q0 -12 -8 -19.5t-20 -7.5h-88q-26 0 -23 27l8 77q2 6 -2 8.5t-8 -3.5q-104 -123 -278 -123q-148 0 -237.5 90t-70.5 248
l84 686q3 26 29 26h90q26 0 23 -26l-80 -643q-14 -116 41.5 -185t163.5 -69q113 0 188.5 69.5t89.5 184.5z" />
    <glyph glyph-name="Uring" unicode="&#x16e;" horiz-adv-x="1288" 
d="M799 1587q-88 0 -140.5 61t-42.5 150q11 88 78.5 148.5t155.5 60.5q86 0 139 -60.5t43 -148.5q-12 -89 -79.5 -150t-153.5 -61zM809 1667q53 0 94.5 37.5t48.5 93.5q6 55 -26.5 93t-83.5 38q-54 0 -97 -38t-49 -93q-7 -56 25.5 -93.5t87.5 -37.5zM602 -16
q-213 0 -327.5 125.5t-88.5 332.5l117 965q1 12 10 19.5t21 7.5h88q25 0 22 -27l-118 -969q-17 -147 63 -237t229 -90t250.5 90t120.5 237l119 969q1 12 9.5 19.5t19.5 7.5h90q25 0 22 -27l-119 -965q-25 -207 -169.5 -332.5t-358.5 -125.5z" />
    <glyph glyph-name="uring" unicode="&#x16f;" horiz-adv-x="1064" 
d="M631 1165q-88 0 -140.5 61t-41.5 150q11 88 78.5 148.5t156.5 60.5q86 0 138.5 -60.5t41.5 -148.5q-10 -89 -77.5 -150t-155.5 -61zM674 1507q-54 0 -96.5 -38t-49.5 -93q-6 -57 26.5 -94t86.5 -37q53 0 95 37.5t48 93.5q7 55 -25 93t-85 38zM852 1010q3 26 29 26h88
q25 0 22 -26l-121 -983q0 -12 -8 -19.5t-20 -7.5h-88q-26 0 -23 27l8 77q2 6 -2 8.5t-8 -3.5q-104 -123 -278 -123q-148 0 -237.5 90t-70.5 248l84 686q3 26 29 26h90q26 0 23 -26l-80 -643q-14 -116 41.5 -185t163.5 -69q113 0 188.5 69.5t89.5 184.5z" />
    <glyph glyph-name="Uhungarumlaut" unicode="&#x170;" horiz-adv-x="1288" 
d="M600 1599q-31 0 -14 31l131 213q13 19 35 19h77q14 0 18 -10t-5 -23l-140 -211q-10 -19 -30 -19h-72zM926 1599q-15 0 -20.5 8.5t3.5 22.5l138 213q13 19 32 19h74q14 0 17.5 -10t-5.5 -23l-139 -211q-13 -19 -33 -19h-67zM602 -16q-213 0 -327.5 125.5t-88.5 332.5
l117 965q1 12 10 19.5t21 7.5h88q25 0 22 -27l-118 -969q-17 -147 63 -237t229 -90t250.5 90t120.5 237l119 969q1 12 9.5 19.5t19.5 7.5h90q25 0 22 -27l-119 -965q-25 -207 -169.5 -332.5t-358.5 -125.5z" />
    <glyph glyph-name="uhungarumlaut" unicode="&#x171;" horiz-adv-x="1064" 
d="M662 1440q15 0 19 -10t-5 -23l-139 -211q-12 -18 -33 -18h-72q-14 0 -17.5 8t3.5 22l133 213q9 19 33 19h78zM985 1440q15 0 19 -10t-5 -23l-141 -211q-12 -18 -33 -18h-67q-14 0 -19 8t2 22l140 213q9 19 30 19h74zM852 1010q3 26 29 26h88q25 0 22 -26l-121 -983
q0 -12 -8 -19.5t-20 -7.5h-88q-26 0 -23 27l8 77q2 6 -2 8.5t-8 -3.5q-104 -123 -278 -123q-148 0 -237.5 90t-70.5 248l84 686q3 26 29 26h90q26 0 23 -26l-80 -643q-14 -116 41.5 -185t163.5 -69q113 0 188.5 69.5t89.5 184.5z" />
    <glyph glyph-name="Uogonek" unicode="&#x172;" horiz-adv-x="1288" 
d="M1108 1407q1 12 9.5 19.5t19.5 7.5h90q25 0 22 -27l-119 -965q-23 -195 -155 -318.5t-328 -137.5q-8 0 -12 -4q-117 -101 -109 -183q3 -46 38 -62.5t85 -6.5q12 3 20.5 -2.5t8.5 -18.5l2 -33q0 -24 -25 -30q-37 -9 -73.5 -10t-72 8.5t-59.5 38.5t-28 75q-16 110 102 219
q10 10 -2 13q-176 23 -267.5 145t-68.5 307l117 965q1 12 10 19.5t21 7.5h88q25 0 22 -27l-118 -969q-17 -147 63 -237t229 -90t250.5 90t120.5 237z" />
    <glyph glyph-name="uogonek" unicode="&#x173;" horiz-adv-x="1071" 
d="M844 -287q26 7 26 -20l2 -33q0 -25 -24 -31q-37 -9 -73.5 -9.5t-72 9t-60 38.5t-28.5 75q-17 130 138 246q12 10 10 12h-8q-26 0 -23 27l8 77q2 6 -2 8.5t-8 -3.5q-104 -123 -278 -123q-148 0 -237.5 90t-70.5 248l84 686q3 26 29 26h90q26 0 23 -26l-80 -643
q-14 -116 41.5 -185t163.5 -69q113 0 188.5 69.5t89.5 184.5l80 643q3 26 29 26h88q25 0 22 -26l-123 -1004q0 -8 -4 -12q-4 -2 -33 -27q-120 -97 -112 -184q3 -47 38 -63.5t87 -6.5z" />
    <glyph glyph-name="Wcircumflex" unicode="&#x174;" horiz-adv-x="1732" 
d="M797 1565q-17 0 -20.5 10t7.5 22l181 209q14 17 34 17h93q22 0 30 -17l131 -209q8 -12 2.5 -22t-22.5 -10h-64q-18 0 -28 16l-97 164q-4 11 -14 0l-137 -164q-13 -16 -33 -16h-63zM418 0q-24 0 -27 23l-207 1380q-1 13 6 22t19 9h98q22 0 25 -23l162 -1110q2 -6 6 -6t6 6
l414 1110q10 23 32 23h97q21 0 24 -23l154 -1112q0 -6 4.5 -6t7.5 6l434 1112q9 23 31 23h90q28 0 18 -31l-540 -1380q-9 -23 -31 -23h-94q-22 0 -29 23l-145 1138q0 6 -4.5 6t-7.5 -6l-422 -1138q-10 -23 -33 -23h-88z" />
    <glyph glyph-name="wcircumflex" unicode="&#x175;" horiz-adv-x="1431" 
d="M590 1167q-15 0 -18 10.5t6 22.5l182 209q11 16 33 16h94q20 0 28 -16l132 -209q8 -12 2 -22.5t-21 -10.5h-63q-21 0 -31 17l-94 164q-8 11 -15 0l-137 -164q-17 -17 -35 -17h-63zM332 0q-22 0 -25 23l-157 983q-3 13 4.5 21.5t19.5 8.5h94q22 0 25 -22l108 -799
q1 -6 6 -6t7 6l311 799q8 22 31 22h86q23 0 26 -22l117 -799q1 -6 6 -6t6 6l312 799q8 22 32 22l91 -2q14 0 19 -8t-1 -22l-401 -981q-9 -23 -31 -23h-98q-22 0 -25 23l-123 755q0 6 -4 6t-6 -6l-301 -755q-9 -23 -31 -23h-98z" />
    <glyph glyph-name="Ycircumflex" unicode="&#x176;" horiz-adv-x="1126" 
d="M494 1563q-16 0 -19.5 10t6.5 22l183 209q11 17 32 17h95q19 0 28 -17l131 -209q8 -12 2.5 -22t-20.5 -10h-66q-18 0 -28 16l-95 164q-7 11 -14 0l-137 -164q-16 -16 -35 -16h-63zM479 2q-25 0 -22 27l73 600q0 2 -1 6t-1 6l-315 760q-5 14 1.5 23.5t21.5 9.5h96
q20 0 26 -19l256 -618q5 -8 13 0l409 618q10 19 31 19h96q15 0 19.5 -10t-4.5 -23l-502 -760q-4 -8 -4 -12l-74 -600q-1 -12 -9.5 -19.5t-19.5 -7.5h-90z" />
    <glyph glyph-name="ycircumflex" unicode="&#x177;" horiz-adv-x="915" 
d="M342 1176q-17 0 -20 10t8 22l180 209q14 17 33 17h94q20 0 31 -17l131 -209q7 -12 1 -22t-22 -10h-63q-18 0 -31 16l-94 164q-8 11 -15 0l-137 -164q-13 -16 -32 -16h-64zM23 -410q-14 0 -11 27l8 72q1 12 7 19t12 7h14q111 0 165.5 52.5t127.5 226.5q4 4 2 12l-211 1000
q-3 13 5 21.5t22 8.5h92q24 0 27 -22l157 -803q1 -5 3.5 -7t5.5 0t4 7l350 803q5 22 28 22h97q14 0 19 -8t-1 -22l-500 -1096q-49 -104 -85 -161.5t-83 -96t-101 -50.5t-140 -12h-14z" />
    <glyph glyph-name="Ydieresis" unicode="&#x178;" horiz-adv-x="1126" 
d="M555 1624q-41 0 -64.5 26.5t-19.5 67.5q5 41 35.5 69t71.5 28t63 -27.5t16 -69.5q-4 -41 -33 -67.5t-69 -26.5zM889 1624q-41 0 -64 26.5t-18 67.5q5 42 34 69.5t70 27.5q42 0 65 -27.5t17 -69.5q-5 -41 -34 -67.5t-70 -26.5zM479 2q-25 0 -22 27l73 600q0 2 -1 6t-1 6
l-315 760q-5 14 1.5 23.5t21.5 9.5h96q20 0 26 -19l256 -618q5 -8 13 0l409 618q10 19 31 19h96q15 0 19.5 -10t-4.5 -23l-502 -760q-4 -8 -4 -12l-74 -600q-1 -12 -9.5 -19.5t-19.5 -7.5h-90z" />
    <glyph glyph-name="Zacute" unicode="&#x179;" horiz-adv-x="1091" 
d="M633 1606q-15 0 -19.5 9t4.5 23l140 211q13 19 33 19h83q15 0 18.5 -10t-5.5 -23l-154 -211q-12 -18 -31 -18h-69zM76 0q-26 0 -23 27l10 88q3 17 15 32l864 1147q6 13 -4 13h-702q-26 0 -23 26l10 74q3 27 29 27h844q25 0 22 -27l-10 -88q-3 -20 -14 -33l-863 -1147
q-6 -12 5 -12h700q11 0 17 -7.5t5 -19.5l-10 -73q-3 -27 -28 -27h-844z" />
    <glyph glyph-name="zacute" unicode="&#x17a;" horiz-adv-x="884" 
d="M487 1202q-15 0 -19 10t5 23l139 211q12 18 33 18h84q15 0 18 -9t-6 -23l-151 -211q-16 -19 -33 -19h-70zM53 0q-25 0 -22 27l10 88q3 15 16 32l650 744q4 5 2.5 8.5t-7.5 3.5h-530q-25 0 -22 27l10 80q3 26 28 26h686q26 0 23 -26l-10 -88q-2 -15 -17 -33l-655 -744
q-5 -5 -3.5 -8.5t7.5 -3.5h545q11 0 17 -7.5t5 -19.5l-10 -79q-1 -12 -9 -19.5t-19 -7.5h-695z" />
    <glyph glyph-name="Zdotaccent" unicode="&#x17b;" horiz-adv-x="1091" 
d="M692 1624q-40 0 -62 25t-18 65q5 38 34 64t69 26q36 0 57 -25.5t16 -64.5q-4 -39 -31.5 -64.5t-64.5 -25.5zM76 0q-26 0 -23 27l10 88q3 17 15 32l864 1147q6 13 -4 13h-702q-26 0 -23 26l10 74q3 27 29 27h844q25 0 22 -27l-10 -88q-3 -20 -14 -33l-863 -1147
q-6 -12 5 -12h700q11 0 17 -7.5t5 -19.5l-10 -73q-3 -27 -28 -27h-844z" />
    <glyph glyph-name="zdotaccent" unicode="&#x17c;" horiz-adv-x="884" 
d="M547 1221q-40 0 -62 25t-18 65q5 38 33.5 64t68.5 26q37 0 58 -26t16 -64q-4 -39 -31.5 -64.5t-64.5 -25.5zM53 0q-25 0 -22 27l10 88q3 15 16 32l650 744q4 5 2.5 8.5t-7.5 3.5h-530q-25 0 -22 27l10 80q3 26 28 26h686q26 0 23 -26l-10 -88q-2 -15 -17 -33l-655 -744
q-5 -5 -3.5 -8.5t7.5 -3.5h545q11 0 17 -7.5t5 -19.5l-10 -79q-1 -12 -9 -19.5t-19 -7.5h-695z" />
    <glyph glyph-name="Zcaron" unicode="&#x17d;" horiz-adv-x="1091" 
d="M633 1585q-19 0 -29 17l-121 208q-7 14 -1 23.5t20 9.5h59q21 0 31 -16l96 -164q7 -11 14 0l138 164q16 16 34 16h60q15 0 18.5 -9.5t-6.5 -23.5l-176 -208q-14 -17 -33 -17h-104zM76 0q-26 0 -23 27l10 88q3 17 15 32l864 1147q6 13 -4 13h-702q-26 0 -23 26l10 74
q3 27 29 27h844q25 0 22 -27l-10 -88q-3 -20 -14 -33l-863 -1147q-6 -12 5 -12h700q11 0 17 -7.5t5 -19.5l-10 -73q-3 -27 -28 -27h-844z" />
    <glyph glyph-name="zcaron" unicode="&#x17e;" horiz-adv-x="884" 
d="M489 1182q-20 0 -30 16l-121 209q-7 13 -1 23t21 10h60q18 0 28 -17l99 -163q1 -4 5 -4t7 4l137 163q17 17 35 17h59q15 0 19 -10t-6 -23l-174 -209q-16 -16 -35 -16h-103zM53 0q-25 0 -22 27l10 88q3 15 16 32l650 744q4 5 2.5 8.5t-7.5 3.5h-530q-25 0 -22 27l10 80
q3 26 28 26h686q26 0 23 -26l-10 -88q-2 -15 -17 -33l-655 -744q-5 -5 -3.5 -8.5t7.5 -3.5h545q11 0 17 -7.5t5 -19.5l-10 -79q-1 -12 -9 -19.5t-19 -7.5h-695z" />
    <glyph glyph-name="florin" unicode="&#x192;" horiz-adv-x="1087" 
d="M649 1094q23 86 49 142.5t60 96t85.5 60.5t113.5 30.5t155 10.5q26 0 23 -27l-11 -74q-3 -26 -28 -26h-60q-110 0 -163 -50t-87 -172l-67 -245q0 -11 6 -11h176q11 0 17.5 -7t5.5 -19l-11 -80q-1 -12 -9 -19.5t-19 -7.5h-195q-11 0 -14 -10l-209 -756
q-31 -107 -64.5 -170.5t-88.5 -102t-125 -52t-185 -15.5q-25 0 -22 27l8 74q3 26 28 26h60q110 0 163 50t87 172l207 747q3 10 -7 10h-143q-26 0 -23 27l11 80q3 26 28 26h164q13 0 13 11z" />
    <glyph glyph-name="uni01CD" unicode="&#x1cd;" horiz-adv-x="1206" 
d="M834 1559q-17 -17 -35 -17h-103q-16 0 -30 17l-123 210q-7 13 0 23t22 10h60q18 0 28 -16l99 -164q4 -10 14 0l137 164q13 16 33 16h59q15 0 19 -10t-6 -23zM975 0q-22 0 -25 23l-49 249q0 1 -1 3l-1.5 3t-2 2t-3.5 1h-592q-3 0 -12 -9l-107 -249q-9 -23 -30 -23h-97
q-14 0 -19 9t1 22l606 1380q9 23 31 23h127q23 0 26 -23l269 -1380q3 -13 -4 -22t-21 -9h-96zM350 412q-3 -13 6 -13h512q4 0 7 4t2 9l-156 837q0 5 -2 7t-5 0t-5 -7z" />
    <glyph glyph-name="uni01CE" unicode="&#x1ce;" horiz-adv-x="1075" 
d="M723 1161q-16 -16 -35 -16h-102q-18 0 -31 16l-123 211q-6 13 1 23t22 10h59q18 0 31 -16l96 -164q6 -8 14 0l138 164q13 16 32 16h60q15 0 18.5 -9.5t-6.5 -23.5zM858 1010q3 26 31 26h88q25 0 22 -26l-120 -983q-3 -27 -29 -27h-88q-25 0 -25 27l11 75q2 6 -2.5 8
t-10.5 -4q-106 -122 -264 -122q-138 0 -223.5 73.5t-106.5 200.5q-16 84 4 260q20 167 56 254q52 131 156 206t245 75q160 0 236 -121q3 -6 7.5 -4t4.5 8zM733 268q44 80 64 250q20 171 -4 254q-16 70 -65 112t-126 42q-78 0 -141.5 -41t-98.5 -109q-56 -87 -75 -258
q-20 -166 4 -248q15 -74 70.5 -116.5t138.5 -42.5q156 0 233 157z" />
    <glyph glyph-name="uni0218" unicode="&#x218;" horiz-adv-x="1163" 
d="M551 -16q-220 0 -337 104.5t-95 278.5l6 57q1 12 10 19.5t21 7.5h84q25 0 22 -27l-6 -49q-14 -118 71.5 -191t247.5 -73q152 0 240.5 66t102.5 177q7 54 -7.5 95.5t-58.5 80t-102.5 71t-157.5 77.5q-86 37 -130 58t-102.5 59.5t-84 75t-41 92t-7.5 124.5
q22 172 150 267.5t332 95.5q218 0 332 -106.5t92 -282.5l-5 -39q-3 -27 -28 -27h-88q-26 0 -23 27l4 31q14 120 -66.5 195t-242.5 75q-140 0 -222 -59.5t-95 -171.5q-4 -38 0.5 -68.5t23.5 -57t39.5 -45.5t65 -42.5t81.5 -40t105 -45.5q101 -45 162.5 -79.5t121 -86
t81.5 -117.5t12 -150q-21 -170 -155.5 -273t-352.5 -103zM377 -395q-15 0 -19.5 9.5t4.5 23.5l140 210q13 19 33 19h83q15 0 18.5 -9.5t-5.5 -23.5l-154 -211q-12 -18 -31 -18h-69z" />
    <glyph glyph-name="uni0219" unicode="&#x219;" horiz-adv-x="958" 
d="M449 -10q-168 0 -263.5 78.5t-81.5 193.5l2 19q3 26 29 26h86q11 0 17.5 -5.5t5.5 -12.5l-2 -19q-8 -67 53.5 -117.5t163.5 -50.5q103 0 173 48.5t79 121.5q5 38 -7.5 66t-49 49t-63 32t-86.5 30l-18 6q-44 14 -71.5 23t-67 25.5t-64 32t-51 38.5t-40.5 49t-21 61t-2 76
q17 131 127 209t272 78q165 0 257.5 -80t78.5 -203q-1 -12 -10 -19.5t-21 -7.5h-79q-12 0 -19.5 4.5t-5.5 10.5l2 12q8 70 -51 117t-168 47q-101 0 -168 -42.5t-76 -115.5q-4 -37 9.5 -64.5t49 -49t68.5 -34.5t92 -32q151 -45 212 -81q132 -79 114 -226
q-17 -132 -127.5 -212.5t-277.5 -80.5zM287 -389q-15 0 -19.5 9.5t4.5 23.5l140 211q9 18 30 18h86q15 0 18.5 -9.5t-5.5 -23.5l-154 -211q-12 -18 -31 -18h-69z" />
    <glyph glyph-name="uni021A" unicode="&#x21a;" horiz-adv-x="1142" 
d="M219 1407q3 27 29 27h907q26 0 23 -27l-9 -76q-3 -26 -30 -26h-381q-10 0 -10 -11l-156 -1267q-1 -12 -9.5 -19.5t-19.5 -7.5h-90q-25 0 -22 27l155 1267q0 11 -8 11h-367q-25 0 -22 26zM299 -379q-15 0 -19 9.5t5 23.5l139 211q12 18 33 18h86q13 0 16 -9.5t-6 -23.5
l-152 -210q-16 -19 -32 -19h-70z" />
    <glyph glyph-name="uni021B" unicode="&#x21b;" horiz-adv-x="722" 
d="M686 942q-1 -12 -9.5 -19.5t-19.5 -7.5h-217q-9 0 -12 -10l-72 -598q-12 -97 25 -137.5t129 -40.5h45q11 0 17.5 -7.5t5.5 -19.5l-11 -71q-3 -26 -28 -29h-68q-69 0 -117.5 11t-85.5 38.5t-51 80t-4 130.5l80 643q0 10 -10 10h-113q-26 0 -23 27l9 68q3 26 28 26h115
q3 0 6.5 3.5t3.5 7.5l29 229q3 27 29 27h86q11 0 17 -7.5t5 -19.5l-29 -229q0 -11 9 -11h217q25 0 22 -26zM254 -422q-15 0 -19 10t5 23l139 211q12 18 33 18h86q13 0 16 -10t-6 -23l-152 -210q-16 -19 -32 -19h-70z" />
    <glyph glyph-name="uni0228" unicode="&#x228;" horiz-adv-x="1202" 
d="M1210 1333q-3 -26 -28 -26h-723q-9 0 -13 -11l-61 -501q0 -11 10 -11h504q26 0 23 -26l-9 -74q-2 -12 -10 -19.5t-20 -7.5h-504q-9 0 -12 -10l-62 -510q0 -10 8 -10h723q26 0 23 -27l-8 -73q-1 -12 -9.5 -19.5t-19.5 -7.5h-352q-6 0 -7.5 -4t1.5 -8q106 -109 61 -230
q-16 -46 -47.5 -75t-69.5 -38.5t-74.5 -8.5t-70.5 10q-23 7 -17 30l11 33q6 27 32 21q49 -10 88.5 6.5t53.5 62.5q30 90 -80 197q-4 4 -10 4h-369q-11 0 -17 7.5t-5 19.5l169 1380q1 12 9.5 19.5t19.5 7.5h850q11 0 17.5 -7.5t5.5 -19.5z" />
    <glyph glyph-name="uni0229" unicode="&#x229;" horiz-adv-x="1060" 
d="M524 109q90 1 160.5 41.5t112.5 111.5q14 25 34 12l56 -32q19 -13 6 -35q-54 -90 -139 -147t-193 -72q-13 -3 -6 -13q112 -115 68 -235q-16 -46 -47.5 -75t-70 -38.5t-75 -9t-70.5 9.5q-22 6 -16 31l10 33q6 27 33 20q48 -10 87 6.5t52 63.5q34 94 -84 203q-8 4 -12 4
q-111 15 -180.5 80.5t-93.5 171.5q-24 101 -2 282q19 169 47 238q50 134 162 213.5t258 79.5q172 0 259 -93t95 -260q3 -71 -14 -204q-3 -27 -29 -27h-635q-12 0 -12 -10q-12 -103 -6 -150q9 -91 73.5 -145.5t171.5 -54.5zM604 926q-98 0 -168 -52.5t-102 -140.5
q-18 -49 -33 -139q0 -10 8 -10h512q10 0 10 10q7 99 5 131q-9 91 -70 146t-162 55z" />
    <glyph glyph-name="circumflex" unicode="&#x2c6;" horiz-adv-x="516" 
d="M143 1167q-17 0 -20 10.5t8 22.5l180 209q13 16 35 16h92q23 0 31 -16l131 -209q8 -12 2.5 -22.5t-22.5 -10.5h-64q-19 0 -29 17l-96 164q-1 4 -5 4t-7 -4l-137 -164q-17 -17 -35 -17h-64z" />
    <glyph glyph-name="caron" unicode="&#x2c7;" horiz-adv-x="626" 
d="M365 1165q-21 0 -31 17l-121 209q-7 13 -1.5 22.5t19.5 9.5h62q19 0 29 -16l98 -164q2 -5 5.5 -5t6.5 5l137 164q16 16 35 16h60q15 0 18.5 -9.5t-6.5 -22.5l-176 -209q-14 -17 -33 -17h-102z" />
    <glyph glyph-name="uni02C9" unicode="&#x2c9;" horiz-adv-x="534" 
d="M135 1217q-25 0 -22 26l6 51q1 12 9 19.5t19 7.5h484q25 0 22 -27l-6 -51q-3 -26 -29 -26h-483z" />
    <glyph glyph-name="breve" unicode="&#x2d8;" horiz-adv-x="552" 
d="M377 1143q-84 0 -138.5 54t-54.5 136q0 12 7.5 19.5t19.5 7.5h35q21 0 24 -25q2 -50 35 -82t82 -32q47 0 87.5 32t55.5 82q3 25 29 25h37q12 0 17.5 -7.5t2.5 -19.5q-20 -82 -87.5 -136t-151.5 -54z" />
    <glyph glyph-name="dotaccent" unicode="&#x2d9;" horiz-adv-x="292" 
d="M256 1200q-40 0 -62 25t-18 65q5 38 34 64t69 26q36 0 57 -25.5t16 -64.5q-5 -40 -31.5 -65t-64.5 -25z" />
    <glyph glyph-name="ring" unicode="&#x2da;" horiz-adv-x="528" 
d="M369 1165q-88 0 -140.5 61t-42.5 150q11 88 79 148.5t157 60.5q86 0 138.5 -60.5t41.5 -148.5q-10 -89 -77.5 -150t-155.5 -61zM379 1245q53 0 95 37.5t48 93.5q7 55 -25 93t-85 38q-54 0 -97 -38t-49 -93q-7 -56 25.5 -93.5t87.5 -37.5z" />
    <glyph glyph-name="ogonek" unicode="&#x2db;" horiz-adv-x="278" 
d="M193 -340q0 -25 -23 -31q-37 -9 -74 -9.5t-73 9t-60.5 38.5t-28.5 75q-17 130 140 246q14 12 32 12h39q18 0 21 -10t-14 -23q-121 -98 -113 -184q3 -47 38 -63.5t87 -6.5q26 7 26 -20z" />
    <glyph glyph-name="tilde" unicode="&#x2dc;" horiz-adv-x="681" 
d="M559 1212q-56 0 -119 50q-21 17 -29 23t-23 12t-32 6q-53 0 -98 -50q-22 -22 -39 -8l-26 21q-19 15 -3 37q69 102 170 102q24 0 47 -8t35 -15.5t35 -23.5q2 -1 9.5 -6.5t10 -7t9.5 -6.5t10.5 -6.5t10 -5t10.5 -5t10 -3.5t11.5 -2.5t10.5 -0.5q56 0 101 55q15 21 37 8
l26 -18q19 -16 -6 -51q-37 -49 -83 -73t-85 -24z" />
    <glyph glyph-name="hungarumlaut" unicode="&#x2dd;" horiz-adv-x="722" 
d="M201 1198q-15 0 -20.5 10t3.5 23l140 211q12 18 32 18h86q14 0 17 -10t-6 -23l-152 -210q-16 -19 -33 -19h-67zM528 1198q-15 0 -20 10t4 23l139 211q12 18 33 18h86q13 0 16 -10t-6 -23l-151 -210q-16 -19 -33 -19h-68z" />
    <glyph glyph-name="gravecomb" unicode="&#x300;" 
d="M90 1214q6 -13 0 -22.5t-20 -9.5h-70q-20 0 -29 18l-100 211q-6 13 -0.5 23t20.5 10h84q23 0 29 -19z" />
    <glyph glyph-name="acutecomb" unicode="&#x301;" 
d="M-244 1182q-15 0 -19 9t5 23l139 211q13 19 33 19h84q15 0 18 -10t-6 -23l-151 -211q-15 -18 -33 -18h-70z" />
    <glyph glyph-name="uni0302" unicode="&#x302;" 
d="M-373 1167q-17 0 -20 10.5t8 22.5l180 209q13 16 35 16h92q23 0 31 -16l131 -209q8 -12 2 -22.5t-23 -10.5h-63q-19 0 -29 17l-96 164q-1 4 -5 4t-7 -4l-137 -164q-17 -17 -35 -17h-64z" />
    <glyph glyph-name="tildecomb" unicode="&#x303;" 
d="M-78 1212q-54 0 -117 50q-19 16 -29 22.5t-24.5 12.5t-30.5 6q-55 0 -100 -50q-19 -22 -39 -8l-24 21q-17 14 -4 37q72 102 172 102q23 0 45.5 -8.5t33.5 -15t35 -23.5q3 -2 15 -9.5t16.5 -10.5t14 -8.5t16 -8t15 -4.5t15.5 -2q58 0 101 55q18 21 37 8l28 -18
q19 -16 -6 -51q-37 -49 -83 -73t-87 -24z" />
    <glyph glyph-name="uni0304" unicode="&#x304;" 
d="M-399 1217q-26 0 -23 26l6 51q1 12 9.5 19.5t19.5 7.5h483q26 0 23 -27l-6 -51q-3 -26 -29 -26h-483z" />
    <glyph glyph-name="uni0306" unicode="&#x306;" 
d="M-180 1114q-83 0 -138 54.5t-55 136.5q0 26 27 26h37q22 0 22 -24q2 -50 35 -82.5t82 -32.5q47 0 87.5 32.5t55.5 82.5q6 24 29 24h37q25 0 22 -26q-20 -82 -88.5 -136.5t-152.5 -54.5z" />
    <glyph glyph-name="uni0307" unicode="&#x307;" 
d="M23 1200q-40 0 -62 25t-18 65q5 38 33.5 64t68.5 26q37 0 58 -26t16 -64q-4 -39 -31.5 -64.5t-64.5 -25.5z" />
    <glyph glyph-name="uni0308" unicode="&#x308;" 
d="M-315 1229q-41 0 -64.5 26.5t-19.5 67.5q5 41 35 68.5t71 27.5q40 0 62.5 -27.5t17.5 -68.5q-4 -41 -33 -67.5t-69 -26.5zM18 1229q-41 0 -63.5 26t-17.5 68t34 69t70 27t64 -27t18 -69q-4 -41 -34 -67.5t-71 -26.5z" />
    <glyph glyph-name="uni030A" unicode="&#x30a;" 
d="M-100 1165q-88 0 -140.5 61t-42.5 150q11 88 79 148.5t157 60.5q86 0 138.5 -60.5t41.5 -148.5q-10 -89 -77.5 -150t-155.5 -61zM-90 1245q53 0 95 37.5t48 93.5q7 55 -25 93t-85 38q-54 0 -97 -38t-49 -93q-7 -56 25.5 -93.5t87.5 -37.5z" />
    <glyph glyph-name="uni030B" unicode="&#x30b;" 
d="M-508 1178q-31 0 -14 30l131 213q13 19 35 19h77q14 0 18 -10t-5 -23l-140 -211q-9 -18 -30 -18h-72zM-182 1178q-15 0 -20.5 8t3.5 22l138 213q13 19 32 19h74q14 0 17.5 -10t-5.5 -23l-139 -211q-12 -18 -33 -18h-67z" />
    <glyph glyph-name="uni030C" unicode="&#x30c;" 
d="M-264 1149q-21 0 -31 16l-123 211q-7 13 0.5 23t22.5 10h59q19 0 29 -16l98 -164q1 -5 5 -5t7 5l138 164q16 16 34 16h60q15 0 18.5 -9.5t-6.5 -23.5l-176 -211q-13 -16 -33 -16h-102z" />
    <glyph glyph-name="uni0312" unicode="&#x312;" 
d="M41 1417q15 0 19 -9.5t-5 -23.5l-139 -210q-13 -19 -33 -19h-86q-13 0 -16 9.5t6 23.5l152 211q15 18 32 18h70z" />
    <glyph glyph-name="uni0313" unicode="&#x313;" 
d="M-141 1182q-15 0 -19.5 9t4.5 23l140 211q13 19 32 19h84q15 0 18.5 -10t-5.5 -23l-152 -211q-15 -18 -33 -18h-69z" />
    <glyph glyph-name="uni0326" unicode="&#x326;" 
d="M-391 -379q-14 0 -17.5 9.5t5.5 23.5l139 211q9 18 31 18h86q15 0 18 -9.5t-6 -23.5l-154 -210q-16 -19 -33 -19h-69z" />
    <glyph glyph-name="uni0327" unicode="&#x327;" 
d="M-340 -371q-22 6 -16 31l10 33q6 27 33 20q48 -10 87.5 6.5t53.5 63.5q28 89 -70 184q-10 13 -5 23t22 10h39q18 0 30 -12q126 -117 78 -246q-16 -46 -47.5 -75t-69.5 -38.5t-74.5 -9t-70.5 9.5z" />
    <glyph glyph-name="uni0328" unicode="&#x328;" 
d="M-86 -340q0 -25 -23 -31q-37 -9 -73.5 -9.5t-72.5 9t-60.5 38.5t-28.5 75q-17 131 139 246q14 12 33 12h39q18 0 20.5 -10t-14.5 -23q-121 -98 -113 -184q3 -47 38 -63.5t87 -6.5q27 7 27 -20z" />
    <glyph glyph-name="uni0335" unicode="&#x335;" 
d="M-516 1243q1 12 9.5 19.5t19.5 7.5h579q11 0 17.5 -7.5t5.5 -19.5l-6 -43q-3 -26 -29 -26h-578q-25 0 -22 26z" />
    <glyph glyph-name="uni0336" unicode="&#x336;" 
d="M-1057 1057q-25 0 -22 26l6 52q3 26 29 26h1122q25 0 22 -26l-6 -52q-1 -12 -9 -19t-19 -7h-1123z" />
    <glyph glyph-name="uni0337" unicode="&#x337;" 
d="M-795 82q-21 -15 -34 4l-35 49q-12 21 10 37l954 676q21 17 35 -4l31 -49q12 -21 -10 -37z" />
    <glyph glyph-name="uni0338" unicode="&#x338;" 
d="M-870 -80q-14 0 -19 9t2 22l907 1554q10 21 35 21h60q14 0 18.5 -9t-2.5 -22l-909 -1554q-10 -21 -35 -21h-57z" />
    <glyph glyph-name="uni0394" unicode="&#x394;" horiz-adv-x="1267" 
d="M49 0q-25 0 -22 27l10 84q2 12 10 32l658 1270q9 21 30 21h68q22 0 28 -21l345 -1272q4 -20 2 -32l-11 -82q-3 -27 -28 -27h-1090zM184 139q-3 -5 -1 -8.5t7 -3.5h838q5 0 8 4t2 8l-286 1094q-3 16 -13 0z" />
    <glyph glyph-name="uni03A9" unicode="&#x3a9;" horiz-adv-x="1273" 
d="M129 0q-26 0 -23 27l9 73q2 12 10 19.5t20 7.5h154q7 0 9 3.5t-3 8.5q-72 56 -104 147t-17 206l60 483q26 214 171.5 344.5t358.5 130.5q215 0 328.5 -130.5t87.5 -344.5l-60 -483q-13 -115 -67.5 -206t-140.5 -147q-7 -5 -5.5 -8.5t7.5 -3.5h157q11 0 17.5 -7.5
t5.5 -19.5l-10 -73q-3 -27 -29 -27h-360q-11 0 -17.5 7.5t-5.5 19.5l10 77q3 23 27 29q94 25 173 117.5t95 220.5l64 508q19 155 -61.5 249.5t-231.5 94.5q-149 0 -251.5 -94.5t-121.5 -249.5l-63 -508q-16 -128 40.5 -220.5t145.5 -117.5q21 -7 18 -29l-10 -77
q-1 -12 -9.5 -19.5t-19.5 -7.5h-358z" />
    <glyph glyph-name="uni03BC" unicode="&#x3bc;" horiz-adv-x="1085" 
d="M864 1010q3 26 31 26h88q26 0 23 -26l-121 -983q-3 -27 -29 -27h-90q-11 0 -17.5 7.5t-5.5 19.5l11 77q2 6 -2.5 8.5t-8.5 -3.5q-104 -123 -278 -123q-113 0 -189 49q-4 3 -8 1.5t-4 -7.5l-51 -412q-3 -27 -29 -27h-90q-25 0 -22 27l82 659v13q0 11 4 35l84 686
q3 26 28 26h92q11 0 17.5 -7t5.5 -19l-84 -682q-2 -100 52.5 -157.5t154.5 -57.5q113 0 188.5 69.5t89.5 184.5z" />
    <glyph glyph-name="pi" unicode="&#x3c0;" horiz-adv-x="1284" 
d="M1282 938q-1 -12 -10 -19.5t-21 -7.5h-137q-10 0 -10 -10l-72 -588q-13 -107 10.5 -145t90.5 -41q25 0 22 -27l-10 -71q-3 -27 -29 -27q-24 0 -44 1t-42.5 4.5t-39 9.5t-35 15t-30 22.5t-23.5 32t-15.5 42.5t-7 54t3.5 67l80 651q3 10 -9 10h-467q-10 0 -10 -10
l-108 -874q-3 -27 -29 -27h-90q-26 0 -23 27l109 874q0 10 -10 10h-150q-25 0 -22 27l8 72q3 26 28 26h1078q25 0 22 -26z" />
    <glyph glyph-name="Wgrave" unicode="&#x1e80;" horiz-adv-x="1732" 
d="M1065 1612q5 -14 -1.5 -23.5t-21.5 -9.5h-69q-17 0 -29 18l-100 211q-6 14 -0.5 23.5t20.5 9.5h84q23 0 29 -18zM418 0q-24 0 -27 23l-207 1380q-1 13 6 22t19 9h98q22 0 25 -23l162 -1110q2 -6 6 -6t6 6l414 1110q10 23 32 23h97q21 0 24 -23l154 -1112q0 -6 4.5 -6
t7.5 6l434 1112q9 23 31 23h90q28 0 18 -31l-540 -1380q-9 -23 -31 -23h-94q-22 0 -29 23l-145 1138q0 6 -4.5 6t-7.5 -6l-422 -1138q-10 -23 -33 -23h-88z" />
    <glyph glyph-name="wgrave" unicode="&#x1e81;" horiz-adv-x="1431" 
d="M858 1214q6 -13 -0.5 -22.5t-21.5 -9.5h-70q-18 0 -27 18l-100 211q-6 13 -0.5 23t18.5 10h86q21 0 27 -19zM332 0q-22 0 -25 23l-157 983q-3 13 4.5 21.5t19.5 8.5h94q22 0 25 -22l108 -799q1 -6 6 -6t7 6l311 799q8 22 31 22h86q23 0 26 -22l117 -799q1 -6 6 -6t6 6
l312 799q8 22 32 22l91 -2q14 0 19 -8t-1 -22l-401 -981q-9 -23 -31 -23h-98q-22 0 -25 23l-123 755q0 6 -4 6t-6 -6l-301 -755q-9 -23 -31 -23h-98z" />
    <glyph glyph-name="Wacute" unicode="&#x1e82;" horiz-adv-x="1732" 
d="M961 1579q-15 0 -19.5 9.5t4.5 23.5l139 211q12 18 33 18h86q13 0 16 -9.5t-6 -23.5l-151 -211q-15 -18 -33 -18h-69zM418 0q-24 0 -27 23l-207 1380q-1 13 6 22t19 9h98q22 0 25 -23l162 -1110q2 -6 6 -6t6 6l414 1110q10 23 32 23h97q21 0 24 -23l154 -1112
q0 -6 4.5 -6t7.5 6l434 1112q9 23 31 23h90q28 0 18 -31l-540 -1380q-9 -23 -31 -23h-94q-22 0 -29 23l-145 1138q0 6 -4.5 6t-7.5 -6l-422 -1138q-10 -23 -33 -23h-88z" />
    <glyph glyph-name="wacute" unicode="&#x1e83;" horiz-adv-x="1431" 
d="M756 1182q-15 0 -19.5 9t4.5 23l140 211q9 19 30 19h86q15 0 18.5 -10t-5.5 -23l-154 -211q-12 -18 -31 -18h-69zM332 0q-22 0 -25 23l-157 983q-3 13 4.5 21.5t19.5 8.5h94q22 0 25 -22l108 -799q1 -6 6 -6t7 6l311 799q8 22 31 22h86q23 0 26 -22l117 -799q1 -6 6 -6
t6 6l312 799q8 22 32 22l91 -2q14 0 19 -8t-1 -22l-401 -981q-9 -23 -31 -23h-98q-22 0 -25 23l-123 755q0 6 -4 6t-6 -6l-301 -755q-9 -23 -31 -23h-98z" />
    <glyph glyph-name="Wdieresis" unicode="&#x1e84;" horiz-adv-x="1732" 
d="M858 1626q-43 0 -66.5 26.5t-17.5 67.5q5 41 35.5 69t71.5 28q39 0 62 -27.5t18 -69.5q-4 -41 -33.5 -67.5t-69.5 -26.5zM1192 1626q-43 0 -65.5 26.5t-16.5 67.5q5 42 34 69.5t70 27.5t64 -27.5t18 -69.5q-6 -42 -34.5 -68t-69.5 -26zM418 0q-24 0 -27 23l-207 1380
q-1 13 6 22t19 9h98q22 0 25 -23l162 -1110q2 -6 6 -6t6 6l414 1110q10 23 32 23h97q21 0 24 -23l154 -1112q0 -6 4.5 -6t7.5 6l434 1112q9 23 31 23h90q28 0 18 -31l-540 -1380q-9 -23 -31 -23h-94q-22 0 -29 23l-145 1138q0 6 -4.5 6t-7.5 -6l-422 -1138q-10 -23 -33 -23
h-88z" />
    <glyph glyph-name="wdieresis" unicode="&#x1e85;" horiz-adv-x="1431" 
d="M651 1229q-41 0 -64.5 26.5t-19.5 67.5q6 42 36.5 69t72.5 27q40 0 62 -27.5t16 -68.5q-4 -41 -33.5 -67.5t-69.5 -26.5zM985 1229q-41 0 -64 26.5t-18 67.5t34.5 68.5t70.5 27.5q42 0 65 -27t17 -69q-4 -41 -34 -67.5t-71 -26.5zM332 0q-22 0 -25 23l-157 983
q-3 13 4.5 21.5t19.5 8.5h94q22 0 25 -22l108 -799q1 -6 6 -6t7 6l311 799q8 22 31 22h86q23 0 26 -22l117 -799q1 -6 6 -6t6 6l312 799q8 22 32 22l91 -2q14 0 19 -8t-1 -22l-401 -981q-9 -23 -31 -23h-98q-22 0 -25 23l-123 755q0 6 -4 6t-6 -6l-301 -755q-9 -23 -31 -23
h-98z" />
    <glyph glyph-name="Ygrave" unicode="&#x1ef2;" horiz-adv-x="1126" 
d="M762 1610q6 -13 -1 -23t-22 -10h-69q-18 0 -27 18l-102 211q-5 14 0.5 23.5t19.5 9.5h86q21 0 27 -18zM479 2q-25 0 -22 27l73 600q0 2 -1 6t-1 6l-315 760q-5 14 1.5 23.5t21.5 9.5h96q20 0 26 -19l256 -618q5 -8 13 0l409 618q10 19 31 19h96q15 0 19.5 -10t-4.5 -23
l-502 -760q-4 -8 -4 -12l-74 -600q-1 -12 -9.5 -19.5t-19.5 -7.5h-90z" />
    <glyph glyph-name="ygrave" unicode="&#x1ef3;" horiz-adv-x="915" 
d="M608 1223q6 -13 0 -23t-20 -10h-70q-20 0 -29 18l-100 211q-6 14 0 23.5t21 9.5h84q22 0 28 -18zM23 -410q-14 0 -11 27l8 72q1 12 7 19t12 7h14q111 0 165.5 52.5t127.5 226.5q4 4 2 12l-211 1000q-3 13 5 21.5t22 8.5h92q24 0 27 -22l157 -803q1 -5 3.5 -7t5.5 0t4 7
l350 803q5 22 28 22h97q14 0 19 -8t-1 -22l-500 -1096q-49 -104 -85 -161.5t-83 -96t-101 -50.5t-140 -12h-14z" />
    <glyph glyph-name="endash" unicode="&#x2013;" horiz-adv-x="894" 
d="M127 514q-26 0 -23 27l9 75q2 12 10 19.5t20 7.5h686q26 0 23 -27l-8 -75q-1 -12 -10 -19.5t-21 -7.5h-686z" />
    <glyph glyph-name="emdash" unicode="&#x2014;" horiz-adv-x="1359" 
d="M127 516q-26 0 -23 27l9 73q2 12 10 19.5t20 7.5h1153q26 0 23 -27l-8 -73q-1 -12 -9.5 -19.5t-19.5 -7.5h-1155z" />
    <glyph glyph-name="quoteleft" unicode="&#x2018;" horiz-adv-x="278" 
d="M117 1014q-14 0 -18.5 8t1.5 22l189 369q12 21 33 21h61q14 0 19 -9t-1 -22l-161 -367q-8 -22 -31 -22h-92z" />
    <glyph glyph-name="quoteright" unicode="&#x2019;" horiz-adv-x="278" 
d="M383 1434q13 0 17.5 -9t-1.5 -22l-188 -369q-11 -20 -33 -20h-61q-14 0 -19.5 8t0.5 22l160 367q9 23 31 23h94z" />
    <glyph glyph-name="quotesinglbase" unicode="&#x201a;" horiz-adv-x="1191" 
d="M100 -162q-14 0 -19 8t-1 21l137 426q10 24 31 24h76q27 0 18 -28l-160 -428q-10 -23 -32 -23h-50z" />
    <glyph glyph-name="quotedblleft" unicode="&#x201c;" horiz-adv-x="530" 
d="M117 1014q-14 0 -18.5 8t1.5 22l181 369q12 21 32 21h60q14 0 19 -9t-1 -22l-155 -367q-6 -22 -29 -22h-90zM381 1014q-29 0 -16 30l180 369q12 21 33 21h59q14 0 19 -9t-1 -22l-155 -367q-6 -22 -29 -22h-90z" />
    <glyph glyph-name="quotedblright" unicode="&#x201d;" horiz-adv-x="530" 
d="M371 1434q13 0 17.5 -9t-1.5 -22l-180 -369q-11 -20 -33 -20h-59q-14 0 -19.5 8t0.5 22l154 367q9 23 31 23h90zM635 1434q13 0 17.5 -9t-1.5 -22l-180 -369q-11 -20 -33 -20h-59q-14 0 -19.5 8t0.5 22l154 367q9 23 31 23h90z" />
    <glyph glyph-name="quotedblbase" unicode="&#x201e;" horiz-adv-x="546" 
d="M227 262q13 0 18 -9t-1 -22l-181 -368q-12 -21 -32 -21h-60q-14 0 -19 9t1 22l153 367q8 22 31 22h90zM492 262q13 0 17.5 -9t-1.5 -22l-180 -368q-12 -21 -33 -21h-59q-14 0 -19.5 9t0.5 22l154 367q8 22 30 22h91z" />
    <glyph glyph-name="dagger" unicode="&#x2020;" horiz-adv-x="847" 
d="M821 938q11 0 17.5 -7.5t5.5 -19.5l-8 -61q-1 -12 -9.5 -19.5t-19.5 -7.5h-242q-10 0 -10 -10l-147 -1196q-3 -27 -29 -27h-90q-11 0 -17.5 7.5t-5.5 19.5l148 1196q0 10 -8 10h-242q-11 0 -17.5 7.5t-5.5 19.5l9 61q1 12 9 19.5t19 7.5h242q10 0 10 10l57 459
q3 27 29 27h88q26 0 23 -27l-56 -459q0 -10 9 -10h241z" />
    <glyph glyph-name="daggerdbl" unicode="&#x2021;" horiz-adv-x="847" 
d="M836 850q-1 -12 -9.5 -19.5t-19.5 -7.5h-242q-10 0 -10 -10l-74 -602q-3 -10 8 -10h240q26 0 23 -27l-7 -61q-1 -12 -9 -19.5t-19 -7.5h-242q-10 0 -10 -10l-57 -459q-3 -27 -29 -27h-90q-11 0 -17.5 7.5t-5.5 19.5l58 459q0 10 -9 10h-241q-26 0 -23 27l8 61q3 27 29 27
h240q12 0 12 10l74 602q0 10 -8 10h-242q-11 0 -17.5 7.5t-5.5 19.5l9 61q1 12 9 19.5t19 7.5h242q10 0 10 10l57 459q3 27 29 27h88q26 0 23 -27l-56 -459q0 -10 9 -10h241q11 0 17.5 -7.5t5.5 -19.5z" />
    <glyph glyph-name="bullet" unicode="&#x2022;" horiz-adv-x="614" 
d="M305 309q-95 0 -154 70.5t-47 167.5q12 98 88.5 166.5t172.5 68.5q94 0 152 -68.5t46 -166.5q-11 -97 -87 -167.5t-171 -70.5z" />
    <glyph glyph-name="ellipsis" unicode="&#x2026;" horiz-adv-x="1570" 
d="M229 6q-53 0 -83.5 34.5t-24.5 86.5q6 50 46.5 85.5t90.5 35.5q48 0 81.5 -35.5t27.5 -85.5q-6 -51 -46.5 -86t-91.5 -35zM748 6q-54 0 -84.5 35t-24.5 86q6 50 47.5 85.5t91.5 35.5q48 0 81 -35.5t26 -85.5q-6 -51 -46 -86t-91 -35zM1255 6q-54 0 -84 35t-22 86
q6 50 46.5 85.5t90.5 35.5q48 0 81.5 -35.5t27.5 -85.5q-6 -51 -47.5 -86t-92.5 -35z" />
    <glyph glyph-name="perthousand" unicode="&#x2030;" horiz-adv-x="2265" 
d="M350 567q-118 0 -178.5 69t-46.5 187l45 375q15 116 93 184t196 68q117 0 179.5 -68.5t49.5 -183.5l-47 -375q-13 -116 -93 -186t-198 -70zM340 0q-15 0 -18 10t6 23l1009 1382q16 19 33 19h53q15 0 18.5 -10t-5.5 -23l-1008 -1383q-15 -18 -33 -18h-55zM360 659
q73 0 122 42.5t57 113.5l47 387q9 71 -29 114.5t-111 43.5q-69 0 -118 -44t-58 -114l-47 -387q-9 -70 29.5 -113t107.5 -43zM1280 -16q-118 0 -178.5 69t-46.5 187l45 374q15 116 93 184t196 68q117 0 179.5 -68.5t49.5 -183.5l-47 -374q-13 -116 -93 -186t-198 -70z
M1911 -16q-118 0 -178.5 69t-46.5 187l47 374q14 116 91 184t195 68q119 0 181 -68.5t49 -183.5l-45 -374q-15 -117 -94.5 -186.5t-198.5 -69.5zM1290 76q73 0 121 42t57 113l48 387q9 71 -29 114.5t-111 43.5q-69 0 -118 -44t-58 -114l-47 -387q-9 -70 29 -112.5t108 -42.5
zM1923 76q72 0 120.5 42t57.5 113l47 387q8 71 -30 114.5t-109 43.5t-120 -44t-56 -114l-49 -387q-7 -70 30.5 -112.5t108.5 -42.5z" />
    <glyph glyph-name="guilsinglleft" unicode="&#x2039;" horiz-adv-x="720" 
d="M502 252q9 -12 2.5 -22.5t-23.5 -10.5h-82q-21 0 -30 17l-205 321q-12 18 4 37l285 321q11 17 32 17h84q17 0 21 -10.5t-8 -22.5l-279 -315q-8 -8 -2 -17z" />
    <glyph glyph-name="guilsinglright" unicode="&#x203a;" horiz-adv-x="780" 
d="M213 219q-15 0 -18.5 10.5t8.5 22.5l278 315q5 8 2 17l-202 315q-8 12 -2.5 22.5t22.5 10.5h84q21 0 29 -17l204 -321q13 -20 -4 -37l-282 -321q-14 -17 -35 -17h-84z" />
    <glyph glyph-name="fraction" unicode="&#x2044;" horiz-adv-x="466" 
d="M-250 0q-15 0 -18 10t6 23l1010 1382q16 19 32 19h54q15 0 18 -10t-6 -23l-1008 -1383q-15 -18 -33 -18h-55z" />
    <glyph glyph-name="uni2074" unicode="&#x2074;" horiz-adv-x="669" 
d="M686 1231q11 0 17.5 -7.5t5.5 -19.5l-7 -41q-3 -26 -28 -26h-31q-12 0 -12 -11l-25 -194q-3 -27 -28 -27h-50q-25 0 -22 27l24 194q0 11 -10 11h-338q-25 0 -22 26l4 37q0 13 12 33l291 512q10 20 33 20h49q15 0 19.5 -8.5t-3.5 -21.5l-278 -492q-4 -12 6 -12h239
q11 0 11 10l22 172q3 27 29 27h49q26 0 23 -27l-21 -172q0 -10 8 -10h33z" />
    <glyph glyph-name="uni2075" unicode="&#x2075;" horiz-adv-x="600" 
d="M649 1305q15 -59 6 -140q-8 -69 -41 -137q-74 -139 -239 -139q-85 0 -140 44.5t-69 119.5q-7 39 -4 63q0 27 26 27h54q22 0 22 -25l2 -31q5 -50 37 -78t84 -28q88 0 133 80q27 50 35 102q6 63 -10 109q-22 78 -111 78q-44 0 -81.5 -19t-57.5 -53q-17 -21 -33 -21h-57
q-26 0 -23 27l56 449q0 12 8 19t20 7h406q11 0 17 -7t5 -19l-6 -37q-3 -27 -29 -27h-321q-10 0 -10 -10l-33 -256q0 -15 12 -6q64 43 152 43q146 0 190 -135z" />
    <glyph glyph-name="uni2076" unicode="&#x2076;" horiz-adv-x="618" 
d="M668 1278q7 -47 -2 -113q-8 -62 -27 -112q-31 -74 -99.5 -119t-154.5 -45q-82 0 -136.5 45t-72.5 119q-6 30 0 114l47 375q12 105 86 166t185 61q99 0 155.5 -59t46.5 -154l-2 -6q-3 -26 -28 -26h-50q-24 0 -24 10v10q7 59 -25 96t-88 37q-63 0 -106.5 -39t-50.5 -108
l-19 -150q-1 -6 2 -7.5t8 3.5q68 62 156 62q76 0 130.5 -44t68.5 -116zM545 1081q15 38 20 82q8 38 0 76q-3 48 -35.5 78.5t-85.5 30.5q-50 0 -88.5 -29t-58.5 -74q-13 -33 -18 -82q-9 -45 -3 -80q5 -46 38 -74t85 -28q51 0 89 27t57 73z" />
    <glyph glyph-name="uni2077" unicode="&#x2077;" horiz-adv-x="552" 
d="M248 905q-13 0 -18 8.5t1 22.5l351 727q3 12 -7 12h-292q-11 0 -11 -10l-8 -59q-3 -27 -28 -27h-31q-26 0 -23 27l15 133q3 26 30 26h453q25 0 22 -26l-6 -47q-4 -23 -10 -33l-352 -733q-9 -21 -33 -21h-53z" />
    <glyph glyph-name="uni2078" unicode="&#x2078;" horiz-adv-x="624" 
d="M586 1362q-11 -6 -2 -12q56 -38 71 -107q9 -43 2 -100q-7 -51 -26 -96q-30 -71 -97.5 -114.5t-154.5 -43.5q-83 0 -138 42.5t-73 115.5q-8 45 -4 98q5 36 31 96q37 75 94 107q11 6 2 12q-53 41 -68 102q-13 36 -8 82q8 50 29 86q73 142 243 142q85 0 141.5 -38.5
t71.5 -105.5q11 -38 7 -82q-6 -42 -27 -82q-31 -64 -94 -102zM313 1538q0 -6 1 -21t1 -24q8 -45 40 -70.5t87 -25.5q51 0 90 22t56 60q9 21 10 30q1 4 3 14.5t3 14.5q5 28 0 47q-6 46 -39.5 71t-87.5 25q-107 0 -147 -98q-14 -25 -17 -45zM541 1087q10 25 14 64q4 35 2 57
q-5 48 -38.5 78.5t-86.5 30.5t-91 -29.5t-58 -79.5q-12 -34 -15 -59q-3 -29 0 -62q3 -48 36.5 -78t86.5 -30t92.5 29.5t57.5 78.5z" />
    <glyph glyph-name="uni2079" unicode="&#x2079;" horiz-adv-x="618" 
d="M688 1606q6 -30 0 -115l-47 -375q-12 -105 -85.5 -166t-184.5 -61q-99 0 -156 59.5t-45 153.5v6q3 27 29 27h49q12 0 19 -3t5 -8v-10q-7 -59 25 -96t88 -37q64 0 107.5 39t52.5 108l16 150q1 6 -2 7.5t-8 -3.5q-67 -61 -156 -61q-76 0 -130 43.5t-68 115.5q-4 26 2 113
q9 67 26 113q31 73 99.5 118t154.5 45q82 0 136.5 -44.5t72.5 -118.5zM567 1413q9 23 21 82q5 51 0 80q-5 46 -37 74t-84 28q-51 0 -89 -27t-56 -73q-18 -38 -23 -82q-4 -38 0 -76q3 -48 36.5 -78t86.5 -30q50 0 88.5 28.5t56.5 73.5z" />
    <glyph glyph-name="franc" unicode="&#x20a3;" horiz-adv-x="1290" 
d="M1370 1333q-1 -12 -9.5 -19t-19.5 -7h-723q-10 0 -10 -11l-61 -501q-1 -4 1 -7.5t7 -3.5h504q11 0 17 -7t5 -19l-10 -74q-3 -27 -29 -27h-503q-11 0 -11 -10l-30 -256q-3 -10 8 -10h291q24 0 24 -27l-6 -43q-1 -12 -9.5 -19t-19.5 -7h-292q-11 0 -11 -11l-30 -247
q-1 -12 -9.5 -19.5t-19.5 -7.5h-90q-26 0 -23 27l31 247q0 11 -8 11h-127q-11 0 -17.5 7t-5.5 19l6 43q3 27 29 27h125q9 0 12 10l125 1016q3 27 29 27h846q25 0 22 -27z" />
    <glyph glyph-name="Euro" unicode="&#x20ac;" horiz-adv-x="1263" 
d="M696 111q108 0 188 61t109 166q7 27 31 22l86 -16q24 -5 18 -31q-41 -152 -161 -241.5t-285 -89.5q-188 0 -287 113t-76 300l17 148q3 10 -8 10h-131q-26 0 -23 27l4 34q1 12 9.5 19.5t19.5 7.5h133q10 0 10 10l17 127q0 10 -11 10h-131q-11 0 -17 7.5t-5 19.5l4 35
q1 12 10 19.5t21 7.5h131q10 0 10 10l18 153q23 186 149.5 298t315.5 112q169 0 268 -91t99 -245q0 -28 -27 -31l-92 -12q-11 -2 -18 4.5t-7 18.5q-2 105 -66.5 167t-172.5 62q-123 0 -207.5 -76.5t-99.5 -202.5l-19 -157q0 -10 8 -10h471q14 0 19.5 -8.5t-0.5 -22.5
l-17 -37q-9 -21 -32 -21h-451q-9 0 -12 -10l-14 -127q-3 -10 8 -10h403q14 0 19.5 -8.5t-0.5 -22.5l-17 -37q-9 -20 -33 -20h-383q-9 0 -12 -10l-18 -154q-15 -126 50 -202t187 -76z" />
    <glyph glyph-name="uni20BA" unicode="&#x20ba;" horiz-adv-x="1265" 
d="M1020 522q3 27 29 27h90q11 0 17 -7.5t3 -19.5q-22 -127 -95.5 -235.5t-200 -184t-285.5 -92.5q-102 -13 -201 -10q-26 0 -23 27l76 604q0 5 -4 7t-8 1l-193 -53q-27 -7 -30 16l-5 37q-3 29 21 35l223 61q8 4 8 10l17 119q0 4 -4 7t-9 1l-192 -53q-28 -7 -31 17l-4 38
q-3 28 23 35l221 62q8 4 10 10l51 426q3 27 29 27h90q26 0 23 -27l-48 -381q0 -5 3.5 -7t7.5 -1l276 76q29 7 29 -17l6 -39q3 -26 -22 -32l-304 -86q-10 -5 -10 -11l-14 -118q0 -12 10 -9l277 76q25 6 28 -16l6 -37q3 -29 -22 -35l-303 -84q-11 -6 -11 -10l-65 -539
q-3 -10 12 -10q199 12 333.5 123t164.5 272z" />
    <glyph glyph-name="uni20BD" unicode="&#x20bd;" horiz-adv-x="1388" 
d="M961 645h-386q-10 0 -10 -10l-20 -166q-3 -10 8 -10h471q26 0 23 -27l-7 -41q-3 -26 -28 -26h-471q-11 0 -11 -11l-41 -327q-3 -27 -28 -27h-90q-11 0 -17.5 7.5t-5.5 19.5l41 327q0 11 -8 11h-164q-25 0 -22 26l6 41q3 27 28 27h162q12 0 12 10l21 166q0 10 -8 10h-164
q-26 0 -23 27l9 67q1 12 9 19.5t19 7.5h164q10 0 10 10l78 633q1 12 9.5 19.5t19.5 7.5h518q173 0 267.5 -110t72.5 -288q-22 -177 -145.5 -285t-298.5 -108zM657 1309q-8 0 -12 -11l-63 -522q0 -10 8 -10h377q120 0 201 73.5t96 196.5q15 125 -48 199t-184 74h-375z" />
    <glyph glyph-name="uni2113" unicode="&#x2113;" horiz-adv-x="995" 
d="M567 96q92 0 166 58q24 18 37 -4l23 -48q10 -22 -7 -36q-41 -38 -108 -60t-141 -22q-130 0 -190.5 83.5t-41.5 233.5l23 197q0 16 -13 6l-73 -51q-23 -18 -33 8l-19 45q-6 22 15 37q24 19 70.5 52t62.5 44q8 4 8 12l45 379q18 158 112.5 284.5t223.5 135.5q105 7 165 -70
t46 -198q-8 -66 -39 -131.5t-72.5 -119.5t-105 -114t-120 -105t-134.5 -102q-8 -4 -8 -12l-33 -279q-26 -223 141 -223zM508 1012l-31 -258q0 -7 3.5 -9t8.5 3q150 114 237 215t99 208q9 78 -21 127.5t-91 42.5q-72 -9 -130 -99t-75 -230z" />
    <glyph glyph-name="trademark" unicode="&#x2122;" horiz-adv-x="1306" 
d="M197 1354q-26 0 -23 26l2 27q1 12 9.5 19.5t19.5 7.5h448q26 0 23 -27l-4 -27q-3 -26 -29 -26h-174q-8 0 -12 -11l-74 -602q-3 -26 -29 -26h-37q-11 0 -17 7t-5 19l74 602q1 4 -1.5 7.5t-7.5 3.5h-163zM1249 1417q11 17 33 17h41q11 0 17.5 -7.5t5.5 -19.5l-82 -666
q-1 -12 -9.5 -19t-19.5 -7h-37q-25 0 -22 26l63 523q2 6 -2.5 8t-7.5 -4l-156 -205q-13 -16 -35 -16h-2q-19 0 -30 16l-105 205q-3 6 -7.5 4t-4.5 -8l-66 -523q-3 -26 -28 -26h-37q-26 0 -23 26l82 666q3 27 29 27h41q23 0 31 -17l126 -250q6 -13 15 0z" />
    <glyph glyph-name="uni2126" unicode="&#x2126;" horiz-adv-x="1273" 
d="M129 0q-26 0 -23 27l9 73q2 12 10 19.5t20 7.5h154q7 0 9 3.5t-3 8.5q-72 56 -104 147t-17 206l60 483q26 214 171.5 344.5t358.5 130.5q215 0 328.5 -130.5t87.5 -344.5l-60 -483q-13 -115 -67.5 -206t-140.5 -147q-7 -5 -5.5 -8.5t7.5 -3.5h157q11 0 17.5 -7.5
t5.5 -19.5l-10 -73q-3 -27 -29 -27h-360q-11 0 -17.5 7.5t-5.5 19.5l10 77q3 23 27 29q94 25 173 117.5t95 220.5l64 508q19 155 -61.5 249.5t-231.5 94.5q-149 0 -251.5 -94.5t-121.5 -249.5l-63 -508q-16 -128 40.5 -220.5t145.5 -117.5q21 -7 18 -29l-10 -77
q-1 -12 -9.5 -19.5t-19.5 -7.5h-358z" />
    <glyph glyph-name="estimated" unicode="&#x212e;" horiz-adv-x="1738" 
d="M1006 1450q209 0 363.5 -95.5t226.5 -264t46 -379.5q0 -9 -26 -9h-1237q-9 0 -12 -10l-45 -377q-2 -4 2 -12q75 -124 207.5 -194t302.5 -70q190 0 357.5 93t268.5 249q15 18 33 18h12q15 0 19.5 -8.5t-4.5 -21.5q-110 -175 -296 -280t-397 -105q-208 0 -362.5 95
t-227 261t-47.5 371q26 210 140 379t291.5 264.5t384.5 95.5zM426 1130q-4 -8 -4 -12l-43 -350q-3 -10 8 -10h1071q10 0 10 10l43 346q0 8 -2 12q-75 127 -207 198t-303 71q-169 0 -318 -70.5t-255 -194.5z" />
    <glyph glyph-name="oneeighth" unicode="&#x215b;" horiz-adv-x="1558" 
d="M309 600q-3 -27 -28 -27h-50q-25 0 -22 27l88 723q1 5 -2 8t-8 2l-62 -16q-13 -3 -19.5 3.5t-4.5 20.5l2 25q3 20 24 31l68 30q17 7 33 7h59q26 0 23 -27zM1190 1415q13 19 31 19h53q15 0 18 -10t-6 -23l-1007 -1383q-15 -18 -33 -18h-56q-15 0 -18 10t6 23zM1411 457
q-12 -6 -2 -13q54 -37 72 -106q7 -44 0 -100t-25 -97q-30 -71 -97.5 -114t-154.5 -43q-84 0 -140 42t-71 115q-11 57 -4 99q6 42 29 96q35 72 96 106q12 6 2 13q-55 43 -67 102q-14 38 -9 82q3 42 29 86q72 141 244 141q85 0 140 -38t73 -105q10 -35 6 -82q-5 -32 -27 -82
q-38 -68 -94 -102zM1139 633q-2 -12 2 -45q6 -44 38 -70t87 -26q108 0 145 81q4 6 12 31q1 4 3.5 14.5t3.5 14.5q0 35 -3 47q-6 46 -39.5 71t-87.5 25q-104 0 -147 -98q-11 -27 -14 -45zM1366 182q7 19 12 64q4 36 4 57q-5 48 -39.5 78.5t-87.5 30.5q-52 0 -89.5 -29.5
t-57.5 -79.5q-10 -30 -14 -59q-6 -29 0 -62q3 -48 35 -78t85 -30t93.5 30t58.5 78z" />
    <glyph glyph-name="threeeighths" unicode="&#x215c;" horiz-adv-x="1757" 
d="M584 707q-77 -132 -236 -132q-84 0 -139 45.5t-70 122.5q-8 34 -4 80q3 27 29 27h49q25 0 25 -27q-3 -26 0 -49q5 -48 37.5 -77t84.5 -29q85 0 129 71q30 46 39 115q10 81 -10 127q-28 72 -110 72q-18 0 -33 -6q-24 -9 -35 8l-18 28q-11 19 4 37l221 223q10 13 -2 13
h-312q-11 0 -17 7t-5 19l4 37q1 12 10 19.5t21 7.5h424q25 0 22 -27l-4 -45q-3 -16 -16 -33l-201 -206q-8 -13 4 -15q106 -11 143 -112q22 -66 11 -156q-8 -83 -45 -145zM1389 1415q13 19 30 19h54q15 0 18 -10t-6 -23l-1008 -1383q-15 -18 -33 -18h-55q-15 0 -18 10t6 23z
M1610 457q-12 -6 -2 -13q53 -36 71 -106q7 -44 0 -100q-8 -59 -24 -97q-30 -71 -97.5 -114t-154.5 -43q-84 0 -140 42t-71 115q-11 57 -4 99q6 42 29 96q35 72 96 106q12 6 2 13q-57 44 -68 102q-13 36 -8 82q3 42 29 86q72 141 243 141q85 0 140 -38t73 -105q11 -38 7 -82
q-5 -32 -27 -82q-38 -68 -94 -102zM1337 633q-2 -12 2 -45q6 -44 38 -70t87 -26q109 0 146 81q4 6 12 31q1 4 3 14.5t3 14.5q0 39 -2 47q-6 46 -39.5 71t-87.5 25q-104 0 -147 -98q-13 -30 -15 -45zM1565 182q7 19 12 64q4 36 4 57q-5 48 -39.5 78.5t-87.5 30.5
q-52 0 -89.5 -29.5t-57.5 -79.5q-12 -34 -15 -59q-6 -29 0 -62q3 -48 35.5 -78t85.5 -30t93.5 30t58.5 78z" />
    <glyph glyph-name="fiveeighths" unicode="&#x215d;" horiz-adv-x="1703" 
d="M1333 1415q16 19 33 19h53q15 0 18.5 -10t-5.5 -23l-1008 -1383q-15 -18 -33 -18h-55q-15 0 -18 10t6 23zM575 700q-37 -67 -98.5 -103t-140.5 -36q-86 0 -141 44.5t-70 119.5q-4 23 -4 63q0 27 26 27h54q22 0 22 -24l4 -31q3 -50 35 -78.5t84 -28.5q88 0 133 80
q26 42 35 103q6 67 -8 108q-25 78 -113 78q-44 0 -81.5 -19t-57.5 -53q-17 -20 -33 -20h-57q-26 0 -23 26l56 449q3 27 28 27h406q25 0 22 -27l-4 -37q-1 -12 -9 -19.5t-19 -7.5h-324q-10 0 -10 -10l-31 -256q-2 -6 2 -8t8 2q64 43 152 43q146 0 190 -135q18 -59 6 -139
q-9 -75 -39 -138zM1556 457q-14 -7 -2 -13q55 -37 70 -106q9 -43 2 -100q-8 -59 -24 -97q-31 -72 -98.5 -114.5t-153.5 -42.5q-85 0 -140.5 42t-70.5 115q-12 51 -4 99q3 37 28 96q35 71 94 106q14 7 5 13q-56 43 -70 102q-14 46 -6 82q3 42 26 86q72 141 246 141
q85 0 140.5 -38t70.5 -105q13 -38 6 -82q-2 -34 -24 -82q-36 -64 -95 -102zM1284 633q-2 -12 2 -45q6 -44 38 -70t87 -26q108 0 145 81q10 25 11 31q6 12 6 29q5 28 0 47q-6 46 -39.5 71t-87.5 25q-108 0 -148 -98q-11 -27 -14 -45zM1509 182q11 22 15 64q4 36 4 57
q-5 48 -39.5 78.5t-87.5 30.5t-91.5 -30t-56.5 -79q-13 -39 -16 -59q-3 -32 2 -62q3 -48 35.5 -78t85.5 -30t93.5 30t55.5 78z" />
    <glyph glyph-name="seveneighths" unicode="&#x215e;" horiz-adv-x="1579" 
d="M293 594q-9 -21 -33 -21h-53q-12 0 -17.5 8.5t0.5 22.5l351 727q6 12 -6 12h-293q-11 0 -11 -10l-8 -59q-3 -27 -28 -27h-31q-26 0 -23 27l17 133q3 27 28 27h453q26 0 23 -27l-7 -47q-4 -23 -10 -33zM1208 1415q16 19 33 19h53q15 0 18.5 -10t-5.5 -23l-1008 -1383
q-15 -18 -33 -18h-55q-15 0 -18 10t6 23zM1432 457q-16 -6 -2 -13q54 -37 69 -106q9 -43 2 -100q-7 -53 -26 -97q-30 -71 -96.5 -114t-153.5 -43q-85 0 -140 42t-73 115q-10 52 -2 99q3 37 28 96q34 70 95 106q14 7 2 13q-53 41 -68 102q-13 41 -8 82q7 46 28 86
q72 141 244 141q87 0 142.5 -38t70.5 -105q12 -44 6 -82q-2 -34 -24 -82q-37 -65 -94 -102zM1159 633q-2 -12 2 -45q6 -44 38 -70t87 -26q109 0 146 81q8 21 10 31q6 12 6 29q5 28 0 47q-6 46 -39.5 71t-87.5 25q-107 0 -147 -98q-15 -26 -15 -45zM1384 182q11 29 15 64
q4 36 4 57q-5 48 -39.5 78.5t-87.5 30.5t-91.5 -30t-56.5 -79q-12 -28 -16 -59q-3 -29 0 -62q3 -48 36.5 -78t86.5 -30t93.5 30t55.5 78z" />
    <glyph glyph-name="partialdiff" unicode="&#x2202;" horiz-adv-x="1163" 
d="M967 1278q48 -78 71.5 -187.5t21 -216t-15.5 -217.5q-95 -673 -552 -673q-189 0 -288.5 120t-74.5 324q18 140 91.5 246.5t177 160t220.5 52.5q171 -3 283 -115q3 -3 6 -3.5t4.5 1.5t1.5 6q15 276 -63 408q-61 110 -191 125q-109 14 -237 -58q-26 -17 -33 13l-20 75
q-6 23 16 35q145 86 299 72q188 -15 283 -168zM514 111q297 0 375 454q3 7 0 13q-32 82 -104 133.5t-169 50.5q-129 0 -227.5 -91.5t-116.5 -238.5q-19 -142 49 -231.5t193 -89.5z" />
    <glyph glyph-name="uni2206" unicode="&#x2206;" horiz-adv-x="1267" 
d="M49 0q-25 0 -22 27l10 84q2 12 10 32l658 1270q9 21 30 21h68q22 0 28 -21l345 -1272q4 -20 2 -32l-11 -82q-3 -27 -28 -27h-1090zM184 139q-3 -5 -1 -8.5t7 -3.5h838q5 0 8 4t2 8l-286 1094q-3 16 -13 0z" />
    <glyph glyph-name="product" unicode="&#x220f;" horiz-adv-x="1296" 
d="M1249 1638q26 0 23 -26l-244 -1995q-1 -12 -9.5 -19.5t-19.5 -7.5h-90q-25 0 -22 27l231 1884q0 10 -8 10h-627q-10 0 -10 -10l-231 -1884q-1 -12 -10 -19.5t-21 -7.5h-88q-26 0 -23 27l244 1995q3 26 31 26h874z" />
    <glyph glyph-name="summation" unicode="&#x2211;" horiz-adv-x="1216" 
d="M123 -408q-26 0 -23 27l11 80q0 17 12 35l582 876q5 10 2 15l-381 727q-10 16 -7 32l11 82q3 27 28 27h861q25 0 22 -27l-10 -73q-3 -27 -29 -27h-727q-6 0 -7.5 -4t1.5 -8l383 -717q11 -17 -2 -37l-584 -870q-6 -13 6 -13h727q26 0 23 -26l-8 -72q-3 -27 -29 -27h-862z
" />
    <glyph glyph-name="minus" unicode="&#x2212;" horiz-adv-x="993" 
d="M135 578q-25 0 -22 26l8 74q1 12 9.5 19.5t19.5 7.5h786q25 0 22 -27l-8 -74q-3 -26 -28 -26h-787z" />
    <glyph glyph-name="uni2215" unicode="&#x2215;" horiz-adv-x="960" 
d="M51 0q-14 0 -17.5 9t3.5 22l860 1384q13 19 35 19h74q31 0 14 -31l-856 -1385q-10 -18 -35 -18h-78z" />
    <glyph glyph-name="uni2219" unicode="&#x2219;" horiz-adv-x="614" 
d="M317 399q-95 0 -153.5 70.5t-46.5 167.5q10 98 86 166.5t172 68.5q94 0 153 -68.5t47 -166.5q-12 -97 -88 -167.5t-170 -70.5z" />
    <glyph glyph-name="radical" unicode="&#x221a;" horiz-adv-x="1464" 
d="M260 -410q-23 0 -29 21l-163 717q-6 22 20 32l84 27q25 6 31 -16l119 -529q3 -6 7.5 -6t6.5 6l672 1753q9 23 30 23h400q25 0 22 -27l-8 -71q-3 -27 -29 -27h-305q-6 0 -10 -8l-719 -1872q-9 -23 -31 -23h-98z" />
    <glyph glyph-name="infinity" unicode="&#x221e;" horiz-adv-x="1462" 
d="M1149 979q137 0 215 -94.5t61 -233.5q-18 -139 -118.5 -231t-243.5 -92q-106 0 -177 53.5t-134 159.5q-5 8 -13 0q-86 -99 -169.5 -156t-182.5 -57q-129 0 -207 94.5t-61 232.5t118 231t236 93q104 0 170.5 -54.5t126.5 -156.5q4 -10 16 2q96 107 182.5 158t180.5 51z
M401 444q75 0 139.5 52t145.5 153q3 6 0 15q-54 104 -101.5 151t-125.5 47q-89 0 -152 -58.5t-74 -148.5q-10 -90 38 -150.5t130 -60.5zM1077 444q94 0 157.5 58t74.5 149q12 92 -36 151.5t-136 59.5q-79 0 -148 -49t-153 -151q-5 -8 -2 -17q58 -105 109 -153t134 -48z" />
    <glyph glyph-name="integral" unicode="&#x222b;" horiz-adv-x="825" 
d="M6 -410q-28 0 -22 27l6 74q3 26 28 26h45q109 0 155.5 50.5t60.5 171.5l155 1155q11 86 30 142.5t47.5 96t76.5 60.5t108 30.5t152 10.5q25 0 22 -27l-8 -74q-3 -26 -28 -26h-41q-111 0 -157.5 -50.5t-62.5 -171.5l-155 -1155q-11 -86 -29.5 -142.5t-47 -96t-76 -60.5
t-107.5 -30.5t-152 -10.5z" />
    <glyph glyph-name="approxequal" unicode="&#x2248;" horiz-adv-x="995" 
d="M737 743q-42 0 -81.5 12.5t-57.5 23t-55 34.5q-87 53 -150 53q-96 0 -157 -80q-18 -21 -37 -6l-41 31q-20 17 -6 37q40 67 107 107t144 40q78 0 166 -53q3 -2 18.5 -12t20 -13t19 -11.5t21.5 -11.5t21 -8.5t25 -7.5t25 -4t29 -2q41 0 72 20t63 58q18 21 37 6l49 -34
q20 -17 6 -37q-99 -142 -238 -142zM682 299q-41 0 -81 12.5t-57 22.5t-57 35q-83 53 -149 53q-97 0 -158 -80q-16 -22 -35 -6l-43 31q-18 15 -6 36q40 67 108.5 107.5t145.5 40.5q35 0 67 -8.5t50 -18t47 -26.5q4 -3 18.5 -12.5t20 -13t19 -11t21 -11t21 -9t24.5 -7.5t25 -4
t29 -2q42 0 72 19.5t65 58.5q15 21 37 6l49 -35q19 -16 7 -37q-45 -64 -107 -102.5t-133 -38.5z" />
    <glyph glyph-name="notequal" unicode="&#x2260;" horiz-adv-x="993" 
d="M979 838q-3 -27 -29 -27h-288q-9 0 -13 -8l-164 -281q-4 -12 7 -12h421q11 0 17.5 -7.5t5.5 -19.5l-10 -73q-3 -27 -29 -27h-485q-9 0 -13 -8l-92 -160q-13 -20 -35 -20h-39q-15 0 -19.5 8.5t3.5 21.5l84 146q3 5 1 8.5t-7 3.5h-184q-26 0 -23 27l8 73q1 12 10 19.5
t21 7.5h248q8 0 12 8l164 281q4 12 -6 12h-381q-26 0 -23 27l9 73q1 12 9 19.5t19 7.5h447q8 0 12 8l108 187q10 20 33 20h41q15 0 20 -8.5t-3 -22.5l-101 -172q-3 -4 -1 -8t7 -4h224q25 0 22 -27z" />
    <glyph glyph-name="lessequal" unicode="&#x2264;" horiz-adv-x="993" 
d="M909 266q-1 -15 -10.5 -20.5t-21.5 0.5l-744 377q-17 10 -14 32l10 86q3 24 25 33l833 377q14 6 22 0t7 -21l-12 -86q0 -18 -23 -30l-702 -309q-13 -7 0 -13l624 -309q20 -12 17 -31zM879 27q-3 -27 -29 -27h-787q-25 0 -22 27l8 73q1 12 10 19.5t21 7.5h786q26 0 23 -27
z" />
    <glyph glyph-name="greaterequal" unicode="&#x2265;" horiz-adv-x="993" 
d="M98 246q-31 -12 -28 20l12 86q0 20 22 31l703 309q13 6 0 13l-625 309q-19 9 -16 30l10 86q1 15 11 21t22 0l741 -377q20 -10 17 -33l-11 -86q-3 -23 -24 -32zM63 0q-25 0 -22 27l8 73q1 12 10 19.5t21 7.5h786q26 0 23 -27l-10 -73q-3 -27 -29 -27h-787z" />
    <glyph glyph-name="lozenge" unicode="&#x25ca;" horiz-adv-x="972" 
d="M401 -94q-19 0 -26 20l-244 772q-5 17 4 37l436 772q11 21 31 21h62q21 0 28 -21l246 -772q6 -20 -4 -37l-434 -772q-13 -20 -33 -20h-66zM451 72q3 -13 10 0l348 639q2 6 0 12l-188 639q-7 13 -13 0l-346 -639q-4 -6 -2 -12z" />
    <glyph glyph-name="i.loclTRK" horiz-adv-x="438" 
d="M326 1221q-41 0 -64 25t-18 65q5 38 33.5 64t68.5 26q38 0 59.5 -25.5t16.5 -64.5q-6 -40 -32.5 -65t-63.5 -25zM133 0q-25 0 -22 27l120 983q3 26 29 26h90q26 0 23 -26l-121 -983q-1 -12 -9.5 -19.5t-19.5 -7.5h-90z" />
    <glyph glyph-name="a.alt" horiz-adv-x="1015" 
d="M596 1053q178 0 265.5 -94t68.5 -250l-84 -682q-1 -12 -9.5 -19.5t-19.5 -7.5h-90q-25 0 -22 27l8 73q2 6 -2.5 8t-8.5 -4q-126 -120 -325 -120q-65 0 -120.5 17t-98 51.5t-62.5 93.5t-10 137q19 154 138.5 242.5t312.5 88.5h229q8 0 12 11l8 75q13 105 -36 165.5
t-168 60.5q-93 0 -156.5 -37.5t-87.5 -102.5q-9 -23 -33 -20l-96 12q-27 3 -21 23q34 113 145 182.5t263 69.5zM424 109q75 0 143.5 25t117 77t56.5 121l21 157q0 11 -8 11h-209q-133 0 -218.5 -55.5t-97.5 -153.5q-11 -90 44 -136t151 -46z" />
    <glyph glyph-name="a.sc" horiz-adv-x="1044" 
d="M827 0q-21 0 -24 23l-37 190q-4 8 -10 8h-492q-4 0 -12 -8l-84 -190q-9 -23 -31 -23h-88q-12 0 -18 9t0 22l508 1128q7 23 30 23h115q24 0 27 -23l231 -1128q2 -14 -6 -22.5t-21 -8.5h-88zM313 352q-3 -12 6 -12h410q10 0 10 12l-127 656q0 5 -2 7t-5 0t-5 -7z" />
    <glyph glyph-name="aacute.sc" horiz-adv-x="1044" 
d="M829 1589q13 0 17 -9.5t-4 -23.5l-154 -210q-16 -19 -33 -19h-69q-15 0 -19.5 9.5t4.5 23.5l140 211q12 18 32 18h86zM827 0q-21 0 -24 23l-37 190q-4 8 -10 8h-492q-4 0 -12 -8l-84 -190q-9 -23 -31 -23h-88q-12 0 -18 9t0 22l508 1128q7 23 30 23h115q24 0 27 -23
l231 -1128q2 -14 -6 -22.5t-21 -8.5h-88zM313 352q-3 -12 6 -12h410q10 0 10 12l-127 656q0 5 -2 7t-5 0t-5 -7z" />
    <glyph glyph-name="abreve.sc" horiz-adv-x="1044" 
d="M635 1260q-83 0 -138 54t-55 136q0 12 7.5 19.5t19.5 7.5h37q22 0 22 -25q2 -50 35 -82.5t82 -32.5q47 0 87.5 32.5t55.5 82.5q6 25 29 25h37q26 0 23 -27q-20 -82 -88.5 -136t-153.5 -54zM827 0q-21 0 -24 23l-37 190q-4 8 -10 8h-492q-4 0 -12 -8l-84 -190
q-9 -23 -31 -23h-88q-12 0 -18 9t0 22l508 1128q7 23 30 23h115q24 0 27 -23l231 -1128q2 -14 -6 -22.5t-21 -8.5h-88zM313 352q-3 -12 6 -12h410q10 0 10 12l-127 656q0 5 -2 7t-5 0t-5 -7z" />
    <glyph glyph-name="uni01CE.sc" horiz-adv-x="1044" 
d="M723 1307q-17 -17 -35 -17h-102q-17 0 -31 17l-123 211q-6 13 1 22.5t22 9.5h59q18 0 31 -16l96 -164q6 -8 14 0l138 164q13 16 32 16h60q15 0 18.5 -9t-6.5 -23zM827 0q-21 0 -24 23l-37 190q-4 8 -10 8h-492q-4 0 -12 -8l-84 -190q-9 -23 -31 -23h-88q-12 0 -18 9t0 22
l508 1128q7 23 30 23h115q24 0 27 -23l231 -1128q2 -14 -6 -22.5t-21 -8.5h-88zM313 352q-3 -12 6 -12h410q10 0 10 12l-127 656q0 5 -2 7t-5 0t-5 -7z" />
    <glyph glyph-name="acircumflex.sc" horiz-adv-x="1044" 
d="M670 1493q-4 11 -15 0l-137 -164q-13 -16 -33 -16h-63q-17 0 -20 10.5t8 22.5l180 208q14 17 35 17h92q23 0 31 -17l131 -208q8 -12 2 -22.5t-23 -10.5h-63q-19 0 -29 16zM827 0q-21 0 -24 23l-37 190q-4 8 -10 8h-492q-4 0 -12 -8l-84 -190q-9 -23 -31 -23h-88
q-12 0 -18 9t0 22l508 1128q7 23 30 23h115q24 0 27 -23l231 -1128q2 -14 -6 -22.5t-21 -8.5h-88zM313 352q-3 -12 6 -12h410q10 0 10 12l-127 656q0 5 -2 7t-5 0t-5 -7z" />
    <glyph glyph-name="adieresis.sc" horiz-adv-x="1044" 
d="M483 1374q-43 0 -66.5 26.5t-17.5 67.5q5 41 35.5 69t71.5 28q39 0 62 -27.5t18 -69.5q-4 -41 -33.5 -67.5t-69.5 -26.5zM817 1374q-43 0 -65.5 26.5t-16.5 67.5q5 42 34.5 69.5t70.5 27.5t64 -27.5t18 -69.5q-4 -41 -34 -67.5t-71 -26.5zM827 0q-21 0 -24 23l-37 190
q-4 8 -10 8h-492q-4 0 -12 -8l-84 -190q-9 -23 -31 -23h-88q-12 0 -18 9t0 22l508 1128q7 23 30 23h115q24 0 27 -23l231 -1128q2 -14 -6 -22.5t-21 -8.5h-88zM313 352q-3 -12 6 -12h410q10 0 10 12l-127 656q0 5 -2 7t-5 0t-5 -7z" />
    <glyph glyph-name="agrave.sc" horiz-adv-x="1044" 
d="M690 1360q5 -14 -1 -23.5t-21 -9.5h-70q-18 0 -27 19l-102 210q-6 14 -0.5 23.5t20.5 9.5h86q21 0 27 -18zM827 0q-21 0 -24 23l-37 190q-4 8 -10 8h-492q-4 0 -12 -8l-84 -190q-9 -23 -31 -23h-88q-12 0 -18 9t0 22l508 1128q7 23 30 23h115q24 0 27 -23l231 -1128
q2 -14 -6 -22.5t-21 -8.5h-88zM313 352q-3 -12 6 -12h410q10 0 10 12l-127 656q0 5 -2 7t-5 0t-5 -7z" />
    <glyph glyph-name="amacron.sc" horiz-adv-x="1044" 
d="M903 1466q26 0 23 -26l-6 -51q-1 -12 -9.5 -19.5t-19.5 -7.5h-483q-26 0 -23 27l6 51q1 12 9.5 19t19.5 7h483zM827 0q-21 0 -24 23l-37 190q-4 8 -10 8h-492q-4 0 -12 -8l-84 -190q-9 -23 -31 -23h-88q-12 0 -18 9t0 22l508 1128q7 23 30 23h115q24 0 27 -23l231 -1128
q2 -14 -6 -22.5t-21 -8.5h-88zM313 352q-3 -12 6 -12h410q10 0 10 12l-127 656q0 5 -2 7t-5 0t-5 -7z" />
    <glyph glyph-name="aogonek.sc" horiz-adv-x="1089" 
d="M913 -287q27 7 27 -20l2 -33q0 -25 -24 -31q-37 -9 -73.5 -9.5t-72 9t-60 38.5t-28.5 75q-17 130 137 246q14 11 13 12h-7q-21 0 -24 23l-37 190q-4 8 -10 8h-492q-4 0 -12 -8l-84 -190q-9 -23 -31 -23h-88q-12 0 -18 9t0 22l508 1128q7 23 30 23h115q24 0 27 -23
l231 -1128l4 -31h-2q-74 -50 -118 -106.5t-38 -110.5q3 -47 38 -63.5t87 -6.5zM313 352q-3 -12 6 -12h410q10 0 10 12l-127 656q0 5 -2 7t-5 0t-5 -7z" />
    <glyph glyph-name="aring.sc" horiz-adv-x="1044" 
d="M641 1311q-88 0 -140.5 61t-41.5 150q11 88 78 148.5t155 60.5t140.5 -60.5t41.5 -148.5q-10 -89 -77.5 -150t-155.5 -61zM684 1653q-54 0 -96.5 -38t-48.5 -93q-7 -56 25 -93.5t87 -37.5q53 0 95.5 37.5t48.5 93.5q6 55 -26 93t-85 38zM827 0q-21 0 -24 23l-37 190
q-4 8 -10 8h-492q-4 0 -12 -8l-84 -190q-9 -23 -31 -23h-88q-12 0 -18 9t0 22l508 1128q7 23 30 23h115q24 0 27 -23l231 -1128q2 -14 -6 -22.5t-21 -8.5h-88zM313 352q-3 -12 6 -12h410q10 0 10 12l-127 656q0 5 -2 7t-5 0t-5 -7z" />
    <glyph glyph-name="atilde.sc" horiz-adv-x="1044" 
d="M575 1448q-30 0 -52.5 -10.5t-47.5 -38.5q-19 -22 -39 -8l-24 20q-17 14 -4 37q72 102 172 102q23 0 45.5 -8.5t33.5 -15t35 -23.5q3 -2 15 -9.5t16.5 -10.5t14 -8.5t16 -8t15 -4.5t15.5 -2q57 0 101 56q18 21 37 8l28 -19q17 -14 4 -37q-38 -57 -87 -83.5t-93 -26.5
q-55 0 -117 49q-19 16 -29 22.5t-24.5 12.5t-30.5 6zM827 0q-21 0 -24 23l-37 190q-4 8 -10 8h-492q-4 0 -12 -8l-84 -190q-9 -23 -31 -23h-88q-12 0 -18 9t0 22l508 1128q7 23 30 23h115q24 0 27 -23l231 -1128q2 -14 -6 -22.5t-21 -8.5h-88zM313 352q-3 -12 6 -12h410
q10 0 10 12l-127 656q0 5 -2 7t-5 0t-5 -7z" />
    <glyph glyph-name="ae.sc" horiz-adv-x="1583" 
d="M1585 1079q-1 -12 -9.5 -19t-19.5 -7h-565q-10 0 -10 -11l-47 -374q0 -11 8 -11h375q25 0 22 -26l-10 -74q-3 -27 -29 -27h-372q-10 0 -13 -10l-47 -383q0 -10 11 -10h563q25 0 22 -27l-8 -73q-1 -12 -10 -19.5t-21 -7.5h-690q-25 0 -22 27l22 184q0 10 -8 10h-401
q-7 0 -15 -8l-125 -195q-9 -18 -30 -18h-103q-15 0 -20 9t4 22l737 1132q13 19 33 19h764q25 0 22 -27zM401 352q-9 -12 7 -12h333q11 0 11 10l79 645q1 7 -3 8.5t-9 -4.5z" />
    <glyph glyph-name="b.sc" horiz-adv-x="1067" 
d="M809 616q-11 -6 -2 -12q169 -81 145 -282q-20 -154 -130.5 -238t-274.5 -84h-410q-25 0 -22 27l139 1128q3 27 29 27h399q168 0 255 -81.5t67 -234.5q-21 -179 -195 -250zM391 1053q-10 0 -10 -11l-45 -366q-3 -10 8 -10h283q96 0 161 52.5t76 137.5q11 89 -41 143
t-149 54h-283zM571 129q96 0 163 57t77 150q12 93 -42 151t-153 58h-286q-10 0 -13 -10l-47 -396q-3 -10 9 -10h292z" />
    <glyph glyph-name="c.sc" horiz-adv-x="1030" 
d="M481 -16q-186 0 -283.5 111t-74.5 298l49 398q23 185 147.5 295t309.5 110t282.5 -107.5t75.5 -287.5q-2 -9 -10.5 -16t-18.5 -7l-90 -4q-12 0 -18.5 3t-5.5 7v11q15 124 -47.5 195.5t-182.5 76.5q-118 6 -202 -70t-99 -202l-49 -410q-15 -125 49 -198.5t183 -73.5
q121 0 202.5 73.5t96.5 198.5q3 24 28 21l88 -5q25 0 25 -10v-8q-23 -182 -147 -290.5t-308 -108.5z" />
    <glyph glyph-name="cacute.sc" horiz-adv-x="1030" 
d="M590 1341q-15 0 -19.5 9.5t4.5 23.5l140 211q13 19 33 19h86q13 0 16 -10t-6 -23l-152 -211q-16 -19 -33 -19h-69zM481 -16q-186 0 -283.5 111t-74.5 298l49 398q23 185 147.5 295t309.5 110t282.5 -107.5t75.5 -287.5q-2 -9 -10.5 -16t-18.5 -7l-90 -4q-12 0 -18.5 3
t-5.5 7v11q15 124 -47.5 195.5t-182.5 76.5q-118 6 -202 -70t-99 -202l-49 -410q-15 -125 49 -198.5t183 -73.5q121 0 202.5 73.5t96.5 198.5q3 24 28 21l88 -5q25 0 25 -10v-8q-23 -182 -147 -290.5t-308 -108.5z" />
    <glyph glyph-name="ccaron.sc" horiz-adv-x="1030" 
d="M590 1305q-21 0 -31 16l-123 211q-7 13 0.5 23t22.5 10h59q19 0 29 -17l98 -164q3 -10 14 0l138 164q14 17 32 17h60q15 0 18.5 -9.5t-6.5 -23.5l-174 -211q-16 -16 -35 -16h-102zM481 -16q-186 0 -283.5 111t-74.5 298l49 398q23 185 147.5 295t309.5 110t282.5 -107.5
t75.5 -287.5q-2 -9 -10.5 -16t-18.5 -7l-90 -4q-12 0 -18.5 3t-5.5 7v11q15 124 -47.5 195.5t-182.5 76.5q-118 6 -202 -70t-99 -202l-49 -410q-15 -125 49 -198.5t183 -73.5q121 0 202.5 73.5t96.5 198.5q3 24 28 21l88 -5q25 0 25 -10v-8q-23 -182 -147 -290.5
t-308 -108.5z" />
    <glyph glyph-name="ccedilla.sc" horiz-adv-x="1030" 
d="M985 791q0 -5 -8.5 -9t-18.5 -4l-90 -4q-12 0 -18.5 3t-5.5 7v11q15 124 -47.5 195.5t-182.5 76.5q-118 6 -202 -70t-99 -202l-49 -410q-15 -125 49 -198.5t183 -73.5q121 0 202.5 73.5t96.5 198.5q3 24 28 21l88 -5q25 0 25 -10v-8q-23 -176 -141 -283.5t-293 -115.5
q-6 0 -8 -4t2 -9q105 -108 63 -229q-16 -46 -47.5 -75t-69.5 -38.5t-74.5 -9t-70.5 9.5q-22 6 -16 31l10 33q6 27 33 20q48 -10 87.5 6.5t53.5 63.5q16 51 -11 106.5t-83 104.5q-2 2 -7 4l-6 2q-127 34 -190.5 137.5t-44.5 255.5l49 398q23 185 147.5 295t309.5 110
t282.5 -107.5t75.5 -287.5z" />
    <glyph glyph-name="cdotaccent.sc" horiz-adv-x="1030" 
d="M649 1360q-40 0 -62 25t-18 65q5 38 34 64t69 26q36 0 57 -25.5t16 -64.5q-4 -39 -31.5 -64.5t-64.5 -25.5zM481 -16q-186 0 -283.5 111t-74.5 298l49 398q23 185 147.5 295t309.5 110t282.5 -107.5t75.5 -287.5q-2 -9 -10.5 -16t-18.5 -7l-90 -4q-12 0 -18.5 3t-5.5 7
v11q15 124 -47.5 195.5t-182.5 76.5q-118 6 -202 -70t-99 -202l-49 -410q-15 -125 49 -198.5t183 -73.5q121 0 202.5 73.5t96.5 198.5q3 24 28 21l88 -5q25 0 25 -10v-8q-23 -182 -147 -290.5t-308 -108.5z" />
    <glyph glyph-name="d.sc" horiz-adv-x="1050" 
d="M137 0q-25 0 -22 27l139 1128q3 27 29 27h397q171 0 263 -91t73 -243l-64 -514q-19 -153 -132.5 -243.5t-284.5 -90.5h-398zM268 137q0 -10 11 -10h276q105 0 175.5 61.5t82.5 163.5l59 475q12 104 -42 165t-160 61h-279q-10 0 -10 -11z" />
    <glyph glyph-name="eth.sc" horiz-adv-x="1159" 
d="M786 1182q172 0 264 -91t72 -243l-61 -514q-20 -153 -134 -243.5t-286 -90.5h-397q-11 0 -17.5 7.5t-5.5 19.5l66 522q0 10 -11 10h-71q-11 0 -17.5 7.5t-5.5 19.5l6 49q1 12 10 19.5t21 7.5h72q10 0 10 10l59 483q3 27 29 27h397zM922 352l57 475q13 104 -42 165
t-161 61h-276q-13 0 -13 -11l-45 -370q-3 -10 9 -10h178q25 0 22 -27l-6 -49q-3 -27 -29 -27h-178q-9 0 -12 -10l-49 -412q-3 -10 8 -10h279q105 0 175.5 61.5t82.5 163.5z" />
    <glyph glyph-name="dcaron.sc" horiz-adv-x="1050" 
d="M592 1298q-19 0 -29 17l-123 211q-7 13 0 23t21 10h59q21 0 31 -17l96 -164q7 -11 15 0l137 164q17 17 35 17h59q15 0 18.5 -9.5t-6.5 -23.5l-176 -211q-14 -17 -33 -17h-104zM137 0q-25 0 -22 27l139 1128q3 27 29 27h397q171 0 263 -91t73 -243l-64 -514
q-19 -153 -132.5 -243.5t-284.5 -90.5h-398zM268 137q0 -10 11 -10h276q105 0 175.5 61.5t82.5 163.5l59 475q12 104 -42 165t-160 61h-279q-10 0 -10 -11z" />
    <glyph glyph-name="dcroat.sc" horiz-adv-x="1159" 
d="M786 1182q172 0 264 -91t72 -243l-61 -514q-20 -153 -134 -243.5t-286 -90.5h-397q-11 0 -17.5 7.5t-5.5 19.5l66 522q0 10 -11 10h-71q-11 0 -17.5 7.5t-5.5 19.5l6 49q1 12 10 19.5t21 7.5h72q10 0 10 10l59 483q3 27 29 27h397zM922 352l57 475q13 104 -42 165
t-161 61h-276q-13 0 -13 -11l-45 -370q-3 -10 9 -10h178q25 0 22 -27l-6 -49q-3 -27 -29 -27h-178q-9 0 -12 -10l-49 -412q-3 -10 8 -10h279q105 0 175.5 61.5t82.5 163.5z" />
    <glyph glyph-name="e.sc" horiz-adv-x="1024" 
d="M1022 1079q-3 -26 -29 -26h-602q-10 0 -10 -11l-47 -374q0 -11 8 -11h416q25 0 22 -26l-8 -74q-1 -12 -9.5 -19.5t-19.5 -7.5h-415q-10 0 -13 -10l-47 -383q0 -10 11 -10h602q11 0 17 -7.5t5 -19.5l-10 -73q-3 -27 -29 -27h-727q-25 0 -22 27l137 1126q1 12 10 19.5
t21 7.5h727q11 0 17 -7.5t5 -19.5z" />
    <glyph glyph-name="eacute.sc" horiz-adv-x="1024" 
d="M823 1608q15 0 18.5 -10t-5.5 -23l-154 -211q-15 -18 -33 -18h-69q-14 0 -18 9t5 23l140 211q9 19 30 19h86zM1022 1079q-3 -26 -29 -26h-602q-10 0 -10 -11l-47 -374q0 -11 8 -11h416q25 0 22 -26l-8 -74q-1 -12 -9.5 -19.5t-19.5 -7.5h-415q-10 0 -13 -10l-47 -383
q0 -10 11 -10h602q11 0 17 -7.5t5 -19.5l-10 -73q-3 -27 -29 -27h-727q-25 0 -22 27l137 1126q1 12 10 19.5t21 7.5h727q11 0 17 -7.5t5 -19.5z" />
    <glyph glyph-name="ecaron.sc" horiz-adv-x="1024" 
d="M717 1325q-13 -16 -33 -16h-104q-19 0 -29 16l-125 211q-6 13 1 23t22 10h59q21 0 31 -17l96 -163q7 -11 14 0l137 163q17 17 35 17h60q14 0 17 -9.5t-7 -23.5zM1022 1079q-3 -26 -29 -26h-602q-10 0 -10 -11l-47 -374q0 -11 8 -11h416q25 0 22 -26l-8 -74
q-1 -12 -9.5 -19.5t-19.5 -7.5h-415q-10 0 -13 -10l-47 -383q0 -10 11 -10h602q11 0 17 -7.5t5 -19.5l-10 -73q-3 -27 -29 -27h-727q-25 0 -22 27l137 1126q1 12 10 19.5t21 7.5h727q11 0 17 -7.5t5 -19.5z" />
    <glyph glyph-name="uni0229.sc" horiz-adv-x="1024" 
d="M1022 1079q-3 -26 -29 -26h-602q-10 0 -10 -11l-47 -374q0 -11 8 -11h416q25 0 22 -26l-8 -74q-1 -12 -9.5 -19.5t-19.5 -7.5h-415q-10 0 -13 -10l-47 -383q0 -10 11 -10h602q11 0 17 -7.5t5 -19.5l-10 -73q-3 -27 -29 -27h-327q-6 0 -8 -4t1 -8q107 -110 62 -230
q-16 -46 -47.5 -75t-69.5 -38.5t-74.5 -8.5t-70.5 10q-23 7 -17 30l11 33q6 27 32 21q49 -10 88.5 6.5t53.5 62.5q30 90 -80 197q-4 4 -10 4h-271q-25 0 -22 27l137 1126q1 12 10 19.5t21 7.5h727q11 0 17 -7.5t5 -19.5z" />
    <glyph glyph-name="ecircumflex.sc" horiz-adv-x="1024" 
d="M664 1511q-2 5 -6 5t-7 -5l-137 -163q-17 -17 -35 -17h-63q-17 0 -20.5 10.5t7.5 22.5l181 209q13 16 34 16h93q22 0 30 -16l131 -209q8 -12 2.5 -22.5t-22.5 -10.5h-64q-18 0 -28 17zM1022 1079q-3 -26 -29 -26h-602q-10 0 -10 -11l-47 -374q0 -11 8 -11h416
q25 0 22 -26l-8 -74q-1 -12 -9.5 -19.5t-19.5 -7.5h-415q-10 0 -13 -10l-47 -383q0 -10 11 -10h602q11 0 17 -7.5t5 -19.5l-10 -73q-3 -27 -29 -27h-727q-25 0 -22 27l137 1126q1 12 10 19.5t21 7.5h727q11 0 17 -7.5t5 -19.5z" />
    <glyph glyph-name="edieresis.sc" horiz-adv-x="1024" 
d="M477 1393q-41 0 -64.5 26.5t-19.5 67.5t35 68.5t72 27.5q40 0 62.5 -27.5t17.5 -68.5q-4 -41 -33.5 -67.5t-69.5 -26.5zM811 1393q-41 0 -64 26.5t-18 67.5t34.5 68.5t70.5 27.5t63.5 -27t17.5 -69q-5 -41 -34 -67.5t-70 -26.5zM1022 1079q-3 -26 -29 -26h-602
q-10 0 -10 -11l-47 -374q0 -11 8 -11h416q25 0 22 -26l-8 -74q-1 -12 -9.5 -19.5t-19.5 -7.5h-415q-10 0 -13 -10l-47 -383q0 -10 11 -10h602q11 0 17 -7.5t5 -19.5l-10 -73q-3 -27 -29 -27h-727q-25 0 -22 27l137 1126q1 12 10 19.5t21 7.5h727q11 0 17 -7.5t5 -19.5z" />
    <glyph glyph-name="edotaccent.sc" horiz-adv-x="1024" 
d="M641 1364q-41 0 -64 25t-18 65q5 38 34 64t69 26q38 0 59 -25.5t16 -64.5q-4 -39 -31.5 -64.5t-64.5 -25.5zM1022 1079q-3 -26 -29 -26h-602q-10 0 -10 -11l-47 -374q0 -11 8 -11h416q25 0 22 -26l-8 -74q-1 -12 -9.5 -19.5t-19.5 -7.5h-415q-10 0 -13 -10l-47 -383
q0 -10 11 -10h602q11 0 17 -7.5t5 -19.5l-10 -73q-3 -27 -29 -27h-727q-25 0 -22 27l137 1126q1 12 10 19.5t21 7.5h727q11 0 17 -7.5t5 -19.5z" />
    <glyph glyph-name="egrave.sc" horiz-adv-x="1024" 
d="M684 1378q6 -13 -0.5 -22.5t-21.5 -9.5h-70q-18 0 -27 18l-102 211q-5 14 0.5 23.5t19.5 9.5h86q21 0 27 -19zM1022 1079q-3 -26 -29 -26h-602q-10 0 -10 -11l-47 -374q0 -11 8 -11h416q25 0 22 -26l-8 -74q-1 -12 -9.5 -19.5t-19.5 -7.5h-415q-10 0 -13 -10l-47 -383
q0 -10 11 -10h602q11 0 17 -7.5t5 -19.5l-10 -73q-3 -27 -29 -27h-727q-25 0 -22 27l137 1126q1 12 10 19.5t21 7.5h727q11 0 17 -7.5t5 -19.5z" />
    <glyph glyph-name="emacron.sc" horiz-adv-x="1024" 
d="M897 1485q26 0 23 -27l-7 -51q-3 -27 -28 -27h-484q-25 0 -22 27l6 51q1 12 10 19.5t21 7.5h481zM1022 1079q-3 -26 -29 -26h-602q-10 0 -10 -11l-47 -374q0 -11 8 -11h416q25 0 22 -26l-8 -74q-1 -12 -9.5 -19.5t-19.5 -7.5h-415q-10 0 -13 -10l-47 -383q0 -10 11 -10
h602q11 0 17 -7.5t5 -19.5l-10 -73q-3 -27 -29 -27h-727q-25 0 -22 27l137 1126q1 12 10 19.5t21 7.5h727q11 0 17 -7.5t5 -19.5z" />
    <glyph glyph-name="eogonek.sc" horiz-adv-x="1024" 
d="M1022 1079q-3 -26 -29 -26h-602q-10 0 -10 -11l-47 -374q0 -11 8 -11h416q25 0 22 -26l-8 -74q-1 -12 -9.5 -19.5t-19.5 -7.5h-415q-10 0 -13 -10l-47 -383q0 -10 11 -10h602q11 0 17 -7.5t5 -19.5l-10 -73q-3 -27 -29 -27h-342q-4 0 -12 -4q-135 -105 -127 -197
q3 -47 38 -63t87 -6q27 7 27 -21l2 -33q0 -23 -23 -30q-38 -9 -74.5 -10t-72.5 8.5t-60 38.5t-28 75q-13 120 116 230q6 4 5 8t-7 4h-256q-25 0 -22 27l137 1126q1 12 10 19.5t21 7.5h727q11 0 17 -7.5t5 -19.5z" />
    <glyph glyph-name="f.sc" horiz-adv-x="960" 
d="M1020 1079q-3 -26 -29 -26h-600q-10 0 -10 -11l-47 -374q0 -11 8 -11h414q25 0 22 -26l-8 -74q-1 -12 -9.5 -19.5t-19.5 -7.5h-413q-10 0 -13 -10l-59 -493q-1 -12 -9.5 -19.5t-19.5 -7.5h-90q-25 0 -22 27l139 1128q3 27 29 27h725q25 0 22 -27z" />
    <glyph glyph-name="g.sc" horiz-adv-x="1097" 
d="M518 -14q-199 0 -302.5 112t-78.5 310l45 366q25 198 156 310t330 112q192 0 294.5 -111t79.5 -303q-3 -22 -28 -22h-88q-25 0 -25 12l2 10q17 136 -51.5 211.5t-200.5 75.5q-134 0 -222.5 -77.5t-106.5 -221.5l-46 -364q-18 -141 53 -217t206 -76q132 0 218 75.5
t103 217.5l8 59q0 10 -10 10h-238q-25 0 -22 27l8 71q1 12 10 19.5t21 7.5h360q26 0 23 -27l-21 -165q-24 -197 -154 -309.5t-323 -112.5z" />
    <glyph glyph-name="gbreve.sc" horiz-adv-x="1097" 
d="M674 1274q-85 0 -140 54t-55 136q0 12 8 19.5t19 7.5h37q22 0 22 -25q3 -50 35.5 -82t81.5 -32q48 0 89 32.5t54 81.5q6 25 29 25h39q11 0 17 -7.5t3 -19.5q-20 -82 -88 -136t-151 -54zM518 -14q-199 0 -302.5 112t-78.5 310l45 366q25 198 156 310t330 112
q192 0 294.5 -111t79.5 -303q-3 -22 -28 -22h-88q-25 0 -25 12l2 10q17 136 -51.5 211.5t-200.5 75.5q-134 0 -222.5 -77.5t-106.5 -221.5l-46 -364q-18 -141 53 -217t206 -76q132 0 218 75.5t103 217.5l8 59q0 10 -10 10h-238q-25 0 -22 27l8 71q1 12 10 19.5t21 7.5h360
q26 0 23 -27l-21 -165q-24 -197 -154 -309.5t-323 -112.5z" />
    <glyph glyph-name="uni0123.sc" horiz-adv-x="1097" 
d="M518 -14q-199 0 -302.5 112t-78.5 310l45 366q25 198 156 310t330 112q192 0 294.5 -111t79.5 -303q-3 -22 -28 -22h-88q-25 0 -25 12l2 10q17 136 -51.5 211.5t-200.5 75.5q-134 0 -222.5 -77.5t-106.5 -221.5l-46 -364q-18 -141 53 -217t206 -76q132 0 218 75.5
t103 217.5l8 59q0 10 -10 10h-238q-25 0 -22 27l8 71q1 12 10 19.5t21 7.5h360q26 0 23 -27l-21 -165q-24 -197 -154 -309.5t-323 -112.5zM352 -393q-14 0 -17.5 9.5t5.5 23.5l139 210q9 19 31 19h86q15 0 18 -9.5t-6 -23.5l-153 -211q-15 -18 -33 -18h-70z" />
    <glyph glyph-name="gdotaccent.sc" horiz-adv-x="1097" 
d="M684 1360q-40 0 -63 25.5t-17 64.5q5 39 33.5 64.5t69.5 25.5q36 0 57 -25.5t16 -64.5q-4 -39 -31.5 -64.5t-64.5 -25.5zM518 -14q-199 0 -302.5 112t-78.5 310l45 366q25 198 156 310t330 112q192 0 294.5 -111t79.5 -303q-3 -22 -28 -22h-88q-25 0 -25 12l2 10
q17 136 -51.5 211.5t-200.5 75.5q-134 0 -222.5 -77.5t-106.5 -221.5l-46 -364q-18 -141 53 -217t206 -76q132 0 218 75.5t103 217.5l8 59q0 10 -10 10h-238q-25 0 -22 27l8 71q1 12 10 19.5t21 7.5h360q26 0 23 -27l-21 -165q-24 -197 -154 -309.5t-323 -112.5z" />
    <glyph glyph-name="h.sc" horiz-adv-x="1103" 
d="M922 1155q2 12 10 19.5t20 7.5h88q26 0 23 -27l-137 -1128q-1 -12 -10 -19.5t-21 -7.5h-88q-26 0 -23 27l60 493q3 10 -8 10h-508q-10 0 -13 -10l-59 -493q-1 -12 -9.5 -19.5t-19.5 -7.5h-90q-25 0 -22 27l139 1128q3 27 29 27h88q25 0 22 -27l-59 -487q0 -11 8 -11h510
q10 0 10 11z" />
    <glyph glyph-name="hbar.sc" horiz-adv-x="1103" 
d="M1196 963q26 0 23 -27l-7 -51q-3 -27 -28 -27h-148q-10 0 -10 -10l-100 -821q-1 -12 -10 -19.5t-21 -7.5h-88q-26 0 -23 27l60 493q3 10 -8 10h-508q-10 0 -13 -10l-59 -493q-1 -12 -9.5 -19.5t-19.5 -7.5h-90q-25 0 -22 27l100 821q3 10 -8 10h-146q-25 0 -22 27l6 51
q1 12 9.5 19.5t19.5 7.5h145q9 0 12 10l23 182q3 27 29 27h88q25 0 22 -27l-20 -182q-3 -10 8 -10h508q9 0 12 10l21 182q2 12 10 19.5t20 7.5h88q26 0 23 -27l-23 -182q0 -10 11 -10h145zM852 657q10 0 10 11l23 180q0 10 -8 10h-510q-11 0 -11 -10l-22 -180q0 -11 8 -11
h510z" />
    <glyph glyph-name="i.sc" horiz-adv-x="442" 
d="M137 0q-25 0 -22 27l137 1126q1 12 10 19.5t21 7.5h88q25 0 22 -27l-137 -1126q-1 -12 -9.5 -19.5t-19.5 -7.5h-90z" />
    <glyph glyph-name="iacute.sc" horiz-adv-x="442" 
d="M289 1346q-15 0 -19.5 9t4.5 23l140 211q13 19 32 19h84q15 0 18.5 -10t-5.5 -23l-154 -211q-12 -18 -31 -18h-69zM137 0q-25 0 -22 27l137 1126q1 12 10 19.5t21 7.5h88q25 0 22 -27l-137 -1126q-1 -12 -9.5 -19.5t-19.5 -7.5h-90z" />
    <glyph glyph-name="icircumflex.sc" horiz-adv-x="442" 
d="M123 1331q-15 0 -18 10.5t8 22.5l180 209q11 16 33 16h94q21 0 29 -16l133 -209q6 -12 0 -22.5t-21 -10.5h-63q-21 0 -31 17l-94 163q-7 11 -15 0l-137 -163q-17 -17 -35 -17h-63zM137 0q-25 0 -22 27l137 1126q1 12 10 19.5t21 7.5h88q25 0 22 -27l-137 -1126
q-1 -12 -9.5 -19.5t-19.5 -7.5h-90z" />
    <glyph glyph-name="idieresis.sc" horiz-adv-x="442" 
d="M184 1393q-41 0 -64.5 26.5t-19.5 67.5q6 41 37 68.5t72 27.5q40 0 62.5 -27.5t17.5 -68.5q-6 -41 -35.5 -67.5t-69.5 -26.5zM518 1393q-41 0 -64 26.5t-18 67.5q6 42 36 69t71 27t63.5 -27.5t16.5 -68.5q-4 -41 -34 -67.5t-71 -26.5zM137 0q-25 0 -22 27l137 1126
q1 12 10 19.5t21 7.5h88q25 0 22 -27l-137 -1126q-1 -12 -9.5 -19.5t-19.5 -7.5h-90z" />
    </font>
</defs>
</svg>
