<?xml version="1.0" standalone="no"?>
<!DOCTYPE svg PUBLIC "-//W3C//DTD SVG 1.1//EN" "http://www.w3.org/Graphics/SVG/1.1/DTD/svg11.dtd" >
<svg xmlns="http://www.w3.org/2000/svg" xmlns:xlink="http://www.w3.org/1999/xlink" version="1.1">
<metadata>
Created by FontForge 20170731 at Mon Jan 18 07:23:53 2021
 By Aleksey,,,
Copyright 2017 The Barlow Project Authors (https://github.com/jpt/barlow)
</metadata>
<defs>
<font id="Barlow-BlackItalic" horiz-adv-x="1095" >
  <font-face 
    font-family="Barlow Black"
    font-weight="900"
    font-style="italic"
    font-stretch="normal"
    units-per-em="2048"
    panose-1="0 0 10 0 0 0 0 0 0 0"
    ascent="1638"
    descent="-410"
    x-height="1065"
    cap-height="1434"
    bbox="-1206.82 -555 2387.19 2007"
    underline-thickness="102"
    underline-position="-307"
    slope="-7"
    unicode-range="U+000D-25CA"
  />
<missing-glyph horiz-adv-x="1015" 
d="M-37 16q-3 -16 12 -16h986q16 0 16 16l172 1401q3 17 -14 17h-983q-17 0 -17 -17zM416 537q-38 0 -35 20l2 21q7 59 39.5 105t74 73.5t82.5 51t70.5 49.5t32.5 56q4 30 -20.5 48t-67.5 18q-48 0 -80 -21t-35 -53q-3 -29 -41 -26l-192 8q-37 3 -37 10l2 8q17 144 134 234
t286 90q164 0 251 -83t70 -220q-7 -57 -32 -102.5t-57.5 -72t-69.5 -52t-68 -43t-53 -43t-25 -54.5q-3 -22 -41 -22h-190zM479 182q-61 0 -98 41t-29 99q6 60 54 101.5t108 41.5q59 0 96.5 -41.5t30.5 -99.5q-6 -58 -54 -100t-108 -42z" />
    <glyph glyph-name="I_J.liga" unicode="IJ" horiz-adv-x="1714" 
d="M76 0q-39 0 -33 39l166 1356q6 39 43 39h297q39 0 33 -39l-166 -1356q-3 -39 -43 -39h-297zM1051 -16q-243 0 -375.5 135t-104.5 356l7 60q6 38 43 38h299q35 0 32 -38l-8 -58q-9 -73 32 -118.5t116 -45.5q77 0 130 45.5t62 118.5l113 918q6 39 43 39h295q38 0 32 -39
l-112 -920q-26 -221 -192.5 -356t-411.5 -135z" />
    <glyph glyph-name="f_f_i.liga" unicode="ffi" horiz-adv-x="1990" 
d="M1817 1098q-95 0 -147 59t-40 156q10 96 77 155.5t163 59.5q97 0 148.5 -59t39.5 -156t-78 -156t-163 -59zM1319 1104l-2 -23q-3 -16 14 -16h160q39 0 33 -39l-27 -229q-6 -39 -43 -39h-162q-16 0 -16 -17l-88 -702q-3 -39 -41 -39h-299q-36 0 -33 39l86 702q3 17 -14 17
h-264q-6 0 -11.5 -5t-5.5 -12l-86 -702q-6 -39 -43 -39h-299q-36 0 -33 39l86 702q3 17 -12 17h-88q-39 0 -33 39l29 229q3 39 41 39h88q15 0 18 16l7 58q22 172 133 239.5t350 55.5h76q35 0 32 -39l-22 -178q-3 -39 -41 -39h-76q-41 -4 -60 -21.5t-24 -52.5l-2 -23
q-3 -16 15 -16h264q15 0 18 16l6 58q22 172 133 239.5t351 55.5h75q36 0 33 -39l-22 -178q-3 -39 -43 -39h-74q-41 -4 -60 -21.5t-24 -52.5zM1534 0q-39 0 -33 39l121 987q3 39 43 39h297q39 0 33 -39l-121 -987q-3 -39 -43 -39h-297z" />
    <glyph glyph-name="f_f_l.liga" unicode="ffl" horiz-adv-x="1966" 
d="M1319 1104l-2 -23q-3 -16 14 -16h160q39 0 33 -39l-27 -229q-6 -39 -43 -39h-162q-16 0 -16 -17l-88 -702q-3 -39 -41 -39h-299q-36 0 -33 39l86 702q3 17 -14 17h-264q-6 0 -11.5 -5t-5.5 -12l-86 -702q-6 -39 -43 -39h-299q-36 0 -33 39l86 702q3 17 -12 17h-88
q-39 0 -33 39l29 229q3 39 41 39h88q15 0 18 16l7 58q22 172 133 239.5t350 55.5h76q35 0 32 -39l-22 -178q-3 -39 -41 -39h-76q-41 -4 -60 -21.5t-24 -52.5l-2 -23q-3 -16 15 -16h264q15 0 18 16l6 58q22 172 133 239.5t351 55.5h75q36 0 33 -39l-22 -178q-3 -39 -43 -39
h-74q-41 -4 -60 -21.5t-24 -52.5zM1653 1395q6 39 43 39h297q38 0 35 -39l-168 -1356q-3 -39 -41 -39h-299q-39 0 -33 39z" />
    <glyph glyph-name="f_i.liga" unicode="fi" horiz-adv-x="1325" 
d="M1153 1108q-96 0 -148 59.5t-40 155.5t78.5 155.5t162.5 59.5t148 -59t41 -156q-12 -97 -78.5 -156t-163.5 -59zM649 1104l-2 -23q-3 -16 15 -16h159q38 0 35 -39l-29 -229q-6 -39 -43 -39h-161q-6 0 -11.5 -5t-5.5 -12l-86 -702q-6 -39 -43 -39h-299q-36 0 -33 39
l86 702q3 17 -12 17h-88q-39 0 -33 39l29 229q3 39 41 39h88q15 0 18 16l7 58q22 172 133 239.5t350 55.5h76q35 0 32 -39l-22 -178q-3 -39 -41 -39h-76q-41 -4 -60 -21.5t-24 -52.5zM868 0q-38 0 -32 39l120 987q3 39 43 39h297q39 0 33 -39l-121 -987q-3 -39 -43 -39h-297
z" />
    <glyph glyph-name="f_l.liga" unicode="fl" horiz-adv-x="1304" 
d="M649 1104l-2 -23q-3 -16 15 -16h159q38 0 35 -39l-29 -229q-6 -39 -43 -39h-161q-6 0 -11.5 -5t-5.5 -12l-86 -702q-6 -39 -43 -39h-299q-36 0 -33 39l86 702q3 17 -12 17h-88q-39 0 -33 39l29 229q3 39 41 39h88q15 0 18 16l7 58q22 172 133 239.5t350 55.5h76
q35 0 32 -39l-22 -178q-3 -39 -41 -39h-76q-41 -4 -60 -21.5t-24 -52.5zM991 1395q6 39 43 39h297q38 0 35 -39l-168 -1356q-3 -39 -41 -39h-299q-39 0 -33 39z" />
    <glyph glyph-name="g_j.liga" unicode="gj" horiz-adv-x="1634" 
d="M1479 1098q-96 0 -148 62t-41 153q10 88 82.5 151.5t157.5 63.5q84 0 141 -63.5t47 -151.5q-11 -90 -78.5 -152.5t-160.5 -62.5zM1118 1065q39 0 33 -39l-109 -887q-14 -109 -51 -197t-88.5 -146.5t-119 -100t-138 -62.5t-150 -29t-151.5 -4t-145 17q-33 7 -27 43l45 260
q6 44 47 31q87 -19 164 -18.5t139.5 37t87.5 106.5q4 10 -5.5 15t-18.5 -1q-72 -53 -185 -53q-317 0 -372 266q-22 101 -4 240q18 152 71 258q64 128 175.5 204t244.5 76t197 -77q4 -5 7.5 -6.5t6 0t2.5 6.5l4 22q3 39 41 39h299zM1163 53l119 973q6 39 43 39h297
q39 0 33 -39l-119 -967q-33 -279 -173 -380t-427 -74q-20 2 -26.5 15t5.5 32l127 227q15 30 37 27q38 -4 55.5 27t28.5 120zM682 403q28 57 37 142q9 86 -6 133q-25 74 -105 74q-67 0 -112 -72q-40 -57 -50 -141q-11 -73 9 -133q27 -72 106 -72q78 0 121 69z" />
    <glyph glyph-name="i_j.liga" unicode="ij" horiz-adv-x="1024" 
d="M365 1108q-96 0 -148.5 59.5t-40.5 155.5t79 155.5t163 59.5t147.5 -59t40.5 -156q-12 -97 -78 -156t-163 -59zM866 1098q-95 0 -147 62t-41 153q10 88 83 151.5t159 63.5q83 0 140.5 -63.5t45.5 -151.5q-11 -90 -79 -152.5t-161 -62.5zM80 0q-39 0 -33 39l121 987
q3 39 43 39h297q39 0 33 -39l-121 -987q-3 -39 -43 -39h-297zM295 -414q-36 3 -33 41l29 242q6 39 47 39q115 -7 158.5 23t54.5 122l119 973q6 39 43 39h299q35 0 32 -39l-118 -967q-12 -99 -31 -169t-52.5 -125.5t-78 -89t-113.5 -55t-153.5 -29t-202.5 -5.5z" />
    <glyph glyph-name="hyphen_hyphen.liga" unicode="&#x2d;&#x2d;" horiz-adv-x="1273" 
d="M94 420q-38 0 -35 39l31 250q6 39 43 39h1110q38 0 35 -39l-31 -250q-6 -39 -43 -39h-1110z" />
    <glyph glyph-name=".notdef" horiz-adv-x="1015" 
d="M-37 16q-3 -16 12 -16h986q16 0 16 16l172 1401q3 17 -14 17h-983q-17 0 -17 -17zM416 537q-38 0 -35 20l2 21q7 59 39.5 105t74 73.5t82.5 51t70.5 49.5t32.5 56q4 30 -20.5 48t-67.5 18q-48 0 -80 -21t-35 -53q-3 -29 -41 -26l-192 8q-37 3 -37 10l2 8q17 144 134 234
t286 90q164 0 251 -83t70 -220q-7 -57 -32 -102.5t-57.5 -72t-69.5 -52t-68 -43t-53 -43t-25 -54.5q-3 -22 -41 -22h-190zM479 182q-61 0 -98 41t-29 99q6 60 54 101.5t108 41.5q59 0 96.5 -41.5t30.5 -99.5q-6 -58 -54 -100t-108 -42z" />
    <glyph glyph-name=".null" horiz-adv-x="0" 
 />
    <glyph glyph-name="nonmarkingreturn" horiz-adv-x="682" 
 />
    <glyph glyph-name="CR" unicode="&#xd;" horiz-adv-x="397" 
 />
    <glyph glyph-name="space" unicode=" " horiz-adv-x="397" 
 />
    <glyph glyph-name="exclam" unicode="!" horiz-adv-x="718" 
d="M270 508q-37 0 -34 39l71 848q0 18 10.5 28.5t28.5 10.5h299q37 0 31 -39l-139 -848q-9 -39 -45 -39h-222zM315 0q-95 0 -150 62t-44 153q12 87 87.5 150t160.5 63q87 0 146.5 -62.5t49.5 -150.5q-11 -90 -82.5 -152.5t-167.5 -62.5z" />
    <glyph glyph-name="quotedbl" unicode="&#x22;" horiz-adv-x="839" 
d="M160 942q-38 0 -35 37l18 414q0 19 11 30t30 11h277q17 0 25.5 -11t5.5 -30l-86 -414q-6 -37 -41 -37h-205zM637 942q-37 0 -37 37l21 414q0 19 11 30t30 11h274q19 0 27.5 -11t3.5 -30l-84 -414q-6 -37 -41 -37h-205z" />
    <glyph glyph-name="numbersign" unicode="#" horiz-adv-x="1400" 
d="M1403 831q-3 -38 -43 -38h-135q-14 0 -17 -15l-28 -108q-6 -19 12 -19h78q39 0 33 -39l-31 -250q-3 -38 -43 -38h-131q-13 0 -17 -15l-55 -205q-9 -34 -45 -34h-297q-41 0 -31 41l54 194q3 8 -1.5 13.5t-11.5 5.5h-110q-13 0 -17 -15l-55 -205q-12 -34 -47 -34h-295
q-20 0 -28.5 11t-2.5 30l54 194q3 8 -2 13.5t-13 5.5h-80q-38 0 -35 38l31 250q6 39 43 39h135q13 0 19 15l28 108q3 9 -1.5 14t-12.5 5h-76q-37 0 -34 38l32 252q3 39 41 39h131q11 0 19 15l55 204q9 35 45 35h297q19 0 27.5 -11t3.5 -30l-53 -194q-6 -19 12 -19h110
q13 0 17 15l55 204q9 35 45 35h297q41 0 31 -41l-53 -194q-3 -8 1 -13.5t11 -5.5h82q39 0 33 -39zM786 651q13 0 19 15l29 108q3 8 -1.5 13.5t-11.5 5.5h-110q-14 0 -17 -15l-30 -108q-3 -19 14 -19h108z" />
    <glyph glyph-name="dollar" unicode="$" horiz-adv-x="1103" 
d="M1065 436q-22 -176 -132.5 -292t-293.5 -148q-13 -3 -16 -16l-7 -80q-6 -39 -41 -39h-163q-37 0 -31 39l12 75q0 16 -14 19q-164 28 -246 127t-63 248l10 94q6 39 43 39h293q17 0 27 -6t8 -15l-2 -22q-8 -59 19.5 -102.5t94.5 -43.5q59 0 90 33.5t35 71.5q6 46 -43 79.5
t-117 51.5t-153 50.5t-131 72.5q-59 50 -90.5 137.5t-18.5 200.5q22 168 133.5 282t290.5 146q16 4 16 16l11 100q6 39 41 39h159q34 0 31 -39l-14 -94q0 -15 12 -18q171 -29 254.5 -135t63.5 -265l-9 -77q-6 -39 -43 -39h-293q-37 0 -34 16l2 16q7 66 -19.5 114t-95.5 48
q-54 0 -92 -28t-43 -70q-5 -39 28.5 -67t79.5 -42.5t120.5 -38t121.5 -45.5q241 -114 209 -393z" />
    <glyph glyph-name="percent" unicode="%" horiz-adv-x="1607" 
d="M469 760q-140 0 -227 101t-68 245q17 142 128 243t251 101q138 0 225 -101t70 -243q-19 -145 -129 -245.5t-250 -100.5zM295 0q-23 0 -29 13.5t8 33.5l902 1360q16 27 47 27h180q23 0 28.5 -14t-8.5 -34l-899 -1359q-16 -27 -47 -27h-182zM492 952q61 0 108 44.5
t55 109.5q8 63 -28.5 107t-96.5 44q-61 0 -109 -44t-56 -107q-7 -64 30 -109t97 -45zM1169 -16q-140 0 -226 101t-69 245q19 143 130.5 243.5t250.5 100.5q138 0 224 -101t69 -243q-19 -145 -129 -245.5t-250 -100.5zM1194 176q61 0 108.5 44.5t55.5 109.5q7 63 -30 107
t-97 44q-62 0 -110.5 -44t-55.5 -107q-7 -64 30 -109t99 -45z" />
    <glyph glyph-name="ampersand" unicode="&#x26;" horiz-adv-x="1456" 
d="M1327 47q13 -19 4.5 -33t-33.5 -14h-329q-29 0 -43 20q-8 9 -22 28t-21 26q-6 12 -21 4q-201 -94 -395 -94q-91 0 -168 21.5t-137 65.5t-89 119.5t-16 174.5q16 129 89 218.5t188 155.5q15 11 4 25q-70 101 -90.5 157t-14.5 113q23 188 161.5 302t342.5 114
q135 0 236.5 -51.5t151.5 -146.5t36 -216q-17 -127 -93.5 -214t-197.5 -152q-16 -6 -6 -23q38 -49 84 -108q10 -13 23 0q83 74 137 145q10 17 25 21t28 -5l201 -129q29 -19 8 -53q-88 -126 -205 -233q-13 -13 -4 -25zM702 1102q-40 0 -65.5 -19.5t-28.5 -48.5q-2 -16 9 -39
t49 -77q7 -15 20 -5q92 55 100 113q4 36 -19 56t-65 20zM573 307q15 2 76 25q8 3 10 9.5t-2 12.5q-3 4 -53 66l-61 78q-9 12 -23 2q-70 -50 -86 -103q-15 -54 24 -81t115 -9z" />
    <glyph glyph-name="quotesingle" unicode="'" horiz-adv-x="382" 
d="M160 942q-38 0 -35 37l18 414q0 19 11 30t30 11h295q19 0 27.5 -11t3.5 -30l-84 -414q-6 -37 -43 -37h-223z" />
    <glyph glyph-name="parenleft" unicode="(" horiz-adv-x="804" 
d="M266 -170q-29 0 -43 23q-238 343 -176 837q60 496 383 838q20 20 47 20h289q23 0 28.5 -12.5t-8.5 -32.5q-56 -81 -99.5 -156t-91 -177t-81 -224t-49.5 -256q-11 -91 -13 -177.5t5.5 -161t19.5 -139.5t31 -127.5t37 -110t41 -99.5q10 -20 1.5 -32.5t-32.5 -12.5h-289z
" />
    <glyph glyph-name="parenright" unicode=")" horiz-adv-x="804" 
d="M465 -147q-20 -23 -49 -23h-287q-23 0 -29.5 12.5t6.5 32.5q57 81 101 156t92 177t81.5 224.5t49.5 257.5q11 91 13 177t-5.5 160t-19.5 139.5t-31.5 127.5t-37.5 109.5t-42 99.5q-9 20 0.5 32.5t32.5 12.5h287q29 0 43 -20q238 -338 178 -838q-62 -498 -383 -837z" />
    <glyph glyph-name="asterisk" unicode="*" horiz-adv-x="794" 
d="M391 805q-39 0 -33 39l17 121q1 10 -5 12.5t-14 -2.5l-125 -70q-34 -20 -49 15l-51 127q-15 35 23 53l122 59q23 10 5 21l-109 57q-33 17 -12 51l84 127q23 37 53 17l106 -68q7 -5 14.5 -2.5t8.5 12.5l12 117q3 39 41 39h131q39 0 33 -39l-16 -117q0 -20 20 -10l123 68
q15 9 29 4.5t20 -21.5l51 -127q15 -35 -22 -51l-127 -57q-9 -5 -10 -11.5t8 -11.5l110 -59q33 -17 13 -51l-84 -127q-22 -37 -53 -15l-107 70q-6 5 -12.5 2.5t-7.5 -12.5l-13 -121q-6 -39 -43 -39h-131z" />
    <glyph glyph-name="plus" unicode="+" horiz-adv-x="946" 
d="M918 762q38 0 32 -39l-30 -250q-3 -39 -41 -39h-217q-16 0 -19 -16l-27 -223q-6 -39 -43 -39h-241q-39 0 -33 39l27 223q3 16 -15 16h-217q-36 0 -33 39l31 250q6 39 43 39h217q16 0 19 16l26 223q3 39 43 39h242q39 0 33 -39l-27 -223q-3 -16 12 -16h218z" />
    <glyph glyph-name="comma" unicode="," horiz-adv-x="526" 
d="M16 -227q-19 0 -27 11t-3 30l108 477q6 37 43 37h254q43 0 27 -43l-185 -480q-11 -32 -45 -32h-172z" />
    <glyph glyph-name="hyphen" unicode="-" horiz-adv-x="831" 
d="M94 420q-38 0 -35 39l31 250q6 39 43 39h670q39 0 33 -39l-31 -250q-3 -39 -43 -39h-668z" />
    <glyph glyph-name="period" unicode="." horiz-adv-x="522" 
d="M219 -16q-95 0 -150 62t-44 153q10 87 85 150t160 63q88 0 147.5 -62.5t49.5 -150.5q-11 -90 -81.5 -152.5t-166.5 -62.5z" />
    <glyph glyph-name="slash" unicode="/" horiz-adv-x="999" 
d="M33 0q-22 0 -28.5 12.5t3.5 32.5l717 1358q15 31 47 31h293q20 0 26 -12.5t-4 -32.5l-714 -1358q-15 -31 -47 -31h-293z" />
    <glyph glyph-name="zero" unicode="0" horiz-adv-x="1138" 
d="M526 -25q-237 0 -356 135.5t-90 372.5l57 467q28 232 181 366t389 134t356.5 -134t91.5 -366l-57 -467q-29 -236 -182.5 -372t-389.5 -136zM565 305q65 0 107 42.5t51 115.5l61 500q9 74 -22.5 115.5t-95.5 41.5q-63 0 -104 -42t-50 -115l-61 -500q-9 -73 21.5 -115.5
t92.5 -42.5z" />
    <glyph glyph-name="one" unicode="1" horiz-adv-x="667" 
d="M348 1427q21 7 47 7h312q38 0 32 -39l-166 -1356q-6 -39 -43 -39h-299q-35 0 -32 39l127 1030q3 16 -15 16l-157 -6q-36 0 -33 37l26 219q6 36 39 45z" />
    <glyph glyph-name="two" unicode="2" horiz-adv-x="1144" 
d="M70 0q-39 0 -33 39l29 237q3 31 26 48q106 88 276 244t199 182q201 181 211 258q5 50 -26.5 81t-87.5 31q-59 0 -98.5 -32t-45.5 -84l-4 -33q-3 -39 -43 -39h-301q-39 0 -33 39l13 94q35 175 190 280t363 105q116 0 208 -35t147.5 -94.5t80.5 -138t14 -166.5
q-10 -84 -58.5 -166t-135.5 -172q-27 -28 -58.5 -58t-73.5 -66.5t-70.5 -61t-86 -72.5t-82.5 -70q-10 -8 -8 -14t12 -6h455q35 0 32 -39l-30 -252q-6 -39 -43 -39h-938z" />
    <glyph glyph-name="three" unicode="3" horiz-adv-x="1103" 
d="M1057 690q26 -89 14 -205q-12 -105 -67 -209q-71 -135 -204 -213.5t-296 -78.5q-159 0 -272.5 80t-155.5 217q-23 78 -17 172q3 39 41 39h303q35 0 35 -37q0 -50 15 -84q24 -58 90 -58q64 0 106 58q38 53 45 127q10 75 -12 129q-26 61 -94 61q-40 0 -125 -63
q-38 -26 -53 8l-123 215q-15 34 16 55l295 180q6 4 7.5 9t-1.5 8.5t-10 3.5h-379q-39 0 -33 39l31 252q3 39 43 39h870q36 0 33 -39l-35 -287q-6 -31 -30 -47l-220 -146q-8 -6 -6.5 -12.5t11.5 -9.5q129 -50 178 -203z" />
    <glyph glyph-name="four" unicode="4" horiz-adv-x="1275" 
d="M1206 690q38 0 35 -39l-33 -262q-6 -39 -43 -39h-67q-16 0 -19 -16l-35 -295q-6 -39 -43 -39h-299q-35 0 -32 39l37 295q3 16 -15 16h-608q-36 0 -33 39l27 205q3 24 14 47l416 764q14 29 47 29h317q22 0 28.5 -11.5t-5.5 -33.5l-365 -680q-10 -19 11 -19h194q6 0 11.5 5
t5.5 12l24 188q3 39 41 39h299q36 0 33 -39l-23 -188q-1 -7 3 -12t10 -5h67z" />
    <glyph glyph-name="five" unicode="5" horiz-adv-x="1101" 
d="M1065 670q26 -94 14 -199q-14 -113 -65 -203q-70 -128 -204 -204t-296 -76q-160 0 -274.5 74.5t-155.5 205.5q-15 59 -18 119q0 41 40 41h310q29 0 39 -27q4 -16 8 -26q27 -58 92 -58q55 0 102 54q33 45 39 92q9 51 -10 96q-27 55 -94 55q-59 0 -98 -39q-24 -24 -52 -24
h-319q-36 0 -33 39l98 805q6 39 43 39h885q36 0 33 -39l-31 -252q-6 -39 -43 -39h-532q-16 0 -19 -17l-20 -167q-2 -9 3.5 -13t14.5 0q74 39 166 39q139 0 239.5 -75t137.5 -201z" />
    <glyph glyph-name="six" unicode="6" 
d="M1061 674q26 -76 12 -203q-15 -117 -63 -203q-70 -128 -203.5 -204t-294.5 -76q-157 0 -271 75t-155 205q-27 93 -14 203l73 602q22 169 168.5 273t364.5 104q214 0 334 -104t100 -273l-8 -63q-6 -39 -43 -39h-299q-35 0 -35 22l4 23q5 44 -21.5 74t-72.5 30
q-49 0 -84.5 -30.5t-40.5 -73.5l-14 -123q-2 -9 2.5 -12.5t13.5 2.5q78 45 184 45q122 0 221 -65.5t142 -188.5zM657 367q35 44 41 96q7 54 -18 98q-25 45 -88 45q-70 0 -109 -45q-27 -34 -37 -94q-6 -62 15 -100q26 -50 90 -50q62 0 106 50z" />
    <glyph glyph-name="seven" unicode="7" horiz-adv-x="1015" 
d="M182 0q-43 0 -24 45l532 1040q8 19 -10 19h-248q-15 0 -18 -17l-11 -77q-3 -39 -41 -39h-227q-39 0 -33 39l50 385q6 39 43 39h901q38 0 32 -39l-32 -267q-3 -26 -15 -47l-532 -1050q-16 -31 -49 -31h-318z" />
    <glyph glyph-name="eight" unicode="8" horiz-adv-x="1103" 
d="M1049 649q37 -92 20 -219q-12 -105 -61 -190q-70 -118 -202 -187t-298 -69q-157 0 -270 65.5t-158 190.5q-33 87 -21 192q14 124 76 217q38 57 92 99q14 8 4 22q-41 36 -63 90q-35 74 -23 180q17 134 101 238q75 89 192.5 137.5t255.5 48.5q160 0 268.5 -58.5
t151.5 -178.5q34 -101 23 -189q-12 -99 -72 -178q-34 -45 -88 -86q-13 -13 -2 -22q50 -38 74 -103zM518 905q23 -59 100 -59q76 0 115 57q25 39 31 90q4 48 -6 72q-21 70 -105 70q-82 0 -118 -68q-19 -36 -25 -78q-5 -45 8 -84zM655 356q37 44 43 113q8 48 -6 88
q-25 68 -100 68q-74 0 -117 -68q-24 -42 -29 -92q-9 -62 11 -103q27 -53 96 -53q64 0 102 47z" />
    <glyph glyph-name="nine" unicode="9" horiz-adv-x="1067" 
d="M1077 1165q28 -88 15 -202l-74 -603q-22 -169 -168.5 -272.5t-364.5 -103.5q-214 0 -334 103.5t-100 272.5l8 64q6 39 43 39h299q35 0 35 -23l-4 -22q-5 -44 21.5 -74.5t72.5 -30.5q49 0 84.5 31t40.5 74l15 123q2 9 -3 12.5t-14 -2.5q-78 -45 -184 -45q-122 0 -221 65.5
t-142 188.5q-26 76 -12 203q14 114 64 202q70 128 203.5 204.5t295.5 76.5q155 0 269 -75.5t155 -205.5zM680 872q27 34 37 95q6 62 -15 100q-25 49 -90 49q-63 0 -106 -49q-35 -44 -41 -96q-8 -55 18 -99q25 -45 88 -45q70 0 109 45z" />
    <glyph glyph-name="colon" unicode=":" horiz-adv-x="757" 
d="M422 657q-96 0 -151 62.5t-44 152.5q12 87 87.5 150t160.5 63q87 0 147 -63t50 -150q-11 -90 -82.5 -152.5t-167.5 -62.5zM342 0q-96 0 -151 62.5t-44 152.5q10 87 85.5 150t162.5 63q86 0 145.5 -62.5t49.5 -150.5q-11 -90 -81.5 -152.5t-166.5 -62.5z" />
    <glyph glyph-name="semicolon" unicode=";" horiz-adv-x="632" 
d="M352 596q-97 0 -151 62t-43 153q10 87 85 150t160 63q87 0 147 -63t50 -150q-11 -90 -81.5 -152.5t-166.5 -62.5zM86 -227q-19 0 -27.5 11t-3.5 30l99 477q6 37 43 37h254q43 0 28 -43l-178 -480q-11 -32 -45 -32h-170z" />
    <glyph glyph-name="less" unicode="&#x3c;" horiz-adv-x="946" 
d="M870 74q-2 -22 -15 -31t-32 0l-741 348q-28 13 -25 45l33 262q3 32 35 45l827 347q20 9 31.5 1t9.5 -30l-35 -283q-6 -35 -36 -45l-437 -155q-7 -2 -9.5 -6.5t-0.5 -8.5t8 -6l398 -156q30 -12 24 -45z" />
    <glyph glyph-name="equal" unicode="=" horiz-adv-x="946" 
d="M117 604q-38 0 -35 39l31 250q6 39 43 39h782q38 0 35 -39l-31 -250q-6 -39 -43 -39h-782zM70 233q-36 0 -33 39l31 250q6 39 43 39h782q39 0 33 -39l-31 -250q-3 -39 -41 -39h-784z" />
    <glyph glyph-name="greater" unicode="&#x3e;" horiz-adv-x="946" 
d="M53 43q-20 -9 -31.5 0t-9.5 31l35 282q6 34 37 45l436 156q7 2 9.5 6.5t0.5 8.5t-8 6l-399 155q-29 13 -23 45l35 283q2 22 15 31t32 0l742 -349q27 -12 24 -45l-33 -262q-3 -33 -34 -45z" />
    <glyph glyph-name="question" unicode="?" horiz-adv-x="1116" 
d="M395 483q-38 0 -35 29l5 29q10 83 55 147.5t102.5 103.5t114 71.5t98.5 69.5t47 79q4 43 -29.5 67.5t-95.5 24.5q-67 0 -111 -30t-50 -75q-3 -39 -41 -36l-297 14q-37 3 -37 12l2 10q25 202 188.5 328.5t399.5 126.5q229 0 351 -116.5t99 -307.5q-8 -69 -35 -125.5
t-64 -94t-79.5 -68.5t-84.5 -56t-77 -49t-59 -54.5t-29 -66.5q-3 -33 -43 -33h-295zM498 -10q-85 0 -137.5 57t-41.5 137q9 83 76.5 141t151.5 58q82 0 135.5 -58t44.5 -139q-10 -81 -77.5 -138.5t-151.5 -57.5z" />
    <glyph glyph-name="at" unicode="@" horiz-adv-x="1619" 
d="M1055 1409q162 0 286 -54.5t195 -154t93.5 -238.5t-19.5 -307q-48 -208 -161.5 -326t-291.5 -118q-143 0 -211 74q-9 9 -22 0q-92 -74 -236 -74q-100 0 -158.5 57t-64.5 148q-8 78 18 174q17 71 62 166q53 108 135 162.5t172 54.5q88 0 129 -53q13 -16 20 -2l5 18
q10 37 43 37h170q38 0 28 -41l-88 -338q-36 -150 51 -150q50 0 82.5 48.5t57.5 144.5q66 266 -29 402.5t-309 136.5q-239 0 -422 -160t-252 -414q-46 -177 -13 -298t129 -183t242 -62q167 0 295 72q35 18 53 -8l74 -107q24 -30 -12 -55q-93 -62 -218.5 -100.5t-256.5 -38.5
q-190 0 -334.5 93.5t-207 269.5t0.5 427q61 232 203 413t341 282.5t421 101.5zM776 422q46 0 84 55q37 50 49 115q14 74 11 113q-3 24 -20 37.5t-42 13.5q-55 0 -88 -54q-21 -31 -49 -122q-20 -70 -10 -103q13 -55 65 -55z" />
    <glyph glyph-name="A" unicode="A" horiz-adv-x="1419" 
d="M975 0q-34 0 -37 33l-23 147q0 6 -5 10.5t-11 4.5h-412q-13 0 -20 -15l-57 -147q-11 -33 -45 -33h-324q-19 0 -26 11.5t1 33.5l580 1356q13 33 45 33h410q29 0 36 -33l248 -1356q3 -21 -7.5 -33t-31.5 -12h-321zM594 508q-4 -19 12 -19h246q8 0 12.5 6t3.5 13l-67 473
q-2 7 -6 9.5t-8 0t-7 -9.5z" />
    <glyph glyph-name="B" unicode="B" horiz-adv-x="1222" 
d="M1044 750q-10 -4 -11 -10.5t7 -10.5q151 -102 127 -319q-11 -87 -46 -156.5t-87 -116.5t-121.5 -78t-146.5 -45t-164 -14h-526q-39 0 -33 39l166 1356q6 39 43 39h508q254 0 371 -93.5t90 -312.5q-23 -190 -177 -278zM563 1104q-15 0 -18 -17l-25 -192q0 -16 15 -16h157
q146 0 158 112q8 56 -25.5 84.5t-105.5 28.5h-156zM643 330q141 0 156 121q6 57 -25.5 85.5t-99.5 28.5h-178q-6 0 -11.5 -4.5t-5.5 -11.5l-24 -203q-3 -16 12 -16h176z" />
    <glyph glyph-name="C" unicode="C" horiz-adv-x="1210" 
d="M565 -16q-247 0 -379.5 145t-103.5 383l51 414q29 236 197 380t415 144q248 0 382 -135.5t106 -358.5q0 -19 -37 -22l-301 -21q-12 -1 -21 0.5t-13.5 4.5t-4.5 6l2 12q10 83 -31.5 133.5t-119.5 50.5q-80 0 -134.5 -50.5t-64.5 -133.5l-53 -440q-11 -82 31 -132.5
t120 -50.5q79 0 133.5 50.5t63.5 132.5q2 11 14 17t29 5l297 -16q35 -3 35 -10l-2 -11q-28 -224 -195.5 -360.5t-415.5 -136.5z" />
    <glyph glyph-name="D" unicode="D" horiz-adv-x="1226" 
d="M76 0q-39 0 -33 39l166 1356q6 39 43 39h502q245 0 379 -127t108 -334l-61 -512q-26 -207 -192 -334t-410 -127h-502zM455 346q-3 -16 12 -16h166q67 0 117 54t63 142l47 381q11 89 -26 143t-109 54h-162q-15 0 -18 -17z" />
    <glyph glyph-name="E" unicode="E" horiz-adv-x="1132" 
d="M1186 1143q-6 -39 -43 -39h-580q-15 0 -18 -17l-23 -180q0 -16 15 -16h354q36 0 33 -39l-31 -250q-6 -39 -43 -39h-354q-17 0 -17 -16l-24 -201q-3 -16 12 -16h582q35 0 32 -39l-30 -252q-6 -39 -43 -39h-932q-39 0 -33 39l166 1356q6 39 43 39h932q36 0 33 -39z" />
    <glyph glyph-name="F" unicode="F" horiz-adv-x="1099" 
d="M1184 1143q-6 -39 -43 -39h-578q-15 0 -18 -17l-23 -180q0 -16 15 -16h354q36 0 33 -39l-31 -250q-6 -39 -43 -39h-354q-17 0 -17 -16l-63 -508q-3 -39 -43 -39h-297q-39 0 -33 39l166 1356q6 39 43 39h930q35 0 32 -39z" />
    <glyph glyph-name="G" unicode="G" horiz-adv-x="1208" 
d="M565 -16q-247 0 -378.5 148.5t-102.5 391.5l47 387q31 243 199 391t415 148q241 0 377 -139.5t111 -341.5q-2 -15 -13 -24t-28 -9h-297q-11 0 -19.5 1t-12.5 3.5t-3 5.5v8q8 69 -32 117.5t-121 48.5q-80 0 -135.5 -54.5t-65.5 -143.5l-49 -410q-10 -88 38 -143.5
t128 -55.5q74 0 125.5 41.5t60.5 116.5l2 21q3 16 -14 16h-160q-39 0 -33 39l27 229q6 39 43 39h504q35 0 32 -39l-34 -272q-28 -231 -197 -375.5t-414 -144.5z" />
    <glyph glyph-name="H" unicode="H" horiz-adv-x="1214" 
d="M911 1395q6 39 43 39h299q36 0 33 -39l-166 -1356q-6 -39 -43 -39h-299q-36 0 -33 39l62 506q3 16 -12 16h-299q-16 0 -19 -16l-61 -506q-3 -39 -43 -39h-297q-39 0 -33 39l166 1356q6 39 43 39h297q39 0 33 -39l-60 -488q0 -16 15 -16h297q18 0 18 16z" />
    <glyph glyph-name="I" unicode="I" horiz-adv-x="528" 
d="M76 0q-39 0 -33 39l166 1356q6 39 43 39h297q39 0 33 -39l-166 -1356q-3 -39 -43 -39h-297z" />
    <glyph glyph-name="J" unicode="J" horiz-adv-x="1185" 
d="M522 -16q-243 0 -375 135t-104 356l6 60q6 38 43 38h299q36 0 33 -38l-8 -58q-9 -74 31.5 -119t115.5 -45q77 0 130.5 45.5t62.5 118.5l112 918q6 39 43 39h295q39 0 33 -39l-113 -920q-26 -221 -192.5 -356t-411.5 -135z" />
    <glyph glyph-name="K" unicode="K" horiz-adv-x="1263" 
d="M76 0q-39 0 -33 39l166 1356q6 39 43 39h297q39 0 33 -39l-58 -469q-2 -11 6 -13t15 7l395 489q19 25 49 25h338q22 0 26.5 -14t-12.5 -34l-471 -577q-9 -13 -4 -23l330 -739q8 -21 -1 -34t-32 -13h-336q-31 0 -39 27l-208 491q-3 9 -9.5 8.5t-11.5 -8.5l-92 -121
q-7 -10 -10 -20l-41 -338q-3 -39 -43 -39h-297z" />
    <glyph glyph-name="L" unicode="L" horiz-adv-x="1140" 
d="M76 0q-39 0 -33 39l166 1356q6 39 43 39h297q39 0 33 -39l-127 -1049q-3 -16 12 -16h600q39 0 33 -39l-31 -252q-3 -39 -43 -39h-950z" />
    <glyph glyph-name="M" unicode="M" horiz-adv-x="1419" 
d="M76 0q-39 0 -33 39l166 1356q6 39 43 39h295q31 0 43 -27l190 -403q3 -9 11 -9t14 9l289 403q18 27 49 27h297q36 0 33 -39l-166 -1356q-6 -39 -43 -39h-299q-36 0 -33 39l90 723q1 12 -6 13.5t-15 -7.5l-147 -211q-18 -27 -49 -27h-139q-31 0 -43 27l-97 211
q-6 9 -13.5 7.5t-8.5 -13.5l-88 -723q-3 -39 -43 -39h-297z" />
    <glyph glyph-name="N" unicode="N" horiz-adv-x="1306" 
d="M76 0q-39 0 -33 39l166 1356q6 39 43 39h285q31 0 43 -27l309 -678q4 -9 11.5 -7.5t8.5 13.5l78 660q6 39 43 39h299q36 0 33 -39l-168 -1356q-3 -39 -41 -39h-287q-31 0 -43 27l-307 690q-4 11 -11.5 9.5t-8.5 -13.5l-80 -674q-3 -39 -43 -39h-297z" />
    <glyph glyph-name="O" unicode="O" horiz-adv-x="1232" 
d="M573 -25q-251 0 -385.5 151t-103.5 398l47 385q31 243 202 392t421 149q252 0 387 -149t104 -392l-47 -385q-29 -247 -201 -398t-424 -151zM614 305q83 0 141 56.5t68 150.5l49 401q12 94 -31 150.5t-128 56.5q-82 0 -139.5 -57t-67.5 -150l-49 -401q-12 -94 31 -150.5
t126 -56.5z" />
    <glyph glyph-name="P" unicode="P" horiz-adv-x="1191" 
d="M819 1434q214 0 328 -129.5t88 -341.5q-26 -207 -176.5 -334t-370.5 -127h-205q-15 0 -18 -17l-55 -446q-3 -39 -43 -39h-297q-39 0 -33 39l166 1356q6 39 43 39h573zM682 809q73 0 123 40t57 105q8 68 -32 109t-113 41h-160q-15 0 -18 -17l-33 -262q0 -16 14 -16h162z
" />
    <glyph glyph-name="Q" unicode="Q" horiz-adv-x="1202" 
d="M737 1450q246 0 376 -150.5t99 -398.5l-49 -399q-22 -180 -127.5 -308.5t-271.5 -179.5q-12 -2 -16 -18l-17 -135q-3 -39 -41 -39h-299q-36 0 -33 39l17 133q0 16 -10 18q-154 53 -230 181t-53 309l49 399q29 247 196 398t410 151zM506 922l-49 -410q-10 -89 28.5 -144
t112.5 -55q77 0 131 55t64 144l49 410q10 89 -29.5 143.5t-114.5 54.5t-128.5 -54.5t-63.5 -143.5z" />
    <glyph glyph-name="R" unicode="R" horiz-adv-x="1222" 
d="M776 0q-33 0 -39 29l-153 510q-2 12 -19 12h-69q-19 0 -19 -16l-61 -496q-3 -39 -43 -39h-297q-39 0 -33 39l166 1356q6 39 43 39h594q204 0 313 -125.5t84 -331.5q-17 -134 -92 -233.5t-193 -149.5q-14 -6 -10 -21l178 -528q12 -45 -32 -45h-318zM563 1104
q-15 0 -18 -17l-29 -227q0 -16 14 -16h181q65 0 108.5 35.5t50.5 93.5q8 59 -27.5 95t-99.5 36h-180z" />
    <glyph glyph-name="S" unicode="S" horiz-adv-x="1185" 
d="M553 -16q-245 0 -378.5 124.5t-108.5 333.5l4 21q3 39 41 39h292q18 0 27.5 -6t7.5 -15l-2 -22q-6 -56 45.5 -101t139.5 -45q74 0 109.5 32.5t39.5 70.5q2 16 -1 29.5t-15.5 24.5t-23.5 19t-36 17.5t-41 14.5t-52 16.5t-56 17.5q-65 21 -115.5 41.5t-113.5 60.5
t-102.5 86t-62.5 117.5t-12 155.5q24 195 185 314.5t387 119.5q155 0 273 -58.5t177.5 -167.5t42.5 -249l-2 -10q-3 -39 -41 -39h-293q-18 0 -27 4t-7 12l2 16q7 61 -41.5 111.5t-139.5 50.5q-63 0 -103 -27t-46 -73q-6 -53 46.5 -85t213.5 -87q120 -41 140 -50
q200 -84 235 -242q13 -59 4 -130q-25 -200 -188.5 -321t-403.5 -121z" />
    <glyph glyph-name="T" unicode="T" horiz-adv-x="1181" 
d="M1245 1434q36 0 33 -39l-31 -254q-6 -39 -43 -39h-319q-16 0 -19 -17l-129 -1046q-3 -39 -41 -39h-299q-38 0 -32 39l129 1046q0 17 -15 17h-309q-38 0 -35 39l33 254q3 39 41 39h1036z" />
    <glyph glyph-name="U" unicode="U" horiz-adv-x="1224" 
d="M571 -16q-245 0 -377 141t-104 373l111 897q6 39 43 39h297q37 0 34 -39l-110 -897q-10 -83 30 -134t117 -51q76 0 129 51t64 134l108 897q6 39 43 39h299q36 0 33 -39l-110 -897q-29 -232 -196 -373t-411 -141z" />
    <glyph glyph-name="V" unicode="V" horiz-adv-x="1282" 
d="M438 0q-32 0 -39 33l-221 1358q-6 43 37 43h324q33 0 39 -35l88 -840q2 -7 5.5 -9.5t7.5 0t7 9.5l291 840q9 35 45 35h315q45 0 27 -43l-557 -1358q-13 -33 -47 -33h-322z" />
    <glyph glyph-name="W" unicode="W" horiz-adv-x="1701" 
d="M362 0q-33 0 -40 33l-224 1358q-6 43 39 43h322q34 0 37 -33l84 -647q1 -7 4.5 -9.5t8 0t7.5 9.5l229 645q12 35 45 35h234q34 0 37 -33l80 -647q1 -7 4.5 -9.5t8 0t7.5 9.5l225 645q14 35 48 35h321q40 0 27 -43l-514 -1358q-14 -33 -47 -33h-304q-36 0 -36 35l-56 678
q-1 7 -4 10t-6.5 0.5t-5.5 -10.5l-205 -678q-11 -35 -45 -35h-281z" />
    <glyph glyph-name="X" unicode="X" horiz-adv-x="1308" 
d="M47 0q-22 0 -27 12.5t7 34.5l436 660q6 9 2 20l-272 659q-8 22 0 35t30 13h326q29 0 41 -29l143 -373q3 -9 9 -9t10 9l235 373q17 29 47 29h324q46 0 20 -48l-432 -659q-8 -8 -4 -20l272 -660q16 -47 -32 -47h-322q-29 0 -41 29l-143 372q-4 7 -10 7t-11 -7l-237 -372
q-17 -29 -47 -29h-324z" />
    <glyph glyph-name="Y" unicode="Y" horiz-adv-x="1292" 
d="M457 4q-36 0 -33 39l55 440q0 15 -2 21l-291 885q-6 21 4 33t31 12h324q33 0 41 -31l125 -473q3 -9 8 -9t10 9l242 473q13 31 47 31h325q22 0 29 -11.5t-4 -33.5l-512 -885q-6 -18 -6 -21l-53 -440q-6 -39 -43 -39h-297z" />
    <glyph glyph-name="Z" unicode="Z" horiz-adv-x="1116" 
d="M45 0q-36 0 -33 39l35 283q3 24 23 47l657 714q6 7 3.5 14t-11.5 7h-539q-36 0 -33 39l31 252q6 39 43 39h940q39 0 33 -39l-35 -283q-3 -24 -20 -47l-664 -715q-6 -8 -3.5 -14t11.5 -6h543q36 0 33 -39l-31 -252q-6 -39 -43 -39h-940z" />
    <glyph glyph-name="bracketleft" unicode="[" horiz-adv-x="876" 
d="M29 -336q-39 0 -33 39l237 1933q3 39 41 39h512q36 0 33 -39l-31 -252q-6 -38 -43 -38h-159q-17 0 -17 -17l-163 -1319q0 -16 14 -16h160q35 0 32 -39l-30 -252q-6 -39 -43 -39h-510z" />
    <glyph glyph-name="backslash" unicode="\" horiz-adv-x="999" 
d="M924 45q5 -20 -5 -32.5t-30 -12.5h-295q-33 0 -39 31l-383 1358q-4 20 5.5 32.5t29.5 12.5h293q32 0 41 -31z" />
    <glyph glyph-name="bracketright" unicode="]" horiz-adv-x="876" 
d="M729 -297q-6 -39 -43 -39h-510q-38 0 -35 39l33 252q3 39 41 39h160q15 0 18 16l162 1319q0 17 -14 17h-160q-36 0 -33 38l31 252q6 39 43 39h510q38 0 35 -39z" />
    <glyph glyph-name="asciicircum" unicode="^" horiz-adv-x="968" 
d="M123 596q-42 0 -25 45l353 762q13 31 45 31h243q31 0 39 -31l170 -762q9 -45 -35 -45h-235q-34 0 -41 33l-57 387q-1 7 -5 9.5t-8.5 0t-7.5 -9.5l-151 -387q-13 -33 -50 -33h-235z" />
    <glyph glyph-name="underscore" unicode="_" horiz-adv-x="1091" 
d="M23 0q-39 0 -33 39l24 209q6 39 43 39h967q39 0 33 -39l-25 -209q-6 -39 -43 -39h-966z" />
    <glyph glyph-name="grave" unicode="`" horiz-adv-x="544" 
d="M606 1217q7 -22 -2 -35t-31 -13h-237q-27 0 -43 25l-107 176q-11 19 -2.5 33t31.5 14h283q30 0 41 -28z" />
    <glyph glyph-name="a" unicode="a" horiz-adv-x="1120" 
d="M768 1026q3 39 43 39h297q39 0 33 -39l-121 -987q-3 -39 -43 -39h-297q-39 0 -33 39l4 43q1 10 -4.5 11.5t-11.5 -7.5q-89 -102 -238 -102q-132 0 -228 87t-122 236q-16 100 -2 230q20 148 78 262q62 124 173.5 203t252.5 79q138 0 196 -86q6 -8 12.5 -4.5t6.5 13.5z
M659 383q39 61 48 147q12 94 -13 158q-26 64 -96 64t-113 -68q-36 -56 -49 -154q-10 -93 13 -149q27 -68 96 -68q67 0 114 70z" />
    <glyph glyph-name="b" unicode="b" horiz-adv-x="1126" 
d="M1120 799q30 -109 13 -262q-12 -118 -58 -230q-62 -149 -179.5 -236t-250.5 -87q-148 0 -211 102q-3 6 -7 7.5t-7 -1.5t-4 -10l-6 -43q-3 -39 -43 -39h-297q-39 0 -33 39l166 1356q6 39 43 39h297q38 0 32 -39l-47 -391q-2 -11 4 -13.5t15 4.5q77 86 217 86
q141 0 233 -79t123 -203zM692 381q36 56 49 149q10 100 -12 154q-25 68 -96 68q-67 0 -111 -64q-42 -64 -51 -158q-12 -86 10 -147q26 -70 99 -70q67 0 112 68z" />
    <glyph glyph-name="c" unicode="c" horiz-adv-x="1091" 
d="M518 -16q-167 0 -283 85t-153 236q-26 97 -12 234q17 135 69 231q72 146 209 228.5t305 82.5q169 0 289 -87t150 -218q8 -39 8 -69q0 -36 -39 -43l-297 -48q-41 -7 -41 25q0 5 -1 15t-1 14q-8 35 -38 58.5t-73 23.5q-80 0 -121 -74q-31 -55 -43 -141q-9 -84 7 -142
q22 -82 104 -82t125 84l6 13q2 9 17 22t30 10l289 -49q36 -7 27 -43q-7 -28 -19 -55q-69 -149 -208 -230t-306 -81z" />
    <glyph glyph-name="d" unicode="d" horiz-adv-x="1126" 
d="M813 1395q3 39 43 39h297q39 0 33 -39l-166 -1356q-3 -39 -43 -39h-297q-39 0 -33 39l4 43q1 10 -4.5 11.5t-11.5 -7.5q-89 -102 -238 -102q-132 0 -228 87t-122 236q-16 100 -2 230q20 148 78 262q62 124 173.5 203t252.5 79q138 0 196 -86q6 -8 12.5 -4.5t6.5 13.5z
M659 383q39 61 48 147q12 94 -13 158q-26 64 -96 64t-113 -68q-36 -56 -49 -154q-10 -93 13 -149q27 -68 96 -68q67 0 114 70z" />
    <glyph glyph-name="e" unicode="e" horiz-adv-x="1103" 
d="M627 309q118 7 184 58q36 25 51 -5l113 -192q15 -29 -12 -53q-154 -133 -408 -133q-148 0 -256 54.5t-168 154.5q-81 141 -57 348q11 87 43 172q66 165 212.5 266.5t323.5 101.5q205 0 315.5 -136.5t121.5 -371.5q3 -49 0 -98q-6 -39 -43 -39h-590q-17 0 -17 -18
q3 -15 6 -27q15 -44 63 -64.5t118 -17.5zM604 752q-80 0 -123 -82l-3 -6q-3 -7 -5 -11q-6 -18 12 -18h215q8 0 13 5t2 13q0 3 -1 8.5t-1 8.5q-23 82 -109 82z" />
    <glyph glyph-name="f" unicode="f" horiz-adv-x="808" 
d="M821 1065q38 0 35 -39l-29 -229q-6 -39 -43 -39h-161q-6 0 -11.5 -5t-5.5 -12l-86 -702q-6 -39 -43 -39h-299q-36 0 -33 39l86 702q3 17 -12 17h-88q-39 0 -33 39l29 229q3 39 41 39h88q15 0 18 16l7 58q22 172 133 239.5t350 55.5h76q35 0 32 -39l-22 -178
q-3 -39 -41 -39h-76q-41 -4 -60 -21.5t-24 -52.5l-2 -23q-3 -16 15 -16h159z" />
    <glyph glyph-name="g" unicode="g" horiz-adv-x="1130" 
d="M778 1026q3 39 41 39h299q39 0 33 -39l-109 -887q-14 -109 -51 -197t-88.5 -146.5t-119 -100t-138 -62.5t-150 -29t-151.5 -4t-145 17q-33 7 -27 43l45 260q6 44 47 31q87 -19 164 -18.5t139.5 37t87.5 106.5q4 10 -5.5 15t-18.5 -1q-72 -53 -185 -53q-317 0 -372 266
q-22 101 -4 240q18 152 71 258q64 128 175.5 204t244.5 76t197 -77q6 -8 11.5 -6t6.5 12zM682 403q28 57 37 142q9 86 -6 133q-25 74 -105 74q-67 0 -112 -72q-40 -57 -50 -141q-11 -73 9 -133q27 -72 106 -72q78 0 121 69z" />
    <glyph glyph-name="h" unicode="h" 
d="M778 1081q153 0 239.5 -102.5t65.5 -280.5l-82 -659q-3 -39 -40 -39h-299q-39 0 -33 39l69 575q8 62 -18.5 100t-75.5 38q-51 0 -86 -38t-43 -100l-72 -575q-3 -39 -41 -39h-299q-38 0 -32 39l166 1356q6 39 43 39h297q37 0 34 -39l-53 -422q-2 -11 4 -14t13 6
q88 116 243 116z" />
    <glyph glyph-name="i" unicode="i" horiz-adv-x="536" 
d="M365 1108q-96 0 -148.5 59.5t-40.5 155.5t79 155.5t163 59.5t147.5 -59t40.5 -156q-12 -97 -78 -156t-163 -59zM80 0q-39 0 -33 39l121 987q3 39 43 39h297q39 0 33 -39l-121 -987q-3 -39 -43 -39h-297z" />
    <glyph glyph-name="j" unicode="j" horiz-adv-x="524" 
d="M367 1098q-95 0 -147.5 62t-41.5 153q12 88 85 151.5t157 63.5q83 0 140.5 -63.5t47.5 -151.5q-11 -90 -79.5 -152.5t-161.5 -62.5zM-203 -414q-39 3 -33 41l29 242q3 39 45 39q114 -7 158.5 23t56.5 122l119 973q3 39 43 39h297q39 0 33 -39l-119 -967
q-15 -119 -40.5 -197.5t-69.5 -136t-115.5 -87.5t-167 -42t-236.5 -10z" />
    <glyph glyph-name="k" unicode="k" horiz-adv-x="1101" 
d="M63 0q-38 0 -32 39l166 1356q6 39 43 39h297q37 0 34 -39l-69 -568q-2 -11 4.5 -13t13.5 7l185 219q19 25 47 25h340q24 0 28.5 -13.5t-10.5 -33.5l-287 -342q-7 -11 -4 -23l211 -608q6 -20 -2.5 -32.5t-30.5 -12.5h-311q-32 0 -41 31l-108 379q-2 9 -9 10t-12 -8
l-74 -103q-4 -8 -8 -20l-31 -250q-3 -39 -41 -39h-299z" />
    <glyph glyph-name="l" unicode="l" horiz-adv-x="516" 
d="M70 0q-39 0 -33 39l166 1356q6 39 43 39h297q38 0 32 -39l-165 -1356q-3 -39 -43 -39h-297z" />
    <glyph glyph-name="m" unicode="m" horiz-adv-x="1679" 
d="M1380 1081q157 0 232.5 -100.5t52.5 -282.5l-82 -659q-3 -39 -41 -39h-299q-36 0 -33 39l72 575q7 61 -17.5 99.5t-70.5 38.5q-47 0 -81.5 -38.5t-41.5 -99.5l-72 -575q-3 -39 -41 -39h-299q-38 0 -32 39l69 575q8 62 -18.5 100t-75.5 38q-41 0 -73.5 -27t-47.5 -72
q-4 -16 -4 -20l-74 -594q-3 -39 -41 -39h-299q-38 0 -32 39l121 987q6 39 43 39h297q38 0 32 -39l-8 -80q-1 -8 1 -11.5t6 -1.5t9 9q92 139 267 139q100 0 168.5 -46t99.5 -132q7 -21 20 2q97 176 293 176z" />
    <glyph glyph-name="n" unicode="n" 
d="M778 1081q153 0 239.5 -102.5t65.5 -280.5l-82 -659q-3 -39 -40 -39h-299q-39 0 -33 39l69 575q8 62 -18.5 100t-75.5 38q-51 0 -86 -38t-43 -100l-72 -575q-3 -39 -41 -39h-299q-38 0 -32 39l121 987q6 39 43 39h297q38 0 32 -39l-6 -53q-2 -11 4 -14t13 6
q88 116 243 116z" />
    <glyph glyph-name="o" unicode="o" horiz-adv-x="1107" 
d="M512 -16q-188 0 -304.5 105t-137.5 282q-10 66 0 164q13 107 47 182q67 169 207.5 266.5t324.5 97.5t299 -97t142 -263q13 -92 2 -182q-13 -88 -35 -156q-64 -184 -208 -291.5t-337 -107.5zM553 313q100 0 143 131q12 35 19 93q5 46 2 94q-13 121 -111 121
q-97 0 -139 -121q-16 -40 -23 -94q-5 -44 -2 -93q13 -131 111 -131z" />
    <glyph glyph-name="p" unicode="p" horiz-adv-x="1126" 
d="M1130 758q16 -103 3 -230q-19 -146 -76 -262q-64 -125 -175 -203.5t-253 -78.5q-139 0 -197 86q-6 8 -12 5t-6 -14l-49 -391q-3 -39 -43 -39h-297q-39 0 -33 39l166 1356q6 39 43 39h297q38 0 32 -39l-4 -43q-1 -10 5 -11.5t12 7.5q89 102 237 102q132 0 228 -87
t122 -236zM692 381q36 56 49 154q10 95 -12 149q-27 68 -96 68q-68 0 -115 -70q-38 -59 -47 -147q-12 -96 12 -158q26 -64 97 -64q69 0 112 68z" />
    <glyph glyph-name="q" unicode="q" horiz-adv-x="1126" 
d="M768 1026q3 39 43 39h297q39 0 33 -39l-166 -1356q-6 -39 -43 -39h-297q-39 0 -33 39l47 391q2 11 -3.5 13.5t-12.5 -4.5q-80 -86 -219 -86q-141 0 -233.5 79t-123.5 203q-29 107 -12 262q18 133 57 230q62 149 179.5 236t250.5 87q148 0 211 -102q3 -6 7 -7.5t7.5 1.5
t4.5 10zM655 377q43 60 52 158q12 84 -11 147q-26 70 -98 70q-68 0 -113 -68q-36 -56 -49 -149q-10 -98 13 -154q25 -68 96 -68q66 0 110 64z" />
    <glyph glyph-name="r" unicode="r" horiz-adv-x="786" 
d="M739 1079q62 0 99 -22q24 -15 12 -49l-84 -301q-9 -36 -45 -27q-55 11 -113 0q-52 -11 -93 -44t-48 -91l-64 -506q-3 -39 -41 -39h-299q-38 0 -32 39l121 987q6 39 43 39h297q38 0 32 -39l-2 -29q-2 -11 3 -14t12 4q86 92 202 92z" />
    <glyph glyph-name="s" unicode="s" horiz-adv-x="1028" 
d="M487 -16q-224 0 -343.5 89.5t-100.5 239.5v11q6 38 43 38h283q37 0 37 -10l-3 -12q-4 -33 28.5 -53.5t88.5 -20.5q44 0 72 13.5t31 37.5q3 22 -18.5 35.5t-63 21t-88 14.5t-105.5 23t-104 40q-161 86 -138 270q20 165 157.5 262.5t342.5 97.5q209 0 323.5 -101.5
t92.5 -268.5q0 -23 -39 -23h-272q-37 0 -37 12l2 11q3 34 -23.5 53.5t-77.5 19.5q-45 0 -76 -15t-34 -42q-3 -22 15.5 -35.5t56 -21.5t79 -13.5t98 -17t101.5 -27.5q102 -38 149.5 -107t34.5 -179q-21 -167 -159.5 -254.5t-352.5 -87.5z" />
    <glyph glyph-name="t" unicode="t" horiz-adv-x="776" 
d="M799 797q-3 -39 -43 -39h-150q-15 0 -18 -17l-37 -303q-14 -102 59 -102h66q36 0 33 -39l-31 -248q-6 -36 -41 -39q-77 -6 -143 -6q-89 0 -148.5 11.5t-104 41t-61 84.5t-6.5 138l55 462q3 17 -12 17h-94q-39 0 -33 39l29 229q3 39 41 39h94q15 0 18 16l29 232
q3 39 41 39h283q38 0 32 -39l-28 -232q0 -16 14 -16h152q35 0 32 -39z" />
    <glyph glyph-name="u" unicode="u" 
d="M743 1026q6 39 43 39h297q38 0 35 -39l-123 -987q-3 -39 -41 -39h-299q-35 0 -32 39l6 49q2 11 -5 13t-14 -7q-91 -110 -260 -110q-151 0 -228 101t-54 282l79 659q6 39 43 39h297q38 0 35 -39l-71 -575q-8 -62 18.5 -100t75.5 -38q42 0 74.5 27t46.5 72q2 5 4 12t2 8z
" />
    <glyph glyph-name="v" unicode="v" horiz-adv-x="1093" 
d="M340 0q-34 0 -41 33l-176 987q-3 21 7.5 33t29.5 12h325q36 0 39 -35l39 -483q1 -7 5 -9.5t8.5 0t7.5 9.5l157 483q12 35 47 35l328 -4q40 0 25 -43l-418 -985q-13 -33 -47 -33h-336z" />
    <glyph glyph-name="w" unicode="w" horiz-adv-x="1638" 
d="M322 0q-36 0 -39 33l-162 989q-6 43 37 43h309q35 0 35 -35l35 -471q2 -7 5.5 -9.5t7.5 0t7 9.5l160 469q9 35 45 35h270q34 0 37 -35l51 -473q1 -7 5 -9.5t8.5 0t7.5 9.5l168 475q11 35 45 35l307 -4q45 0 27 -43l-408 -985q-13 -33 -49 -33h-309q-34 0 -37 33l-60 385
q-1 7 -4 9t-7 -1t-7 -10l-129 -381q-9 -35 -47 -35h-309z" />
    <glyph glyph-name="x" unicode="x" horiz-adv-x="1148" 
d="M33 0q-23 0 -28.5 13.5t9.5 33.5l359 473q5 11 2 25l-242 473q-9 20 -1 33.5t30 13.5h319q32 0 41 -27l92 -194q3 -9 11 -9t14 9l137 194q18 27 49 27h342q23 0 28 -13.5t-9 -33.5l-359 -473q-7 -15 -2 -25l242 -473q9 -20 0.5 -33.5t-31.5 -13.5h-317q-31 0 -43 27
l-90 194q-3 9 -11 9t-14 -9l-139 -194q-18 -27 -49 -27h-340z" />
    <glyph glyph-name="y" unicode="y" horiz-adv-x="1060" 
d="M-2 -408q-13 0 -10 39l30 238q1 17 6.5 28t10.5 11h10q129 0 185.5 15.5t70.5 66.5q3 11 0 20l-184 1010q-3 21 7.5 33t29.5 12h319q34 0 37 -35l41 -469q1 -7 4.5 -9t8 1t7.5 10l152 467q8 35 45 35h319q21 0 28.5 -11.5t-1.5 -33.5l-446 -1024q-36 -78 -64 -129
t-68 -101t-84.5 -79t-107.5 -52.5t-144 -33t-188 -9.5h-14z" />
    <glyph glyph-name="z" unicode="z" horiz-adv-x="933" 
d="M33 0q-36 0 -33 39l35 280q3 28 26 48l396 329q9 8 7 14.5t-13 6.5h-316q-36 0 -33 39l33 270q6 39 43 39h752q36 0 33 -39l-35 -281q-3 -26 -27 -47l-414 -329q-8 -7 -5.5 -14t12.5 -7h364q36 0 33 -39l-35 -270q-3 -39 -41 -39h-782z" />
    <glyph glyph-name="braceleft" unicode="{" horiz-adv-x="843" 
d="M446 -336q-144 0 -211.5 69t-52.5 197l51 410q9 85 -15 129t-87 53q-34 3 -31 39l29 225q3 36 41 39q125 17 143 181l52 403q15 128 100 197t229 69h207q39 0 33 -39l-31 -252q-6 -38 -37 -38h-32q-44 0 -78.5 -33t-40.5 -82l-35 -285q-12 -103 -49.5 -166.5
t-106.5 -95.5q-19 -10 -2 -20q117 -63 90 -265l-34 -290q-6 -49 20 -82t70 -33h26q39 0 33 -39l-31 -252q-3 -39 -43 -39h-207z" />
    <glyph glyph-name="bar" unicode="|" horiz-adv-x="452" 
d="M18 -164q-38 0 -32 39l200 1643q3 38 43 38h297q39 0 33 -38l-201 -1643q-6 -39 -43 -39h-297z" />
    <glyph glyph-name="braceright" unicode="}" horiz-adv-x="843" 
d="M236 -336h-207q-39 0 -33 39l31 252q1 18 12 28.5t27 10.5h30q43 0 78 33t39 82l37 290q24 202 156 265q22 11 2 18q-60 34 -82 98t-9 166l35 285q6 49 -20.5 82t-69.5 33h-26q-39 0 -33 38l30 252q3 39 41 39h207q144 0 213 -69t54 -197l-50 -403q-21 -164 101 -181
q36 -3 30 -39l-26 -225q-6 -36 -43 -39q-127 -18 -144 -182l-51 -410q-15 -128 -100 -197t-229 -69z" />
    <glyph glyph-name="asciitilde" unicode="~" horiz-adv-x="1105" 
d="M729 369q-78 0 -151 47q-1 1 -12 8t-14 9t-14 8.5t-16 9t-15.5 8t-17.5 8t-17.5 6.5t-18.5 5.5t-18 3t-19 1.5q-68 0 -117 -59q-29 -29 -55 -8l-148 114q-26 21 -10 52q49 101 150 166t206 65q77 0 158 -51q6 -4 23.5 -15t24.5 -15.5t21.5 -12.5t24 -11.5t22 -6.5
t23.5 -3q53 0 107 58q26 33 53 12l176 -125q26 -19 8 -53q-52 -98 -152 -159.5t-202 -61.5z" />
    <glyph glyph-name="uni00A0" unicode="&#xa0;" horiz-adv-x="397" 
 />
    <glyph glyph-name="exclamdown" unicode="&#xa1;" horiz-adv-x="718" 
d="M494 1450q96 0 151.5 -62.5t44.5 -152.5q-10 -88 -86 -150.5t-164 -62.5q-85 0 -144.5 63t-47.5 150q11 90 80.5 152.5t165.5 62.5zM281 903q1 18 13 28.5t30 10.5h221q38 0 35 -39l-68 -848q-3 -39 -41 -39h-299q-37 0 -31 39z" />
    <glyph glyph-name="cent" unicode="&#xa2;" horiz-adv-x="1091" 
d="M633 936q-80 0 -121 -74q-31 -55 -43 -141q-9 -85 6 -141q22 -82 105 -82q82 0 125 84l6 12q2 9 17 22.5t30 10.5l289 -49q35 -7 26 -43q-9 -35 -18 -56q-53 -114 -147.5 -188.5t-215.5 -104.5q-12 -2 -16 -18l-6 -123q-1 -19 -13.5 -30t-29.5 -11h-234q-17 0 -26.5 11
t-6.5 30l25 129q0 17 -12 19q-102 34 -171.5 110t-97.5 186q-25 104 -12 234q17 133 70 231q52 105 140.5 179t199.5 108q16 3 16 19l8 129q0 19 12 30t31 11h232q19 0 28 -11t5 -30l-23 -125q-4 -16 12 -19q114 -32 190.5 -108t100.5 -176q8 -39 8 -70q0 -36 -39 -43
l-297 -47q-41 -7 -41 24q0 5 -1 15t-1 14q-8 35 -37.5 58.5t-72.5 23.5z" />
    <glyph glyph-name="sterling" unicode="&#xa3;" horiz-adv-x="1224" 
d="M631 502q-12 -93 -78 -152q-13 -20 8 -20h574q38 0 32 -39l-30 -252q-3 -39 -43 -39h-953q-38 0 -32 39l30 260q6 29 31 49q44 31 62 65.5t24 88.5l6 41q0 16 -14 16h-105q-35 0 -32 39l28 231q6 39 43 39h103q15 0 18 17l10 88q29 223 171 347.5t354 129.5
q183 4 291.5 -88.5t144.5 -255.5q4 -18 -5 -31t-28 -16l-283 -49q-31 -5 -43 28q-12 47 -36.5 64.5t-61.5 17.5q-111 0 -129 -139l-12 -96q0 -17 14 -17h334q39 0 33 -39l-29 -231q-3 -39 -41 -39h-334q-15 0 -18 -16z" />
    <glyph glyph-name="currency" unicode="&#xa4;" horiz-adv-x="1212" 
d="M1104 625q-11 -96 -62 -193q-7 -13 2 -22l105 -125q26 -29 -8 -56l-201 -163q-32 -25 -53 2l-99 112q-8 10 -20 4q-92 -39 -190 -39q-94 0 -175 35q-12 6 -22 -4l-119 -108q-29 -26 -53 -2l-162 163q-25 28 6 56l127 114q12 12 6 23q-30 92 -18 203q11 100 63 192
q7 14 -2 23l-104 123q-26 29 8 55l201 164q30 24 53 -2l94 -111q7 -11 21 -4q95 39 194 39q101 0 189 -43q12 -6 22 4l127 115q31 27 56 2l159 -164q27 -27 -4 -55l-145 -134q-11 -9 -8 -22q24 -83 12 -182zM788 625q6 64 -33.5 109.5t-99.5 45.5q-61 0 -112 -45.5
t-58 -109.5q-8 -63 32 -109.5t101 -46.5q60 0 110.5 46t59.5 110z" />
    <glyph glyph-name="yen" unicode="&#xa5;" horiz-adv-x="1357" 
d="M1386 1434q21 0 28 -11.5t-3 -33.5l-401 -693q-5 -8 -2 -13t12 -5h127q36 0 33 -39l-17 -129q-6 -39 -43 -39h-215q-16 0 -16 -16l-6 -49q-3 -17 14 -17h213q39 0 33 -39l-15 -129q-6 -39 -43 -39h-215q-15 0 -18 -16l-14 -123q-3 -39 -43 -39h-295q-39 0 -33 39l14 123
q3 16 -14 16h-213q-36 0 -33 39l17 129q6 39 43 39h213q6 0 11 5t5 12l6 49q3 16 -12 16h-213q-39 0 -33 39l14 129q6 39 43 39h125q19 0 15 18l-228 693q-6 21 4.5 33t32.5 12h324q34 0 39 -31l125 -473q7 -20 20 0l240 473q16 31 49 31h325z" />
    <glyph glyph-name="brokenbar" unicode="&#xa6;" horiz-adv-x="452" 
d="M139 829q-36 0 -33 39l80 650q3 38 43 38h297q39 0 33 -38l-80 -650q-3 -39 -41 -39h-299zM18 -164q-38 0 -32 39l77 649q6 39 43 39h300q35 0 32 -39l-80 -649q-6 -39 -43 -39h-297z" />
    <glyph glyph-name="section" unicode="&#xa7;" horiz-adv-x="1038" 
d="M412 -426q-203 0 -307.5 95.5t-92.5 256.5l6 84q3 39 41 39h299q36 0 33 -29l-2 -28q-6 -40 16.5 -65t65.5 -25q37 0 64.5 19.5t31.5 51.5q4 39 -43 68q-26 16 -170 80l-8 4q-100 45 -155.5 82.5t-86.5 93.5q-44 77 -32 188q14 117 88 205q35 46 106 84q21 11 4 21
q-146 100 -125 278q21 157 166.5 265t347.5 108q197 0 313.5 -105.5t94.5 -273.5l-6 -45q-3 -39 -41 -39h-299q-18 0 -27.5 6t-7.5 15l2 20q6 42 -16.5 67t-61.5 25q-35 0 -62.5 -18.5t-31.5 -54.5q-2 -13 -0.5 -24.5t8.5 -21.5t13 -18t20 -16t22 -13t28 -13t28.5 -11
t32.5 -11.5t32 -11.5q182 -65 246 -137q83 -90 66 -235q-12 -102 -82 -191q-59 -79 -121 -102q-20 -7 -4 -19q81 -59 111.5 -126.5t19.5 -157.5q-14 -114 -89.5 -198.5t-188 -125.5t-246.5 -41zM532 434q52 0 78 29q22 19 25 51q3 25 -8 47q-20 33 -76 33q-52 0 -80 -31
q-19 -19 -22 -49q-3 -36 14 -53q20 -27 69 -27z" />
    <glyph glyph-name="dieresis" unicode="&#xa8;" horiz-adv-x="802" 
d="M295 1128q-76 0 -118 50t-32 129q9 79 63.5 128.5t131.5 49.5q75 0 115 -49.5t30 -128.5q-9 -80 -61.5 -129.5t-128.5 -49.5zM707 1128q-76 0 -117.5 49.5t-32.5 129.5q11 80 64 129t129 49q78 0 119 -49t30 -129q-9 -80 -61.5 -129.5t-130.5 -49.5z" />
    <glyph glyph-name="copyright" unicode="&#xa9;" horiz-adv-x="1554" 
d="M733 -16q-152 0 -278 56t-208.5 153.5t-120 236.5t-17.5 299q25 203 137.5 368t288 259t378.5 94q205 0 358 -94t225 -258.5t48 -368.5q-20 -160 -91 -299t-178 -236.5t-247.5 -153.5t-294.5 -56zM758 188q225 0 389.5 152t193.5 389q26 222 -102 369t-350 147t-386 -147
t-192 -369q-29 -237 98 -389t349 -152zM786 362q-119 0 -182.5 68t-50.5 182l29 219q13 115 93 181.5t199 66.5q118 0 181 -62t51 -169q-3 -9 -39 -12l-117 -5q-37 -3 -37 5v6q4 33 -12 53t-47 20q-32 0 -54 -19.5t-26 -53.5l-29 -242q-4 -32 12.5 -52t47.5 -20
q32 0 53.5 20t26.5 52q0 15 39 12l114 -4q37 0 37 -8l-2 -6q-12 -105 -91 -168.5t-196 -63.5z" />
    <glyph glyph-name="ordfeminine" unicode="&#xaa;" horiz-adv-x="663" 
d="M399 1165h107q14 0 18 9v8q6 42 -21 68t-71 26q-60 0 -94 -39q-9 -13 -13 -18t-12.5 -9.5t-19.5 -3.5l-119 11q-20 2 -28.5 12t-2.5 28q23 84 109.5 138.5t198.5 54.5q126 0 205 -68t67 -165l-53 -439q-3 -39 -43 -39h-119q-38 0 -35 23q1 9 -4 10.5t-14 -4.5
q-56 -41 -154 -41q-113 0 -168.5 54t-44.5 149q14 107 98 171t213 64zM358 885q58 0 98.5 33.5t43.5 68.5l2 12q3 17 -15 17h-73q-119 0 -127 -68q-3 -32 15.5 -47.5t55.5 -15.5zM45 596q6 39 43 39h543q36 0 33 -39l-11 -86q-6 -39 -43 -39h-542q-36 0 -33 39z" />
    <glyph glyph-name="guillemotleft" unicode="&#xab;" horiz-adv-x="968" 
d="M520 264q7 -20 -2 -32.5t-31 -12.5h-223q-33 0 -43 29l-104 301q-9 26 6 53l178 301q16 29 49 29h225q20 0 26.5 -12.5t-3.5 -32.5l-182 -301q-8 -12 -2 -21zM881 264q6 -20 -3.5 -32.5t-29.5 -12.5h-225q-35 0 -41 29l-105 301q-9 26 6 53l179 301q16 29 49 29h223
q22 0 28 -12.5t-6 -32.5l-182 -301q-6 -9 -2 -21z" />
    <glyph glyph-name="logicalnot" unicode="&#xac;" horiz-adv-x="946" 
d="M92 723q6 39 43 39h783q38 0 32 -39l-57 -469q-3 -39 -43 -39h-242q-36 0 -33 39l21 164q0 16 -14 16h-488q-36 0 -33 39z" />
    <glyph glyph-name="uni00AD" unicode="&#xad;" horiz-adv-x="831" 
d="M94 420q-38 0 -35 39l31 250q6 39 43 39h670q39 0 33 -39l-31 -250q-3 -39 -43 -39h-668z" />
    <glyph glyph-name="registered" unicode="&#xae;" horiz-adv-x="874" 
d="M575 1450q178 0 281.5 -117.5t81.5 -294.5q-23 -190 -154.5 -311t-312.5 -121q-179 0 -281 121t-79 311q23 178 154.5 295t309.5 117zM489 745q120 0 208.5 82t103.5 211q14 117 -55 195t-187 78q-119 0 -206.5 -77.5t-102.5 -195.5q-15 -130 52 -211.5t187 -81.5z
M684 1100q-9 -67 -53 -94q-13 -8 -13 -23l21 -96q6 -45 -37 -45h-39q-35 0 -41 32l-12 91l-4 14q-3 0 -6 -16l-11 -82q-3 -39 -43 -39h-36q-39 0 -33 39l37 307q6 39 43 39h116q56 0 86.5 -36t24.5 -91zM545 1128h-8q-16 0 -19 -16l-4 -31q-3 -16 10 -16h13q12 0 21 10
t11 23q1 13 -5.5 21.5t-18.5 8.5z" />
    <glyph glyph-name="macron" unicode="&#xaf;" horiz-adv-x="618" 
d="M141 1161q-38 0 -32 39l20 178q6 39 43 39h543q36 0 33 -39l-23 -178q-3 -39 -43 -39h-541z" />
    <glyph glyph-name="degree" unicode="&#xb0;" horiz-adv-x="741" 
d="M446 942q-146 0 -234 103.5t-69 254.5q19 149 131.5 252t257.5 103q148 0 236.5 -103t69.5 -252q-19 -151 -132 -254.5t-260 -103.5zM475 1190q46 0 81.5 31.5t39.5 78.5q6 49 -20 81t-72 32q-44 0 -79.5 -32.5t-41.5 -80.5q-6 -47 21.5 -78.5t70.5 -31.5z" />
    <glyph glyph-name="plusminus" unicode="&#xb1;" horiz-adv-x="946" 
d="M721 1051q-3 -17 14 -17h217q36 0 33 -39l-31 -250q-6 -38 -43 -38h-217q-15 0 -18 -17l-27 -223q-3 -39 -43 -39h-241q-39 0 -33 39l26 223q3 17 -14 17h-215q-39 0 -33 38l31 250q3 39 41 39h217q15 0 18 17l27 223q6 39 43 39h242q39 0 33 -39zM41 0q-36 0 -33 39
l31 250q6 39 43 39h782q39 0 33 -39l-31 -250q-3 -39 -41 -39h-784z" />
    <glyph glyph-name="uni00B2" unicode="&#xb2;" horiz-adv-x="704" 
d="M154 817q-36 0 -33 39l16 137q6 32 29 47q112 92 270 230q120 101 125 149q3 27 -14 44.5t-47 17.5q-33 0 -56 -18.5t-26 -47.5v-2q-3 -39 -43 -39h-160q-39 0 -33 39l4 41q21 106 116 170t222 64q140 0 214 -77t61 -188q-10 -90 -115 -198q-58 -61 -207 -181
q-8 -8 -6 -14t12 -6h236q38 0 35 -39l-17 -129q-6 -39 -43 -39h-540z" />
    <glyph glyph-name="uni00B3" unicode="&#xb3;" horiz-adv-x="645" 
d="M717 1231q15 -45 8 -123q-10 -67 -41 -127q-42 -80 -123 -128t-178 -48t-166.5 48t-95.5 132q-10 34 -10 86q0 20 11.5 30.5t29.5 10.5h161q32 0 35 -37q4 -25 10 -35q16 -28 50 -28q33 0 55 28q23 32 26 74q6 50 -8 78q-12 31 -49 31q-25 0 -53 -17q-35 -18 -53 8
l-62 95q-23 32 15 55l147 84q9 6 8.5 13t-12.5 7h-203q-36 0 -33 39l17 129q6 39 43 39h497q39 0 33 -39l-16 -137q-3 -27 -29 -47l-119 -80q-18 -12 2 -22q74 -27 103 -119z" />
    <glyph glyph-name="acute" unicode="&#xb4;" horiz-adv-x="544" 
d="M180 1169q-23 0 -29 13t7 35l110 172q17 28 47 28h283q23 0 28 -14t-12 -33l-149 -176q-22 -25 -49 -25h-236z" />
    <glyph glyph-name="uni00B5" unicode="&#xb5;" horiz-adv-x="1101" 
d="M750 1026q6 39 43 39h297q38 0 32 -39l-121 -987q-3 -39 -40 -39h-299q-39 0 -33 39l6 49q2 11 -5 13t-14 -7q-79 -91 -202 -106q-16 -3 -19 -19l-41 -340q-6 -39 -43 -39h-299q-35 0 -32 39l172 1397q6 39 43 39h299q38 0 32 -39l-69 -575q-8 -62 18.5 -100t75.5 -38
q42 0 74.5 27t46.5 72q4 8 4 20z" />
    <glyph glyph-name="paragraph" unicode="&#xb6;" horiz-adv-x="1304" 
d="M705 1434h638q39 0 33 -39l-215 -1766q-6 -39 -43 -39h-194q-39 0 -33 39l186 1520q0 16 -14 16h-143q-16 0 -19 -16l-186 -1520q-3 -39 -41 -39h-197q-36 0 -33 39l107 869q3 14 -12 18q-217 17 -332 139.5t-92 317.5q27 209 183 335t407 126z" />
    <glyph glyph-name="periodcentered" unicode="&#xb7;" horiz-adv-x="442" 
d="M178 -16q-96 0 -150 62.5t-42 152.5q10 87 85 150t160 63q87 0 147 -63t50 -150q-11 -90 -82.5 -152.5t-167.5 -62.5z" />
    <glyph glyph-name="cedilla" unicode="&#xb8;" horiz-adv-x="374" 
d="M-59 -379q-26 12 -17 47l29 119q4 21 15.5 25.5t31.5 -2.5q24 -6 44.5 1t29.5 27q21 46 -56 117q-19 17 -14 31t31 14h149q27 0 45 -18q120 -120 66 -250q-25 -61 -71.5 -95t-99 -39.5t-99 1t-84.5 22.5z" />
    <glyph glyph-name="uni00B9" unicode="&#xb9;" horiz-adv-x="397" 
d="M264 1667q22 10 47 10h172q39 0 33 -39l-94 -782q-6 -39 -43 -39h-160q-36 0 -33 39l74 598q3 16 -14 16l-23 3q-39 0 -33 38l13 101q3 32 35 45z" />
    <glyph glyph-name="ordmasculine" unicode="&#xba;" horiz-adv-x="700" 
d="M403 729q-105 0 -178.5 54t-99.5 155q-19 73 -8 154q8 85 45 155q49 98 136 150.5t196 52.5q99 0 172 -51.5t98 -149.5q20 -78 10 -153q-13 -95 -49 -158q-54 -99 -138.5 -154t-183.5 -55zM428 936q43 0 78 55q26 50 29 101q8 59 -5 96q-19 57 -67 57q-42 0 -80 -57
q-22 -33 -29 -96q-9 -62 4 -101q16 -55 70 -55zM106 471q-37 0 -34 39l12 86q3 39 41 39h543q38 0 32 -39l-10 -86q-3 -39 -43 -39h-541z" />
    <glyph glyph-name="guillemotright" unicode="&#xbb;" horiz-adv-x="968" 
d="M115 219q-22 0 -28 12.5t5 32.5l182 301q8 12 2 21l-108 301q-6 20 3.5 32.5t31.5 12.5h223q33 0 43 -29l104 -301q6 -28 -8 -53l-178 -301q-16 -29 -49 -29h-223zM473 219q-20 0 -26 12.5t6 32.5l180 301q8 8 4 21l-109 301q-6 20 3.5 32.5t29.5 12.5h225q14 0 26 -8
t15 -21l105 -301q9 -26 -6 -53l-178 -301q-16 -29 -50 -29h-225z" />
    <glyph glyph-name="onequarter" unicode="&#xbc;" horiz-adv-x="1669" 
d="M391 612q-6 -39 -43 -39h-158q-37 0 -34 39l73 598q3 17 -12 17l-24 2q-39 0 -33 39l12 100q3 32 35 45l26 10q28 11 48 11h174q35 0 32 -39zM1087 1407q16 27 46 27h182q21 0 26.5 -14t-6.5 -34l-901 -1359q-16 -27 -47 -27h-182q-23 0 -28.5 13.5t7.5 33.5zM1602 422
q33 0 30 -39l-16 -141q-3 -18 -14.5 -28.5t-26.5 -10.5h-21q-15 0 -18 -17l-18 -147q-3 -39 -41 -39h-160q-36 0 -33 39l19 147q0 17 -15 17h-346q-36 0 -33 39l15 110q2 19 16 47l234 430q16 31 47 31h165q22 0 28.5 -12.5t-3.5 -32.5l-199 -375q-9 -18 11 -18h92
q15 0 18 16l10 86q6 39 43 39h158q38 0 35 -39l-12 -86q0 -16 14 -16h21z" />
    <glyph glyph-name="onehalf" unicode="&#xbd;" horiz-adv-x="1601" 
d="M391 612q-6 -39 -43 -39h-158q-37 0 -34 39l73 598q3 17 -12 17l-24 2q-39 0 -33 39l12 100q3 32 35 45l26 10q28 11 48 11h174q35 0 32 -39zM1087 1407q16 27 46 27h182q21 0 26.5 -14t-6.5 -34l-901 -1359q-16 -27 -47 -27h-182q-23 0 -28.5 13.5t7.5 33.5zM1274 227
q-9 -7 -7 -13.5t11 -6.5h238q35 0 32 -39l-16 -129q-3 -39 -41 -39h-541q-38 0 -32 39l16 137q3 29 27 47q84 68 270 230q122 103 127 149q3 27 -14.5 44.5t-49.5 17.5t-54.5 -18.5t-25.5 -47.5v-2q-6 -39 -43 -39h-161q-36 0 -33 39l6 41q21 106 115.5 169.5t222.5 63.5
q140 0 213 -77t59 -187q-10 -88 -112 -198q-44 -46 -207 -181z" />
    <glyph glyph-name="threequarters" unicode="&#xbe;" horiz-adv-x="1839" 
d="M655 739q-43 -80 -124.5 -128t-178.5 -48q-98 0 -166.5 48t-93.5 132q-12 41 -12 86q3 41 43 41h162q28 0 34 -36q4 -21 9 -35q16 -29 51 -29q32 0 55 29q20 28 27 73q5 45 -8 78q-15 31 -50 31q-28 0 -55 -16q-35 -21 -51 8l-64 94q-20 34 17 55l147 84q9 6 8.5 13.5
t-12.5 7.5h-203q-38 0 -32 39l16 129q3 39 41 39h500q36 0 33 -39l-17 -138q-6 -30 -31 -47l-118 -80q-18 -14 2 -20q77 -32 104 -121q15 -55 6 -123q-7 -66 -39 -127zM1257 1407q16 27 48 27h180q23 0 28 -14t-8 -34l-899 -1359q-19 -27 -47 -27h-184q-22 0 -27.5 13.5
t8.5 33.5zM1772 422q36 0 30 -39l-16 -141q-6 -39 -41 -39h-21q-6 0 -11 -5t-5 -12l-18 -147q-6 -39 -43 -39h-158q-38 0 -35 39l19 147q3 17 -15 17h-344q-39 0 -33 39l13 110q2 19 16 47l233 430q15 31 48 31h168q20 0 26 -12.5t-4 -32.5l-199 -375q-6 -18 11 -18h94
q16 0 16 16l13 86q3 39 40 39h160q36 0 33 -39l-10 -86q-3 -16 14 -16h19z" />
    <glyph glyph-name="questiondown" unicode="&#xbf;" horiz-adv-x="1116" 
d="M666 1034q84 0 136.5 -57t41.5 -137q-9 -83 -77 -141t-153 -58q-80 0 -133.5 58t-44.5 139q10 81 78 138.5t152 57.5zM768 541q17 0 26.5 -8t8.5 -21l-4 -29q-10 -83 -55.5 -147.5t-103 -103.5t-114.5 -71.5t-98.5 -69.5t-46.5 -79q-4 -42 29.5 -67t93.5 -25q69 0 113 30
t49 75q6 39 43 36l297 -14q37 -3 34 -12v-10q-25 -202 -188 -328.5t-399 -126.5q-230 0 -353 116.5t-98 307.5q8 69 35 125.5t64 94t79.5 68.5t84.5 56t77 49t59 54.5t29 66.5q2 15 13 24t28 9h297z" />
    <glyph glyph-name="Agrave" unicode="&#xc0;" horiz-adv-x="1419" 
d="M1010 1585q7 -22 -2.5 -34.5t-32.5 -12.5h-236q-27 0 -43 25l-106 176q-12 19 -3.5 33t31.5 14h283q30 0 39 -29zM975 0q-34 0 -37 33l-23 147q0 6 -5 10.5t-11 4.5h-412q-13 0 -20 -15l-57 -147q-11 -33 -45 -33h-324q-19 0 -26 11.5t1 33.5l580 1356q13 33 45 33h410
q29 0 36 -33l248 -1356q3 -21 -7.5 -33t-31.5 -12h-321zM594 508q-4 -19 12 -19h246q8 0 12.5 6t3.5 13l-67 473q-2 7 -6 9.5t-8 0t-7 -9.5z" />
    <glyph glyph-name="Aacute" unicode="&#xc1;" horiz-adv-x="1419" 
d="M1147 1786q24 0 29 -14t-11 -33l-151 -176q-22 -25 -49 -25h-236q-22 0 -28 12.5t6 34.5l110 172q17 29 47 29h283zM975 0q-34 0 -37 33l-23 147q0 6 -5 10.5t-11 4.5h-412q-13 0 -20 -15l-57 -147q-11 -33 -45 -33h-324q-19 0 -26 11.5t1 33.5l580 1356q13 33 45 33h410
q29 0 36 -33l248 -1356q3 -21 -7.5 -33t-31.5 -12h-321zM594 508q-4 -19 12 -19h246q8 0 12.5 6t3.5 13l-67 473q-2 7 -6 9.5t-8 0t-7 -9.5z" />
    <glyph glyph-name="Acircumflex" unicode="&#xc2;" horiz-adv-x="1419" 
d="M879 1645q-3 7 -11 7t-12 -7l-53 -80q-18 -27 -47 -27h-207q-23 0 -28.5 13.5t9.5 33.5l156 193q19 24 49 24h297q32 0 45 -24l111 -193q10 -20 1.5 -33.5t-30.5 -13.5h-205q-29 0 -41 27zM975 0q-34 0 -37 33l-23 147q0 6 -5 10.5t-11 4.5h-412q-13 0 -20 -15l-57 -147
q-11 -33 -45 -33h-324q-19 0 -26 11.5t1 33.5l580 1356q13 33 45 33h410q29 0 36 -33l248 -1356q3 -21 -7.5 -33t-31.5 -12h-321zM594 508q-4 -19 12 -19h246q8 0 12.5 6t3.5 13l-67 473q-2 7 -6 9.5t-8 0t-7 -9.5z" />
    <glyph glyph-name="Atilde" unicode="&#xc3;" horiz-adv-x="1419" 
d="M793 1599q-38 0 -64 -26q-28 -32 -53 -12l-88 71q-25 19 -10 54q38 75 96.5 116t122.5 41q25 0 49 -7.5t39 -16t41 -25.5q51 -31 88 -31q33 0 55 25q28 31 53 12l92 -71q23 -23 7 -54q-49 -78 -110 -116.5t-120 -38.5q-62 0 -131 51q-39 28 -67 28zM975 0q-34 0 -37 33
l-23 147q0 6 -5 10.5t-11 4.5h-412q-13 0 -20 -15l-57 -147q-11 -33 -45 -33h-324q-19 0 -26 11.5t1 33.5l580 1356q13 33 45 33h410q29 0 36 -33l248 -1356q3 -21 -7.5 -33t-31.5 -12h-321zM594 508q-4 -19 12 -19h246q8 0 12.5 6t3.5 13l-67 473q-2 7 -6 9.5t-8 0t-7 -9.5
z" />
    <glyph glyph-name="Adieresis" unicode="&#xc4;" horiz-adv-x="1419" 
d="M645 1497q-76 0 -118 49t-33 129q9 79 63.5 128.5t130.5 49.5t116.5 -49t31.5 -129q-9 -79 -62.5 -128.5t-128.5 -49.5zM1057 1497q-78 0 -119.5 49t-30.5 129q9 79 62.5 128.5t130.5 49.5q76 0 117 -49t32 -129q-11 -80 -63.5 -129t-128.5 -49zM975 0q-34 0 -37 33
l-23 147q0 6 -5 10.5t-11 4.5h-412q-13 0 -20 -15l-57 -147q-11 -33 -45 -33h-324q-19 0 -26 11.5t1 33.5l580 1356q13 33 45 33h410q29 0 36 -33l248 -1356q3 -21 -7.5 -33t-31.5 -12h-321zM594 508q-4 -19 12 -19h246q8 0 12.5 6t3.5 13l-67 473q-2 7 -6 9.5t-8 0t-7 -9.5
z" />
    <glyph glyph-name="Aring" unicode="&#xc5;" horiz-adv-x="1419" 
d="M850 1503q-98 0 -156.5 69.5t-46.5 170.5q12 100 88 168.5t174 68.5t156.5 -68.5t46.5 -168.5q-12 -101 -88 -170.5t-174 -69.5zM889 1819q-30 0 -53.5 -22t-26.5 -54q-4 -31 14 -52.5t47 -21.5t53 21.5t27 52.5q4 32 -13.5 54t-47.5 22zM975 0q-34 0 -37 33l-23 147
q0 6 -5 10.5t-11 4.5h-412q-13 0 -20 -15l-57 -147q-11 -33 -45 -33h-324q-19 0 -26 11.5t1 33.5l580 1356q13 33 45 33h410q29 0 36 -33l248 -1356q3 -21 -7.5 -33t-31.5 -12h-321zM594 508q-4 -19 12 -19h246q8 0 12.5 6t3.5 13l-67 473q-2 7 -6 9.5t-8 0t-7 -9.5z" />
    <glyph glyph-name="AE" unicode="&#xc6;" horiz-adv-x="1957" 
d="M2011 1143q-3 -39 -43 -39h-586q-16 0 -16 -17l-23 -180q-3 -16 15 -16h358q39 0 33 -39l-31 -250q-3 -39 -43 -39h-358q-16 0 -19 -16l-24 -201q0 -16 14 -16h586q39 0 33 -39l-31 -252q-3 -39 -43 -39h-938q-36 0 -33 39l19 139q0 17 -15 17h-331q-15 0 -21 -13
l-90 -153q-16 -29 -49 -29h-330q-20 0 -26 12.5t4 32.5l815 1360q19 29 47 29h1124q39 0 33 -39zM700 508q-5 -8 -1.5 -13.5t12.5 -5.5h192q6 0 11.5 5t5.5 12l55 438q1 12 -6 13.5t-13 -9.5z" />
    <glyph glyph-name="Ccedilla" unicode="&#xc7;" horiz-adv-x="1210" 
d="M1233 946q-3 -9 -37 -12l-301 -21q-12 -1 -21 0.5t-13.5 4.5t-4.5 6l2 12q10 83 -31.5 133.5t-119.5 50.5q-80 0 -134.5 -50.5t-64.5 -133.5l-53 -440q-11 -82 31 -132.5t120 -50.5q79 0 133.5 50.5t63.5 132.5q2 11 14 17t29 5l297 -16q35 -3 35 -10l-2 -11
q-25 -194 -156.5 -325t-331.5 -162q-10 -1 -12.5 -8t2.5 -13q79 -107 35 -217q-19 -49 -54 -80.5t-74 -43.5t-82.5 -12.5t-78.5 7t-64 19.5q-24 10 -18 47l29 119q4 21 15.5 25t31.5 -3q24 -6 44.5 1.5t29.5 27.5q24 53 -76 133q-5 5 -17 8q-170 46 -255 180.5t-62 327.5
l51 414q29 236 197 380t415 144q248 0 382 -135.5t106 -358.5v-10z" />
    <glyph glyph-name="Egrave" unicode="&#xc8;" horiz-adv-x="1132" 
d="M885 1612q7 -22 -2 -34.5t-31 -12.5h-238q-29 0 -41 24l-108 176q-11 19 -2 33t33 14h280q30 0 41 -28zM1186 1143q-6 -39 -43 -39h-580q-15 0 -18 -17l-23 -180q0 -16 15 -16h354q36 0 33 -39l-31 -250q-6 -39 -43 -39h-354q-17 0 -17 -16l-24 -201q-3 -16 12 -16h582
q35 0 32 -39l-30 -252q-6 -39 -43 -39h-932q-39 0 -33 39l166 1356q6 39 43 39h932q36 0 33 -39z" />
    <glyph glyph-name="Eacute" unicode="&#xc9;" horiz-adv-x="1132" 
d="M1024 1812q23 0 28 -14t-12 -33l-149 -176q-21 -24 -49 -24h-236q-23 0 -29 12.5t7 34.5l110 172q17 28 47 28h283zM1186 1143q-6 -39 -43 -39h-580q-15 0 -18 -17l-23 -180q0 -16 15 -16h354q36 0 33 -39l-31 -250q-6 -39 -43 -39h-354q-17 0 -17 -16l-24 -201
q-3 -16 12 -16h582q35 0 32 -39l-30 -252q-6 -39 -43 -39h-932q-39 0 -33 39l166 1356q6 39 43 39h932q36 0 33 -39z" />
    <glyph glyph-name="Ecircumflex" unicode="&#xca;" horiz-adv-x="1132" 
d="M756 1671q-3 7 -11 7t-14 -7l-53 -80q-17 -26 -47 -26h-207q-22 0 -27.5 13.5t9.5 33.5l157 192q19 25 49 25h295q31 0 45 -25l113 -192q10 -20 1 -33.5t-32 -13.5h-205q-29 0 -41 26zM1186 1143q-6 -39 -43 -39h-580q-15 0 -18 -17l-23 -180q0 -16 15 -16h354
q36 0 33 -39l-31 -250q-6 -39 -43 -39h-354q-17 0 -17 -16l-24 -201q-3 -16 12 -16h582q35 0 32 -39l-30 -252q-6 -39 -43 -39h-932q-39 0 -33 39l166 1356q6 39 43 39h932q36 0 33 -39z" />
    <glyph glyph-name="Edieresis" unicode="&#xcb;" horiz-adv-x="1132" 
d="M520 1524q-75 0 -117 49.5t-32 128.5q9 79 63 128.5t131 49.5q75 0 115.5 -49.5t30.5 -128.5q-9 -80 -62 -129t-129 -49zM932 1524q-76 0 -117.5 49t-32.5 129q11 80 64 129t129 49q78 0 119 -49t30 -129q-9 -80 -61.5 -129t-130.5 -49zM1186 1143q-6 -39 -43 -39h-580
q-15 0 -18 -17l-23 -180q0 -16 15 -16h354q36 0 33 -39l-31 -250q-6 -39 -43 -39h-354q-17 0 -17 -16l-24 -201q-3 -16 12 -16h582q35 0 32 -39l-30 -252q-6 -39 -43 -39h-932q-39 0 -33 39l166 1356q6 39 43 39h932q36 0 33 -39z" />
    <glyph glyph-name="Igrave" unicode="&#xcc;" horiz-adv-x="528" 
d="M571 1612q7 -22 -1.5 -34.5t-30.5 -12.5h-238q-28 0 -43 24l-106 176q-11 19 -3 33t31 14h283q30 0 41 -28zM76 0q-39 0 -33 39l166 1356q6 39 43 39h297q39 0 33 -39l-166 -1356q-3 -39 -43 -39h-297z" />
    <glyph glyph-name="Iacute" unicode="&#xcd;" horiz-adv-x="528" 
d="M291 1565q-22 0 -28 12.5t7 34.5l111 172q17 28 47 28h281q24 0 29 -14t-11 -33l-149 -176q-21 -24 -50 -24h-237zM76 0q-39 0 -33 39l166 1356q6 39 43 39h297q39 0 33 -39l-166 -1356q-3 -39 -43 -39h-297z" />
    <glyph glyph-name="Icircumflex" unicode="&#xce;" horiz-adv-x="528" 
d="M111 1565q-23 0 -28.5 13.5t9.5 33.5l158 192q19 25 49 25h295q31 0 45 -25l111 -192q10 -20 1.5 -33.5t-30.5 -13.5h-205q-29 0 -41 26l-33 80q-10 17 -24 0l-53 -80q-17 -26 -48 -26h-206zM76 0q-39 0 -33 39l166 1356q6 39 43 39h297q39 0 33 -39l-166 -1356
q-3 -39 -43 -39h-297z" />
    <glyph glyph-name="Idieresis" unicode="&#xcf;" horiz-adv-x="528" 
d="M207 1524q-75 0 -118 49.5t-34 128.5q10 79 65 128.5t130 49.5q76 0 117 -49t30 -129q-9 -80 -61.5 -129t-128.5 -49zM618 1524q-77 0 -117.5 49t-31.5 129q9 79 62.5 128.5t130.5 49.5t117.5 -49t31.5 -129q-9 -79 -62.5 -128.5t-130.5 -49.5zM76 0q-39 0 -33 39
l166 1356q6 39 43 39h297q39 0 33 -39l-166 -1356q-3 -39 -43 -39h-297z" />
    <glyph glyph-name="Eth" unicode="&#xd0;" horiz-adv-x="1310" 
d="M838 1434q245 0 379 -127t108 -334l-63 -512q-25 -207 -190 -334t-410 -127h-502q-39 0 -33 39l68 551q0 16 -15 16h-30q-36 0 -33 39l22 178q3 39 43 39h29q15 0 18 17l64 516q3 39 43 39h502zM897 526l47 381q11 89 -26 143t-109 54h-164q-6 0 -11 -5t-5 -12l-27 -208
q0 -17 14 -17h91q35 0 32 -39l-22 -178q-3 -39 -43 -39h-88q-16 0 -19 -16l-30 -244q0 -16 14 -16h166q67 0 117 54t63 142z" />
    <glyph glyph-name="Ntilde" unicode="&#xd1;" horiz-adv-x="1306" 
d="M922 1546q-62 0 -131 51q-41 29 -68 29q-40 0 -64 -27q-28 -32 -53 -12l-88 72q-25 19 -10 53q38 75 96.5 116.5t122.5 41.5q25 0 49 -7.5t39 -16t41 -25.5q44 -31 86 -31q32 0 57 25q29 32 54 12l90 -72q27 -24 -4 -69q-48 -69 -105 -104.5t-112 -35.5zM76 0
q-39 0 -33 39l166 1356q6 39 43 39h285q31 0 43 -27l309 -678q4 -9 11.5 -7.5t8.5 13.5l78 660q6 39 43 39h299q36 0 33 -39l-168 -1356q-3 -39 -41 -39h-287q-31 0 -43 27l-307 690q-4 11 -11.5 9.5t-8.5 -13.5l-80 -674q-3 -39 -43 -39h-297z" />
    <glyph glyph-name="Ograve" unicode="&#xd2;" horiz-adv-x="1232" 
d="M922 1602q7 -22 -2 -35t-31 -13h-238q-27 0 -43 25l-106 176q-11 19 -3 33t31 14h283q30 0 41 -28zM573 -25q-251 0 -385.5 151t-103.5 398l47 385q31 243 202 392t421 149q252 0 387 -149t104 -392l-47 -385q-29 -247 -201 -398t-424 -151zM614 305q83 0 141 56.5
t68 150.5l49 401q12 94 -31 150.5t-128 56.5q-82 0 -139.5 -57t-67.5 -150l-49 -401q-12 -94 31 -150.5t126 -56.5z" />
    <glyph glyph-name="Oacute" unicode="&#xd3;" horiz-adv-x="1232" 
d="M641 1554q-22 0 -27.5 13t7.5 35l110 172q17 28 47 28h281q24 0 29 -14t-11 -33l-149 -176q-22 -25 -49 -25h-238zM573 -25q-251 0 -385.5 151t-103.5 398l47 385q31 243 202 392t421 149q252 0 387 -149t104 -392l-47 -385q-29 -247 -201 -398t-424 -151zM614 305
q83 0 141 56.5t68 150.5l49 401q12 94 -31 150.5t-128 56.5q-82 0 -139.5 -57t-67.5 -150l-49 -401q-12 -94 31 -150.5t126 -56.5z" />
    <glyph glyph-name="Ocircumflex" unicode="&#xd4;" horiz-adv-x="1232" 
d="M461 1554q-22 0 -28 14t9 34l158 192q19 25 49 25h295q31 0 45 -25l111 -192q11 -20 2 -34t-31 -14h-205q-29 0 -41 27l-32 80q-4 7 -11.5 7t-13.5 -7l-53 -80q-18 -27 -47 -27h-207zM573 -25q-251 0 -385.5 151t-103.5 398l47 385q31 243 202 392t421 149
q252 0 387 -149t104 -392l-47 -385q-29 -247 -201 -398t-424 -151zM614 305q83 0 141 56.5t68 150.5l49 401q12 94 -31 150.5t-128 56.5q-82 0 -139.5 -57t-67.5 -150l-49 -401q-12 -94 31 -150.5t126 -56.5z" />
    <glyph glyph-name="Otilde" unicode="&#xd5;" horiz-adv-x="1232" 
d="M903 1536q-27 0 -54 9t-40 17.5t-37 24.5q-41 29 -67 29q-38 0 -62 -27q-30 -33 -53 -12l-90 72q-23 18 -8 53q36 75 95 116.5t122 41.5q25 0 49 -8t38.5 -16t41.5 -26q49 -30 88 -30q33 0 57 24q29 32 53 13l90 -72q25 -22 -4 -70q-48 -69 -105 -104t-114 -35zM573 -25
q-251 0 -385.5 151t-103.5 398l47 385q31 243 202 392t421 149q252 0 387 -149t104 -392l-47 -385q-29 -247 -201 -398t-424 -151zM614 305q83 0 141 56.5t68 150.5l49 401q12 94 -31 150.5t-128 56.5q-82 0 -139.5 -57t-67.5 -150l-49 -401q-12 -94 31 -150.5t126 -56.5z
" />
    <glyph glyph-name="Odieresis" unicode="&#xd6;" horiz-adv-x="1232" 
d="M557 1513q-75 0 -117.5 50t-33.5 129q10 79 64.5 128.5t129.5 49.5q77 0 117.5 -49.5t30.5 -128.5q-9 -80 -62 -129.5t-129 -49.5zM969 1513q-77 0 -118 49.5t-32 129.5q11 80 64 129t129 49q77 0 117.5 -49t31.5 -129t-62.5 -129.5t-129.5 -49.5zM573 -25
q-251 0 -385.5 151t-103.5 398l47 385q31 243 202 392t421 149q252 0 387 -149t104 -392l-47 -385q-29 -247 -201 -398t-424 -151zM614 305q83 0 141 56.5t68 150.5l49 401q12 94 -31 150.5t-128 56.5q-82 0 -139.5 -57t-67.5 -150l-49 -401q-12 -94 31 -150.5t126 -56.5z
" />
    <glyph glyph-name="multiply" unicode="&#xd7;" horiz-adv-x="917" 
d="M913 860q23 -27 -6 -53l-172 -158q-13 -13 -2 -24l133 -158q22 -25 -6 -53l-194 -178q-13 -13 -28.5 -14t-25.5 11l-133 158q-10 10 -24 0l-172 -158q-29 -26 -52 3l-151 178q-21 28 8 53l172 158q13 13 2 24l-133 158q-23 27 6 53l195 178q13 12 27.5 12t23.5 -12
l135 -157q3 -5 10.5 -5t12.5 5l172 157q30 26 53 0z" />
    <glyph glyph-name="Oslash" unicode="&#xd8;" horiz-adv-x="1232" 
d="M1128 1335q-6 -11 2 -22q145 -151 115 -404l-47 -385q-29 -247 -201 -398t-424 -151q-130 0 -239 45q-14 7 -23 -8l-26 -45q-17 -28 -47 -28h-99q-20 0 -26 12.5t6 34.5l71 116q6 10 0 23q-136 149 -106 399l47 385q31 243 202 392t421 149q124 0 227 -39q15 -6 23 8
l28 47q19 29 47 29h99q21 0 26 -12.5t-8 -34.5zM506 913l-41 -331q-1 -12 6 -13.5t12 9.5l312 505q9 16 -4 21q-37 16 -78 16q-82 0 -139.5 -57t-67.5 -150zM823 512l45 369q1 12 -5.5 13.5t-12.5 -9.5l-330 -533q-11 -15 4 -22q39 -25 90 -25q83 0 141 56.5t68 150.5z" />
    <glyph glyph-name="Ugrave" unicode="&#xd9;" horiz-adv-x="1224" 
d="M922 1612q7 -22 -2.5 -34.5t-32.5 -12.5h-236q-28 0 -43 24l-106 176q-12 19 -4 33t32 14h283q31 0 39 -28zM571 -16q-245 0 -377 141t-104 373l111 897q6 39 43 39h297q37 0 34 -39l-110 -897q-10 -83 30 -134t117 -51q76 0 129 51t64 134l108 897q6 39 43 39h299
q36 0 33 -39l-110 -897q-29 -232 -196 -373t-411 -141z" />
    <glyph glyph-name="Uacute" unicode="&#xda;" horiz-adv-x="1224" 
d="M641 1565q-23 0 -29 12.5t6 34.5l111 172q17 28 47 28h283q24 0 29 -14t-11 -33l-151 -176q-21 -24 -49 -24h-236zM571 -16q-245 0 -377 141t-104 373l111 897q6 39 43 39h297q37 0 34 -39l-110 -897q-10 -83 30 -134t117 -51q76 0 129 51t64 134l108 897q6 39 43 39h299
q36 0 33 -39l-110 -897q-29 -232 -196 -373t-411 -141z" />
    <glyph glyph-name="Ucircumflex" unicode="&#xdb;" horiz-adv-x="1224" 
d="M461 1565q-23 0 -28.5 13.5t9.5 33.5l156 192q19 25 49 25h297q31 0 45 -25l111 -192q10 -20 1.5 -33.5t-30.5 -13.5h-205q-29 0 -41 26l-34 80q-3 7 -11 7t-12 -7l-53 -80q-17 -26 -47 -26h-207zM571 -16q-245 0 -377 141t-104 373l111 897q6 39 43 39h297q37 0 34 -39
l-110 -897q-10 -83 30 -134t117 -51q76 0 129 51t64 134l108 897q6 39 43 39h299q36 0 33 -39l-110 -897q-29 -232 -196 -373t-411 -141z" />
    <glyph glyph-name="Udieresis" unicode="&#xdc;" horiz-adv-x="1224" 
d="M557 1524q-76 0 -118 49t-33 129q9 79 63.5 128.5t130.5 49.5t116.5 -49t31.5 -129q-9 -79 -62.5 -128.5t-128.5 -49.5zM969 1524q-78 0 -119.5 49t-30.5 129q9 80 62 129t131 49q76 0 117 -49t32 -129q-11 -80 -63.5 -129t-128.5 -49zM571 -16q-245 0 -377 141t-104 373
l111 897q6 39 43 39h297q37 0 34 -39l-110 -897q-10 -83 30 -134t117 -51q76 0 129 51t64 134l108 897q6 39 43 39h299q36 0 33 -39l-110 -897q-29 -232 -196 -373t-411 -141z" />
    <glyph glyph-name="Yacute" unicode="&#xdd;" horiz-adv-x="1292" 
d="M670 1538q-23 0 -29 12.5t6 34.5l111 172q17 29 47 29h282q23 0 28.5 -14t-9.5 -33l-152 -176q-22 -25 -49 -25h-235zM457 4q-36 0 -33 39l55 440q0 15 -2 21l-291 885q-6 21 4 33t31 12h324q33 0 41 -31l125 -473q3 -9 8 -9t10 9l242 473q13 31 47 31h325q22 0 29 -11.5
t-4 -33.5l-512 -885q-6 -18 -6 -21l-53 -440q-6 -39 -43 -39h-297z" />
    <glyph glyph-name="Thorn" unicode="&#xde;" horiz-adv-x="1171" 
d="M768 1174q211 0 326 -128t90 -333q-16 -133 -95.5 -237.5t-198 -160t-253.5 -55.5h-184q-16 0 -19 -16l-24 -205q-3 -39 -43 -39h-297q-39 0 -33 39l166 1356q6 39 43 39h297q38 0 32 -39l-24 -205q0 -16 14 -16h203zM633 569q74 0 122.5 34.5t55.5 101.5
q9 68 -30.5 103.5t-114.5 35.5h-142q-15 0 -18 -17l-29 -241q-3 -17 15 -17h141z" />
    <glyph glyph-name="germandbls" unicode="&#xdf;" horiz-adv-x="1239" 
d="M70 2q-36 0 -33 39l113 915q29 234 183.5 364t407.5 130t391 -111t113 -301q-17 -155 -145 -239q-18 -12 -4 -23q59 -49 88 -139t16 -201q-27 -211 -192 -323.5t-467 -112.5h-17q-35 0 -32 39l30 250q3 39 43 39h72q80 0 132.5 39.5t61.5 109.5t-34 110t-123 40h-72
q-39 0 -33 39l27 221q3 39 43 39h80q59 0 102.5 31t48.5 71q4 35 -26.5 64.5t-112.5 29.5q-72 0 -134.5 -34.5t-70.5 -94.5l-116 -954q-3 -39 -43 -39z" />
    <glyph glyph-name="agrave" unicode="&#xe0;" horiz-adv-x="1120" 
d="M823 1217q7 -22 -2.5 -35t-32.5 -13h-235q-27 0 -43 25l-107 176q-12 19 -3 33t32 14h283q31 0 39 -28zM768 1026q3 39 43 39h297q39 0 33 -39l-121 -987q-3 -39 -43 -39h-297q-39 0 -33 39l4 43q1 10 -4.5 11.5t-11.5 -7.5q-89 -102 -238 -102q-132 0 -228 87t-122 236
q-16 100 -2 230q20 148 78 262q62 124 173.5 203t252.5 79q138 0 196 -86q6 -8 12.5 -4.5t6.5 13.5zM659 383q39 61 48 147q12 94 -13 158q-26 64 -96 64t-113 -68q-36 -56 -49 -154q-10 -93 13 -149q27 -68 96 -68q67 0 114 70z" />
    <glyph glyph-name="aacute" unicode="&#xe1;" horiz-adv-x="1120" 
d="M961 1417q24 0 29 -14t-11 -33l-152 -176q-22 -25 -47 -25h-237q-22 0 -28.5 13t5.5 35l111 172q17 28 47 28h283zM768 1026q3 39 43 39h297q39 0 33 -39l-121 -987q-3 -39 -43 -39h-297q-39 0 -33 39l4 43q1 10 -4.5 11.5t-11.5 -7.5q-89 -102 -238 -102q-132 0 -228 87
t-122 236q-16 100 -2 230q20 148 78 262q62 124 173.5 203t252.5 79q138 0 196 -86q6 -8 12.5 -4.5t6.5 13.5zM659 383q39 61 48 147q12 94 -13 158q-26 64 -96 64t-113 -68q-36 -56 -49 -154q-10 -93 13 -149q27 -68 96 -68q67 0 114 70z" />
    <glyph glyph-name="acircumflex" unicode="&#xe2;" horiz-adv-x="1120" 
d="M692 1276q-3 8 -10.5 8t-11.5 -8l-54 -80q-18 -27 -47 -27h-207q-23 0 -28 14t10 34l158 192q17 25 47 25h297q31 0 45 -25l110 -192q10 -20 2 -34t-30 -14h-205q-29 0 -41 27zM768 1026q3 39 43 39h297q39 0 33 -39l-121 -987q-3 -39 -43 -39h-297q-39 0 -33 39l4 43
q1 10 -4.5 11.5t-11.5 -7.5q-89 -102 -238 -102q-132 0 -228 87t-122 236q-16 100 -2 230q20 148 78 262q62 124 173.5 203t252.5 79q138 0 196 -86q6 -8 12.5 -4.5t6.5 13.5zM659 383q39 61 48 147q12 94 -13 158q-26 64 -96 64t-113 -68q-36 -56 -49 -154q-10 -93 13 -149
q27 -68 96 -68q67 0 114 70z" />
    <glyph glyph-name="atilde" unicode="&#xe3;" horiz-adv-x="1120" 
d="M606 1231q-36 0 -63 -27q-29 -32 -54 -12l-88 72q-25 19 -10 53q38 75 96.5 116.5t122.5 41.5q25 0 49 -8t38.5 -16t41.5 -26q49 -30 88 -30q35 0 56 24q29 32 53 13l92 -72q22 -22 6 -53q-49 -78 -109.5 -117t-119.5 -39q-62 0 -131 51q-41 29 -68 29zM768 1026
q3 39 43 39h297q39 0 33 -39l-121 -987q-3 -39 -43 -39h-297q-39 0 -33 39l4 43q1 10 -4.5 11.5t-11.5 -7.5q-89 -102 -238 -102q-132 0 -228 87t-122 236q-16 100 -2 230q20 148 78 262q62 124 173.5 203t252.5 79q138 0 196 -86q6 -8 12.5 -4.5t6.5 13.5zM659 383
q39 61 48 147q12 94 -13 158q-26 64 -96 64t-113 -68q-36 -56 -49 -154q-10 -93 13 -149q27 -68 96 -68q67 0 114 70z" />
    <glyph glyph-name="adieresis" unicode="&#xe4;" horiz-adv-x="1120" 
d="M459 1128q-77 0 -119 50t-33 129q10 79 65 128.5t130 49.5q76 0 116 -49t31 -129q-9 -79 -62 -129t-128 -50zM870 1128q-78 0 -119 49.5t-30 129.5q9 79 62 128.5t130 49.5q76 0 117.5 -49t32.5 -129q-11 -80 -64 -129.5t-129 -49.5zM768 1026q3 39 43 39h297
q39 0 33 -39l-121 -987q-3 -39 -43 -39h-297q-39 0 -33 39l4 43q1 10 -4.5 11.5t-11.5 -7.5q-89 -102 -238 -102q-132 0 -228 87t-122 236q-16 100 -2 230q20 148 78 262q62 124 173.5 203t252.5 79q138 0 196 -86q6 -8 12.5 -4.5t6.5 13.5zM659 383q39 61 48 147
q12 94 -13 158q-26 64 -96 64t-113 -68q-36 -56 -49 -154q-10 -93 13 -149q27 -68 96 -68q67 0 114 70z" />
    <glyph glyph-name="aring" unicode="&#xe5;" horiz-adv-x="1120" 
d="M664 1135q-98 0 -156.5 69t-46.5 170q12 100 88 169t174 69t156.5 -69t46.5 -169q-12 -101 -88 -170t-174 -69zM702 1450q-30 0 -53 -22t-26 -54q-4 -31 14 -52.5t47 -21.5t53 21.5t27 52.5q4 32 -14 54t-48 22zM768 1026q3 39 43 39h297q39 0 33 -39l-121 -987
q-3 -39 -43 -39h-297q-39 0 -33 39l4 43q1 10 -4.5 11.5t-11.5 -7.5q-89 -102 -238 -102q-132 0 -228 87t-122 236q-16 100 -2 230q20 148 78 262q62 124 173.5 203t252.5 79q138 0 196 -86q6 -8 12.5 -4.5t6.5 13.5zM659 383q39 61 48 147q12 94 -13 158q-26 64 -96 64
t-113 -68q-36 -56 -49 -154q-10 -93 13 -149q27 -68 96 -68q67 0 114 70z" />
    <glyph glyph-name="ae" unicode="&#xe6;" horiz-adv-x="1677" 
d="M383 -16q-182 0 -281 86t-79 237q18 145 134 231.5t316 86.5h180q7 0 12 5t5 11l2 14q6 43 -21.5 70t-79.5 27q-74 0 -104 -41q-26 -29 -47 -27l-301 41q-35 3 -29 41q36 132 180 223.5t308 91.5q110 0 197.5 -41t127.5 -104q12 -12 23 2q48 57 134.5 100t184.5 43
q141 0 261 -87.5t153 -231.5q22 -95 2 -295q-6 -41 -43 -41h-569q-8 0 -14 -4.5t-5 -11.5q1 -2 2 -7t2 -8q21 -90 174 -90q120 0 191 51q31 22 51 -4l106 -157q17 -31 -10 -56q-181 -155 -399 -155q-124 0 -213.5 48t-120.5 120q-7 18 -14 8q-54 -76 -164.5 -126t-251.5 -50
zM1057 643q-4 -9 -0.5 -13.5t10.5 -4.5h211q18 0 18 18q-1 4 -3 13.5t-3 13.5q-23 82 -100 82q-81 0 -123 -82q-7 -13 -10 -27zM483 246q57 0 103 37.5t53 93.5l4 33q0 16 -14 16h-94q-60 0 -95.5 -24.5t-40.5 -65.5q-5 -35 15.5 -62.5t68.5 -27.5z" />
    <glyph glyph-name="ccedilla" unicode="&#xe7;" horiz-adv-x="1091" 
d="M610 752q-80 0 -121 -74q-31 -55 -43 -141q-9 -84 7 -142q22 -82 104 -82t125 84l6 13q2 9 17 22t30 10l289 -49q36 -7 27 -43q-7 -28 -19 -55q-54 -115 -149.5 -190t-218.5 -105q-19 -3 -9 -20q91 -111 41 -224q-19 -49 -54 -80.5t-73.5 -43.5t-82 -12.5t-78.5 7
t-64 19.5q-24 11 -18 47l28 119q6 21 17.5 25t29.5 -3q25 -6 46 1.5t28 27.5q26 53 -67 127q-5 5 -17 8q-119 28 -199.5 107.5t-109.5 199.5q-26 97 -12 234q17 135 69 231q72 146 209 228.5t305 82.5q169 0 289 -87t150 -218q8 -39 8 -69q0 -36 -39 -43l-297 -48
q-41 -7 -41 25q0 5 -1 15t-1 14q-8 35 -38 58.5t-73 23.5z" />
    <glyph glyph-name="egrave" unicode="&#xe8;" horiz-adv-x="1103" 
d="M809 1233q7 -22 -2 -34.5t-31 -12.5h-237q-28 0 -43 24l-107 176q-11 19 -2.5 33.5t31.5 14.5h282q29 0 41 -29zM627 309q118 7 184 58q36 25 51 -5l113 -192q15 -29 -12 -53q-154 -133 -408 -133q-148 0 -256 54.5t-168 154.5q-81 141 -57 348q11 87 43 172
q66 165 212.5 266.5t323.5 101.5q205 0 315.5 -136.5t121.5 -371.5q3 -49 0 -98q-6 -39 -43 -39h-590q-17 0 -17 -18q3 -15 6 -27q15 -44 63 -64.5t118 -17.5zM604 752q-80 0 -123 -82l-3 -6q-3 -7 -5 -11q-6 -18 12 -18h215q8 0 13 5t2 13q0 3 -1 8.5t-1 8.5
q-23 82 -109 82z" />
    <glyph glyph-name="eacute" unicode="&#xe9;" horiz-adv-x="1103" 
d="M946 1434q24 0 29.5 -14.5t-10.5 -33.5l-150 -176q-21 -24 -49 -24h-238q-22 0 -27.5 12.5t7.5 34.5l110 172q17 29 48 29h280zM627 309q118 7 184 58q36 25 51 -5l113 -192q15 -29 -12 -53q-154 -133 -408 -133q-148 0 -256 54.5t-168 154.5q-81 141 -57 348
q11 87 43 172q66 165 212.5 266.5t323.5 101.5q205 0 315.5 -136.5t121.5 -371.5q3 -49 0 -98q-6 -39 -43 -39h-590q-17 0 -17 -18q3 -15 6 -27q15 -44 63 -64.5t118 -17.5zM604 752q-80 0 -123 -82l-3 -6q-3 -7 -5 -11q-6 -18 12 -18h215q8 0 13 5t2 13q0 3 -1 8.5t-1 8.5
q-23 82 -109 82z" />
    <glyph glyph-name="ecircumflex" unicode="&#xea;" horiz-adv-x="1103" 
d="M680 1292q-4 8 -11.5 8t-13.5 -8l-53 -80q-17 -26 -47 -26h-207q-23 0 -28 13.5t10 33.5l157 192q19 25 50 25h294q32 0 46 -25l110 -192q10 -20 1.5 -33.5t-30.5 -13.5h-204q-29 0 -41 26zM627 309q118 7 184 58q36 25 51 -5l113 -192q15 -29 -12 -53
q-154 -133 -408 -133q-148 0 -256 54.5t-168 154.5q-81 141 -57 348q11 87 43 172q66 165 212.5 266.5t323.5 101.5q205 0 315.5 -136.5t121.5 -371.5q3 -49 0 -98q-6 -39 -43 -39h-590q-17 0 -17 -18q3 -15 6 -27q15 -44 63 -64.5t118 -17.5zM604 752q-80 0 -123 -82l-3 -6
q-3 -7 -5 -11q-6 -18 12 -18h215q8 0 13 5t2 13q0 3 -1 8.5t-1 8.5q-23 82 -109 82z" />
    <glyph glyph-name="edieresis" unicode="&#xeb;" horiz-adv-x="1103" 
d="M444 1145q-75 0 -117.5 49.5t-33.5 128.5q10 79 64.5 128.5t129.5 49.5q77 0 117.5 -49.5t30.5 -128.5q-9 -80 -62 -129t-129 -49zM856 1145q-77 0 -117.5 49t-31.5 129q9 79 62 128.5t130 49.5q78 0 118.5 -49t31.5 -129q-9 -79 -62.5 -128.5t-130.5 -49.5zM627 309
q118 7 184 58q36 25 51 -5l113 -192q15 -29 -12 -53q-154 -133 -408 -133q-148 0 -256 54.5t-168 154.5q-81 141 -57 348q11 87 43 172q66 165 212.5 266.5t323.5 101.5q205 0 315.5 -136.5t121.5 -371.5q3 -49 0 -98q-6 -39 -43 -39h-590q-17 0 -17 -18q3 -15 6 -27
q15 -44 63 -64.5t118 -17.5zM604 752q-80 0 -123 -82l-3 -6q-3 -7 -5 -11q-6 -18 12 -18h215q8 0 13 5t2 13q0 3 -1 8.5t-1 8.5q-23 82 -109 82z" />
    <glyph glyph-name="igrave" unicode="&#xec;" horiz-adv-x="505" 
d="M504 1241q7 -22 -2 -34.5t-31 -12.5h-238q-27 0 -43 25l-106 176q-11 19 -2.5 33t31.5 14h282q29 0 41 -29zM61 0q-38 0 -32 39l121 987q6 39 43 39h296q38 0 35 -39l-123 -987q-3 -39 -41 -39h-299z" />
    <glyph glyph-name="iacute" unicode="&#xed;" horiz-adv-x="505" 
d="M223 1194q-22 0 -27.5 12.5t7.5 34.5l110 172q17 29 47 29h281q24 0 29 -14t-11 -33l-149 -176q-22 -25 -49 -25h-238zM61 0q-38 0 -32 39l121 987q6 39 43 39h296q38 0 35 -39l-123 -987q-3 -39 -41 -39h-299z" />
    <glyph glyph-name="icircumflex" unicode="&#xee;" horiz-adv-x="505" 
d="M43 1194q-22 0 -27.5 13.5t9.5 33.5l157 193q19 24 49 24h295q32 0 45 -24l111 -193q11 -20 2 -33.5t-31 -13.5h-204q-29 0 -41 27l-33 79q-5 8 -12 8t-13 -8l-53 -79q-18 -27 -47 -27h-207zM61 0q-38 0 -32 39l121 987q6 39 43 39h296q38 0 35 -39l-123 -987
q-3 -39 -41 -39h-299z" />
    <glyph glyph-name="idieresis" unicode="&#xef;" horiz-adv-x="505" 
d="M139 1153q-75 0 -117.5 49.5t-33.5 128.5q10 79 64.5 128.5t131.5 49.5q75 0 115.5 -49.5t30.5 -128.5q-9 -80 -62 -129t-129 -49zM551 1153q-76 0 -117.5 49t-32.5 129q11 80 64 129t129 49q77 0 117.5 -49t31.5 -129q-9 -79 -62 -128.5t-130 -49.5zM61 0q-38 0 -32 39
l121 987q6 39 43 39h296q38 0 35 -39l-123 -987q-3 -39 -41 -39h-299z" />
    <glyph glyph-name="eth" unicode="&#xf0;" horiz-adv-x="1093" 
d="M1047 764q19 -128 0 -297q-14 -115 -66 -203q-70 -126 -204 -203t-294 -77q-161 0 -275.5 75t-154.5 205q-28 89 -16 201q16 118 65 201q65 115 179 184q63 36 176.5 54t179.5 1q9 -2 13 3t1 14q-19 57 -39 100q-6 11 -18 8l-199 -47q-37 -9 -43 27l-14 125q-3 36 33 45
l118 28q21 7 11 23q-22 34 -111 155q-13 19 -4.5 33.5t31.5 14.5h309q30 0 41 -25l61 -104q7 -11 21 -7l162 39q40 10 43 -26l14 -125q6 -38 -33 -47l-84 -21q-18 -4 -8 -26q88 -183 105 -328zM629 342q31 54 39 113q7 53 -13 106q-27 68 -94 68q-69 0 -110 -68
q-32 -53 -37 -106q-8 -59 12 -113q26 -72 92 -72q61 0 111 72z" />
    <glyph glyph-name="ntilde" unicode="&#xf1;" 
d="M606 1231q-36 0 -63 -27q-29 -32 -54 -12l-88 72q-25 19 -10 53q38 75 96.5 116.5t122.5 41.5q25 0 49 -8t38.5 -16t41.5 -26q49 -30 88 -30q35 0 56 24q29 32 53 13l92 -72q22 -22 6 -53q-49 -78 -109.5 -117t-119.5 -39q-62 0 -131 51q-41 29 -68 29zM778 1081
q153 0 239.5 -102.5t65.5 -280.5l-82 -659q-3 -39 -40 -39h-299q-39 0 -33 39l69 575q8 62 -18.5 100t-75.5 38q-51 0 -86 -38t-43 -100l-72 -575q-3 -39 -41 -39h-299q-38 0 -32 39l121 987q6 39 43 39h297q38 0 32 -39l-6 -53q-2 -11 4 -14t13 6q88 116 243 116z" />
    <glyph glyph-name="ograve" unicode="&#xf2;" horiz-adv-x="1107" 
d="M815 1233q7 -22 -2.5 -34.5t-32.5 -12.5h-235q-28 0 -43 24l-107 176q-12 19 -3 33.5t32 14.5h283q29 0 41 -29zM512 -16q-188 0 -304.5 105t-137.5 282q-10 66 0 164q13 107 47 182q67 169 207.5 266.5t324.5 97.5t299 -97t142 -263q13 -92 2 -182q-13 -88 -35 -156
q-64 -184 -208 -291.5t-337 -107.5zM553 313q100 0 143 131q12 35 19 93q5 46 2 94q-13 121 -111 121q-97 0 -139 -121q-16 -40 -23 -94q-5 -44 -2 -93q13 -131 111 -131z" />
    <glyph glyph-name="oacute" unicode="&#xf3;" horiz-adv-x="1107" 
d="M535 1186q-22 0 -28.5 12.5t5.5 34.5l111 172q17 29 47 29h282q24 0 29.5 -14.5t-10.5 -33.5l-152 -176q-18 -24 -47 -24h-237zM512 -16q-188 0 -304.5 105t-137.5 282q-10 66 0 164q13 107 47 182q67 169 207.5 266.5t324.5 97.5t299 -97t142 -263q13 -92 2 -182
q-13 -88 -35 -156q-64 -184 -208 -291.5t-337 -107.5zM553 313q100 0 143 131q12 35 19 93q5 46 2 94q-13 121 -111 121q-97 0 -139 -121q-16 -40 -23 -94q-5 -44 -2 -93q13 -131 111 -131z" />
    <glyph glyph-name="ocircumflex" unicode="&#xf4;" horiz-adv-x="1107" 
d="M354 1186q-23 0 -28 13.5t10 33.5l158 192q19 25 47 25h297q31 0 45 -25l110 -192q10 -20 2 -33.5t-30 -13.5h-205q-29 0 -41 26l-33 80q-4 8 -11.5 8t-12.5 -8l-54 -80q-17 -26 -47 -26h-207zM512 -16q-188 0 -304.5 105t-137.5 282q-10 66 0 164q13 107 47 182
q67 169 207.5 266.5t324.5 97.5t299 -97t142 -263q13 -92 2 -182q-13 -88 -35 -156q-64 -184 -208 -291.5t-337 -107.5zM553 313q100 0 143 131q12 35 19 93q5 46 2 94q-13 121 -111 121q-97 0 -139 -121q-16 -40 -23 -94q-5 -44 -2 -93q13 -131 111 -131z" />
    <glyph glyph-name="otilde" unicode="&#xf5;" horiz-adv-x="1107" 
d="M797 1167q-61 0 -131 52q-39 28 -68 28q-37 0 -63 -26q-29 -33 -54 -13l-88 72q-26 19 -8 53q36 75 94.5 116.5t122.5 41.5q25 0 49 -7.5t39 -16t41 -25.5q51 -31 88 -31q33 0 58 25q27 33 51 12l92 -72q25 -22 -4 -69q-48 -69 -106 -104.5t-113 -35.5zM512 -16
q-188 0 -304.5 105t-137.5 282q-10 66 0 164q13 107 47 182q67 169 207.5 266.5t324.5 97.5t299 -97t142 -263q13 -92 2 -182q-13 -88 -35 -156q-64 -184 -208 -291.5t-337 -107.5zM553 313q100 0 143 131q12 35 19 93q5 46 2 94q-13 121 -111 121q-97 0 -139 -121
q-16 -40 -23 -94q-5 -44 -2 -93q13 -131 111 -131z" />
    <glyph glyph-name="odieresis" unicode="&#xf6;" horiz-adv-x="1107" 
d="M451 1145q-77 0 -119 49.5t-33 128.5q10 79 65 128.5t130 49.5q76 0 116 -49t31 -129q-9 -79 -62 -128.5t-128 -49.5zM862 1145q-77 0 -117.5 49t-31.5 129q9 79 62 128.5t130 49.5q78 0 118.5 -49t31.5 -129q-11 -80 -64 -129t-129 -49zM512 -16q-188 0 -304.5 105
t-137.5 282q-10 66 0 164q13 107 47 182q67 169 207.5 266.5t324.5 97.5t299 -97t142 -263q13 -92 2 -182q-13 -88 -35 -156q-64 -184 -208 -291.5t-337 -107.5zM553 313q100 0 143 131q12 35 19 93q5 46 2 94q-13 121 -111 121q-97 0 -139 -121q-16 -40 -23 -94
q-5 -44 -2 -93q13 -131 111 -131z" />
    <glyph glyph-name="divide" unicode="&#xf7;" horiz-adv-x="946" 
d="M535 823q-66 0 -107 48t-33 116q7 66 60 114t118 48t106 -48t32 -114q-7 -67 -59 -115.5t-117 -48.5zM98 455q-38 0 -32 39l30 249q3 39 41 39h783q37 0 34 -39l-30 -249q-6 -39 -43 -39h-783zM444 98q-65 0 -105.5 48.5t-31.5 115.5q8 66 60 114t118 48q64 0 105 -48
t33 -114q-9 -67 -61.5 -115.5t-117.5 -48.5z" />
    <glyph glyph-name="oslash" unicode="&#xf8;" horiz-adv-x="1107" 
d="M1090 721q13 -92 2 -182q-13 -88 -35 -156q-64 -184 -208 -291.5t-337 -107.5q-123 0 -219 47q-11 6 -23 -6l-65 -80q-24 -35 -51 -8l-48 38q-28 22 -2 54l64 77q10 13 0 23q-83 98 -98 242q-10 66 0 164q13 107 47 182q67 169 207.5 266.5t324.5 97.5q138 0 240 -57
q13 -6 22 6l72 88q24 34 53 8l47 -39q27 -21 2 -53l-73 -92q-8 -16 -2 -22q62 -83 80 -199zM444 537q-4 -41 -2 -62q0 -10 6.5 -11.5t12.5 7.5l198 246q13 16 0 22q-26 13 -53 13q-97 0 -139 -121q-16 -40 -23 -94zM696 444q12 35 19 93q2 4 2 10q1 12 -6 13.5t-13 -7.5
l-174 -215q-6 -7 -5.5 -14.5t9.5 -8.5q8 -2 25 -2q100 0 143 131z" />
    <glyph glyph-name="ugrave" unicode="&#xf9;" 
d="M803 1217q7 -22 -2 -35t-31 -13h-238q-27 0 -43 25l-106 176q-11 19 -2.5 33t31.5 14h282q30 0 41 -28zM743 1026q6 39 43 39h297q38 0 35 -39l-123 -987q-3 -39 -41 -39h-299q-35 0 -32 39l6 49q2 11 -5 13t-14 -7q-91 -110 -260 -110q-151 0 -228 101t-54 282l79 659
q6 39 43 39h297q38 0 35 -39l-71 -575q-8 -62 18.5 -100t75.5 -38q42 0 74.5 27t46.5 72q2 5 4 12t2 8z" />
    <glyph glyph-name="uacute" unicode="&#xfa;" 
d="M940 1417q24 0 29 -14t-11 -33l-149 -176q-22 -25 -49 -25h-238q-22 0 -27.5 13t7.5 35l110 172q17 28 47 28h281zM743 1026q6 39 43 39h297q38 0 35 -39l-123 -987q-3 -39 -41 -39h-299q-35 0 -32 39l6 49q2 11 -5 13t-14 -7q-91 -110 -260 -110q-151 0 -228 101
t-54 282l79 659q6 39 43 39h297q38 0 35 -39l-71 -575q-8 -62 18.5 -100t75.5 -38q42 0 74.5 27t46.5 72q2 5 4 12t2 8z" />
    <glyph glyph-name="ucircumflex" unicode="&#xfb;" 
d="M674 1276q-4 8 -11.5 8t-13.5 -8l-53 -80q-18 -27 -47 -27h-207q-22 0 -27.5 14t9.5 34l157 192q19 25 49 25h295q31 0 45 -25l111 -192q10 -20 1.5 -34t-30.5 -14h-204q-29 0 -41 27zM743 1026q6 39 43 39h297q38 0 35 -39l-123 -987q-3 -39 -41 -39h-299q-35 0 -32 39
l6 49q2 11 -5 13t-14 -7q-91 -110 -260 -110q-151 0 -228 101t-54 282l79 659q6 39 43 39h297q38 0 35 -39l-71 -575q-8 -62 18.5 -100t75.5 -38q42 0 74.5 27t46.5 72q2 5 4 12t2 8z" />
    <glyph glyph-name="udieresis" unicode="&#xfc;" 
d="M438 1128q-75 0 -117.5 50t-33.5 129q10 79 64.5 128.5t129.5 49.5q77 0 117.5 -49.5t30.5 -128.5q-9 -80 -62 -129.5t-129 -49.5zM850 1128q-77 0 -118 49.5t-32 129.5q11 80 64 129t129 49q77 0 117.5 -49t31.5 -129t-62.5 -129.5t-129.5 -49.5zM743 1026q6 39 43 39
h297q38 0 35 -39l-123 -987q-3 -39 -41 -39h-299q-35 0 -32 39l6 49q2 11 -5 13t-14 -7q-91 -110 -260 -110q-151 0 -228 101t-54 282l79 659q6 39 43 39h297q38 0 35 -39l-71 -575q-8 -62 18.5 -100t75.5 -38q42 0 74.5 27t46.5 72q2 5 4 12t2 8z" />
    <glyph glyph-name="yacute" unicode="&#xfd;" horiz-adv-x="1060" 
d="M510 1196q-22 0 -28.5 12.5t5.5 34.5l111 172q20 29 47 29h283q24 0 29 -14t-11 -33l-151 -176q-19 -25 -47 -25h-238zM-2 -408q-13 0 -10 39l30 238q1 17 6.5 28t10.5 11h10q129 0 185.5 15.5t70.5 66.5q3 11 0 20l-184 1010q-3 21 7.5 33t29.5 12h319q34 0 37 -35
l41 -469q1 -7 4.5 -9t8 1t7.5 10l152 467q8 35 45 35h319q21 0 28.5 -11.5t-1.5 -33.5l-446 -1024q-36 -78 -64 -129t-68 -101t-84.5 -79t-107.5 -52.5t-144 -33t-188 -9.5h-14z" />
    <glyph glyph-name="thorn" unicode="&#xfe;" horiz-adv-x="1091" 
d="M1085 799q29 -121 13 -262q-17 -132 -60 -230q-62 -149 -179 -236t-249 -87q-119 0 -182 63q-6 6 -11.5 4t-6.5 -12l-50 -410q-6 -39 -43 -39h-299q-35 0 -32 39l217 1766q6 39 43 39h297q38 0 32 -39l-43 -355q0 -21 19 -8q71 49 178 49q141 0 232 -78.5t124 -203.5z
M657 381q39 60 48 149q12 90 -11 154q-25 68 -98 68q-58 0 -98 -50q-9 -14 -9 -18l-36 -301q-3 -8 4 -21q25 -49 86 -49q69 0 114 68z" />
    <glyph glyph-name="ydieresis" unicode="&#xff;" horiz-adv-x="1060" 
d="M426 1155q-77 0 -119 49.5t-33 128.5q10 79 65 128.5t130 49.5q76 0 116 -49t31 -129q-9 -79 -62 -128.5t-128 -49.5zM838 1155q-78 0 -118.5 49t-31.5 129q9 79 62.5 128.5t130.5 49.5t117.5 -49t31.5 -129q-11 -80 -63.5 -129t-128.5 -49zM-2 -408q-13 0 -10 39l30 238
q1 17 6.5 28t10.5 11h10q129 0 185.5 15.5t70.5 66.5q3 11 0 20l-184 1010q-3 21 7.5 33t29.5 12h319q34 0 37 -35l41 -469q1 -7 4.5 -9t8 1t7.5 10l152 467q8 35 45 35h319q21 0 28.5 -11.5t-1.5 -33.5l-446 -1024q-36 -78 -64 -129t-68 -101t-84.5 -79t-107.5 -52.5
t-144 -33t-188 -9.5h-14z" />
    <glyph glyph-name="Amacron" unicode="&#x100;" horiz-adv-x="1419" 
d="M1157 1786q36 0 33 -39l-23 -178q-3 -39 -41 -39h-542q-39 0 -33 39l20 178q6 39 43 39h543zM975 0q-34 0 -37 33l-23 147q0 6 -5 10.5t-11 4.5h-412q-13 0 -20 -15l-57 -147q-11 -33 -45 -33h-324q-19 0 -26 11.5t1 33.5l580 1356q13 33 45 33h410q29 0 36 -33
l248 -1356q3 -21 -7.5 -33t-31.5 -12h-321zM594 508q-4 -19 12 -19h246q8 0 12.5 6t3.5 13l-67 473q-2 7 -6 9.5t-8 0t-7 -9.5z" />
    <glyph glyph-name="amacron" unicode="&#x101;" horiz-adv-x="1120" 
d="M971 1417q39 0 33 -39l-23 -178q-3 -39 -41 -39h-543q-38 0 -32 39l20 178q6 39 43 39h543zM768 1026q3 39 43 39h297q39 0 33 -39l-121 -987q-3 -39 -43 -39h-297q-39 0 -33 39l4 43q1 10 -4.5 11.5t-11.5 -7.5q-89 -102 -238 -102q-132 0 -228 87t-122 236
q-16 100 -2 230q20 148 78 262q62 124 173.5 203t252.5 79q138 0 196 -86q6 -8 12.5 -4.5t6.5 13.5zM659 383q39 61 48 147q12 94 -13 158q-26 64 -96 64t-113 -68q-36 -56 -49 -154q-10 -93 13 -149q27 -68 96 -68q67 0 114 70z" />
    <glyph glyph-name="Abreve" unicode="&#x102;" horiz-adv-x="1419" 
d="M848 1481q-103 0 -170.5 63t-69.5 158q0 41 41 41h113q31 0 37 -35q13 -63 69 -63q27 0 49.5 17t32.5 46q15 35 47 35h113q19 0 28 -10.5t5 -28.5q-26 -96 -109.5 -159.5t-185.5 -63.5zM975 0q-34 0 -37 33l-23 147q0 6 -5 10.5t-11 4.5h-412q-13 0 -20 -15l-57 -147
q-11 -33 -45 -33h-324q-19 0 -26 11.5t1 33.5l580 1356q13 33 45 33h410q29 0 36 -33l248 -1356q3 -21 -7.5 -33t-31.5 -12h-321zM594 508q-4 -19 12 -19h246q8 0 12.5 6t3.5 13l-67 473q-2 7 -6 9.5t-8 0t-7 -9.5z" />
    <glyph glyph-name="abreve" unicode="&#x103;" horiz-adv-x="1120" 
d="M662 1112q-103 0 -170.5 63t-69.5 158q0 41 41 41h112q31 0 37 -35q13 -63 70 -63q27 0 49.5 17t32.5 46q15 35 47 35h113q41 0 32 -39q-26 -96 -109 -159.5t-185 -63.5zM768 1026q3 39 43 39h297q39 0 33 -39l-121 -987q-3 -39 -43 -39h-297q-39 0 -33 39l4 43
q1 10 -4.5 11.5t-11.5 -7.5q-89 -102 -238 -102q-132 0 -228 87t-122 236q-16 100 -2 230q20 148 78 262q62 124 173.5 203t252.5 79q138 0 196 -86q6 -8 12.5 -4.5t6.5 13.5zM659 383q39 61 48 147q12 94 -13 158q-26 64 -96 64t-113 -68q-36 -56 -49 -154q-10 -93 13 -149
q27 -68 96 -68q67 0 114 70z" />
    <glyph glyph-name="Aogonek" unicode="&#x104;" horiz-adv-x="1419" 
d="M1257 0q-8 0 -20 -6q-75 -46 -112 -86.5t-31 -69.5q4 -20 22.5 -27t44.5 -1q22 7 32 2.5t11 -25.5l-2 -119q0 -36 -31 -47q-31 -12 -68 -19.5t-79.5 -6.5t-78 13t-62.5 43.5t-35 80.5q-21 128 123 248q18 14 16 20h-12q-34 0 -37 33l-23 147q0 6 -5 10.5t-11 4.5h-412
q-13 0 -20 -15l-57 -147q-11 -33 -45 -33h-324q-19 0 -26 11.5t1 33.5l580 1356q13 33 45 33h410q29 0 36 -33l248 -1356q3 -21 -7.5 -33t-31.5 -12h-39zM594 508q-4 -19 12 -19h246q8 0 12.5 6t3.5 13l-67 473q-2 7 -6 9.5t-8 0t-7 -9.5z" />
    <glyph glyph-name="aogonek" unicode="&#x105;" horiz-adv-x="1191" 
d="M768 1026q3 39 43 39h297q39 0 33 -39l-121 -987q-3 -39 -16 -39h-3q-8 0 -20 -6q-75 -46 -112 -86.5t-31 -69.5q4 -20 22.5 -27t44.5 -1q22 7 32 2.5t11 -25.5l-2 -119q0 -36 -31 -47q-32 -12 -68.5 -19.5t-79 -6.5t-78.5 13t-63.5 43.5t-35.5 80.5q-18 129 125 248
q9 8 8 14t-12 6h-31q-39 0 -33 39l4 43q1 10 -4.5 11.5t-11.5 -7.5q-89 -102 -238 -102q-132 0 -228 87t-122 236q-16 100 -2 230q20 148 78 262q62 124 173.5 203t252.5 79q138 0 196 -86q6 -8 12.5 -4.5t6.5 13.5zM659 383q39 61 48 147q12 94 -13 158q-26 64 -96 64
t-113 -68q-36 -56 -49 -154q-10 -93 13 -149q27 -68 96 -68q67 0 114 70z" />
    <glyph glyph-name="Cacute" unicode="&#x106;" horiz-adv-x="1210" 
d="M635 1554q-23 0 -29.5 13t6.5 35l111 172q17 28 47 28h283q23 0 28 -14t-12 -33l-149 -176q-22 -25 -50 -25h-235zM565 -16q-247 0 -379.5 145t-103.5 383l51 414q29 236 197 380t415 144q248 0 382 -135.5t106 -358.5q0 -19 -37 -22l-301 -21q-12 -1 -21 0.5t-13.5 4.5
t-4.5 6l2 12q10 83 -31.5 133.5t-119.5 50.5q-80 0 -134.5 -50.5t-64.5 -133.5l-53 -440q-11 -82 31 -132.5t120 -50.5q79 0 133.5 50.5t63.5 132.5q2 11 14 17t29 5l297 -16q35 -3 35 -10l-2 -11q-28 -224 -195.5 -360.5t-415.5 -136.5z" />
    <glyph glyph-name="cacute" unicode="&#x107;" horiz-adv-x="1091" 
d="M532 1186q-22 0 -28 12.5t6 34.5l111 172q20 29 49 29h280q24 0 29.5 -14.5t-10.5 -33.5l-152 -176q-18 -24 -47 -24h-238zM518 -16q-167 0 -283 85t-153 236q-26 97 -12 234q17 135 69 231q72 146 209 228.5t305 82.5q169 0 289 -87t150 -218q8 -39 8 -69q0 -36 -39 -43
l-297 -48q-41 -7 -41 25q0 5 -1 15t-1 14q-8 35 -38 58.5t-73 23.5q-80 0 -121 -74q-31 -55 -43 -141q-9 -84 7 -142q22 -82 104 -82t125 84l6 13q2 9 17 22t30 10l289 -49q36 -7 27 -43q-7 -28 -19 -55q-69 -149 -208 -230t-306 -81z" />
    <glyph glyph-name="Cdotaccent" unicode="&#x10a;" horiz-adv-x="1210" 
d="M754 1513q-69 0 -107 45t-29 117q9 73 57.5 117.5t119.5 44.5q69 0 105 -44t28 -118q-9 -73 -56.5 -117.5t-117.5 -44.5zM565 -16q-247 0 -379.5 145t-103.5 383l51 414q29 236 197 380t415 144q248 0 382 -135.5t106 -358.5q0 -19 -37 -22l-301 -21q-12 -1 -21 0.5
t-13.5 4.5t-4.5 6l2 12q10 83 -31.5 133.5t-119.5 50.5q-80 0 -134.5 -50.5t-64.5 -133.5l-53 -440q-11 -82 31 -132.5t120 -50.5q79 0 133.5 50.5t63.5 132.5q2 11 14 17t29 5l297 -16q35 -3 35 -10l-2 -11q-28 -224 -195.5 -360.5t-415.5 -136.5z" />
    <glyph glyph-name="cdotaccent" unicode="&#x10b;" horiz-adv-x="1091" 
d="M653 1145q-70 0 -107 45t-28 117q9 73 57 117t117 44q70 0 106 -43.5t27 -117.5q-8 -72 -55.5 -117t-116.5 -45zM518 -16q-167 0 -283 85t-153 236q-26 97 -12 234q17 135 69 231q72 146 209 228.5t305 82.5q169 0 289 -87t150 -218q8 -39 8 -69q0 -36 -39 -43l-297 -48
q-41 -7 -41 25q0 5 -1 15t-1 14q-8 35 -38 58.5t-73 23.5q-80 0 -121 -74q-31 -55 -43 -141q-9 -84 7 -142q22 -82 104 -82t125 84l6 13q2 9 17 22t30 10l289 -49q36 -7 27 -43q-7 -28 -19 -55q-69 -149 -208 -230t-306 -81z" />
    <glyph glyph-name="Ccaron" unicode="&#x10c;" horiz-adv-x="1210" 
d="M590 1542q-32 0 -41 27l-90 190q-9 20 -0.5 33.5t30.5 13.5h201q29 0 41 -26l35 -80q3 -8 10.5 -8t11.5 8l54 80q17 26 47 26h198q23 0 28 -13.5t-9 -33.5l-141 -190q-17 -27 -50 -27h-325zM565 -16q-247 0 -379.5 145t-103.5 383l51 414q29 236 197 380t415 144
q248 0 382 -135.5t106 -358.5q0 -19 -37 -22l-301 -21q-12 -1 -21 0.5t-13.5 4.5t-4.5 6l2 12q10 83 -31.5 133.5t-119.5 50.5q-80 0 -134.5 -50.5t-64.5 -133.5l-53 -440q-11 -82 31 -132.5t120 -50.5q79 0 133.5 50.5t63.5 132.5q2 11 14 17t29 5l297 -16q35 -3 35 -10
l-2 -11q-28 -224 -195.5 -360.5t-415.5 -136.5z" />
    <glyph glyph-name="ccaron" unicode="&#x10d;" horiz-adv-x="1091" 
d="M489 1174q-31 0 -43 26l-88 191q-10 20 -1 33.5t32 13.5h201q29 0 41 -27l33 -80q10 -17 24 0l53 80q18 27 47 27h199q23 0 28 -13.5t-9 -33.5l-142 -191q-20 -26 -49 -26h-326zM518 -16q-167 0 -283 85t-153 236q-26 97 -12 234q17 135 69 231q72 146 209 228.5
t305 82.5q169 0 289 -87t150 -218q8 -39 8 -69q0 -36 -39 -43l-297 -48q-41 -7 -41 25q0 5 -1 15t-1 14q-8 35 -38 58.5t-73 23.5q-80 0 -121 -74q-31 -55 -43 -141q-9 -84 7 -142q22 -82 104 -82t125 84l6 13q2 9 17 22t30 10l289 -49q36 -7 27 -43q-7 -28 -19 -55
q-69 -149 -208 -230t-306 -81z" />
    <glyph glyph-name="Dcaron" unicode="&#x10e;" horiz-adv-x="1226" 
d="M563 1536q-32 0 -41 27l-90 190q-9 20 0 33.5t31 13.5h201q29 0 41 -26l34 -80q3 -8 11 -8t12 8l53 80q17 26 47 26h199q23 0 27.5 -13.5t-9.5 -33.5l-141 -190q-17 -27 -49 -27h-326zM76 0q-39 0 -33 39l166 1356q6 39 43 39h502q245 0 379 -127t108 -334l-61 -512
q-26 -207 -192 -334t-410 -127h-502zM455 346q-3 -16 12 -16h166q67 0 117 54t63 142l47 381q11 89 -26 143t-109 54h-162q-15 0 -18 -17z" />
    <glyph glyph-name="dcaron" unicode="&#x10f;" horiz-adv-x="1509" 
d="M1626 1417q24 0 29 -14t-10 -33l-152 -176q-22 -25 -49 -25h-268q-19 0 -19 -16l-137 -1114q-3 -39 -43 -39h-297q-39 0 -33 39l4 43q1 10 -4.5 11.5t-11.5 -7.5q-89 -102 -238 -102q-132 0 -228 87t-122 236q-16 100 -2 230q20 148 78 262q62 124 173.5 203t252.5 79
q138 0 196 -86q6 -8 12.5 -4.5t6.5 13.5l49 391q3 39 43 39h297q39 0 33 -39l-23 -181q-1 -12 6 -13.5t15 9.5l112 179q17 28 47 28h283zM659 383q39 61 48 147q12 94 -13 158q-26 64 -96 64t-113 -68q-36 -56 -49 -154q-10 -93 13 -149q27 -68 96 -68q67 0 114 70z" />
    <glyph glyph-name="Dcroat" unicode="&#x110;" horiz-adv-x="1310" 
d="M838 1434q245 0 379 -127t108 -334l-63 -512q-25 -207 -190 -334t-410 -127h-502q-39 0 -33 39l68 551q0 16 -15 16h-30q-36 0 -33 39l22 178q3 39 43 39h29q15 0 18 17l64 516q3 39 43 39h502zM897 526l47 381q11 89 -26 143t-109 54h-164q-6 0 -11 -5t-5 -12l-27 -208
q0 -17 14 -17h91q35 0 32 -39l-22 -178q-3 -39 -43 -39h-88q-16 0 -19 -16l-30 -244q0 -16 14 -16h166q67 0 117 54t63 142z" />
    <glyph glyph-name="dcroat" unicode="&#x111;" horiz-adv-x="1191" 
d="M1237 1348q36 0 33 -39l-19 -148q-6 -39 -43 -39h-39q-15 0 -18 -16l-131 -1067q-3 -39 -43 -39h-297q-39 0 -33 39l4 43q1 10 -4.5 11.5t-11.5 -7.5q-89 -102 -238 -102q-132 0 -228 87t-122 236q-16 100 -2 230q20 148 78 262q62 124 173.5 203t252.5 79q138 0 196 -86
q6 -8 12.5 -4.5t6.5 13.5l14 102q0 16 -14 16h-232q-35 0 -32 39l18 148q6 39 43 39h230q15 0 18 16l4 31q3 39 43 39h297q39 0 33 -39l-4 -31q0 -16 14 -16h41zM659 383q39 61 48 147q12 94 -13 158q-26 64 -96 64t-113 -68q-36 -56 -49 -154q-10 -93 13 -149
q27 -68 96 -68q67 0 114 70z" />
    <glyph glyph-name="Emacron" unicode="&#x112;" horiz-adv-x="1132" 
d="M1032 1812q38 0 35 -38l-23 -179q-6 -39 -43 -39h-542q-36 0 -33 39l23 179q3 38 43 38h540zM1186 1143q-6 -39 -43 -39h-580q-15 0 -18 -17l-23 -180q0 -16 15 -16h354q36 0 33 -39l-31 -250q-6 -39 -43 -39h-354q-17 0 -17 -16l-24 -201q-3 -16 12 -16h582q35 0 32 -39
l-30 -252q-6 -39 -43 -39h-932q-39 0 -33 39l166 1356q6 39 43 39h932q36 0 33 -39z" />
    <glyph glyph-name="emacron" unicode="&#x113;" horiz-adv-x="1103" 
d="M956 1434q39 0 33 -39l-20 -178q-6 -39 -43 -39h-543q-39 0 -33 39l23 178q3 39 41 39h542zM627 309q118 7 184 58q36 25 51 -5l113 -192q15 -29 -12 -53q-154 -133 -408 -133q-148 0 -256 54.5t-168 154.5q-81 141 -57 348q11 87 43 172q66 165 212.5 266.5t323.5 101.5
q205 0 315.5 -136.5t121.5 -371.5q3 -49 0 -98q-6 -39 -43 -39h-590q-17 0 -17 -18q3 -15 6 -27q15 -44 63 -64.5t118 -17.5zM604 752q-80 0 -123 -82l-3 -6q-3 -7 -5 -11q-6 -18 12 -18h215q8 0 13 5t2 13q0 3 -1 8.5t-1 8.5q-23 82 -109 82z" />
    <glyph glyph-name="Edotaccent" unicode="&#x116;" horiz-adv-x="1132" 
d="M725 1524q-69 0 -106.5 45t-28.5 117q9 73 57 117t119 44q69 0 105.5 -44t27.5 -117t-56.5 -117.5t-117.5 -44.5zM1186 1143q-6 -39 -43 -39h-580q-15 0 -18 -17l-23 -180q0 -16 15 -16h354q36 0 33 -39l-31 -250q-6 -39 -43 -39h-354q-17 0 -17 -16l-24 -201
q-3 -16 12 -16h582q35 0 32 -39l-30 -252q-6 -39 -43 -39h-932q-39 0 -33 39l166 1356q6 39 43 39h932q36 0 33 -39z" />
    <glyph glyph-name="edotaccent" unicode="&#x117;" horiz-adv-x="1103" 
d="M649 1145q-70 0 -107 45t-28 117q9 73 57 117t117 44q70 0 106 -43.5t27 -117.5q-8 -72 -55 -117t-117 -45zM627 309q118 7 184 58q36 25 51 -5l113 -192q15 -29 -12 -53q-154 -133 -408 -133q-148 0 -256 54.5t-168 154.5q-81 141 -57 348q11 87 43 172
q66 165 212.5 266.5t323.5 101.5q205 0 315.5 -136.5t121.5 -371.5q3 -49 0 -98q-6 -39 -43 -39h-590q-17 0 -17 -18q3 -15 6 -27q15 -44 63 -64.5t118 -17.5zM604 752q-80 0 -123 -82l-3 -6q-3 -7 -5 -11q-6 -18 12 -18h215q8 0 13 5t2 13q0 3 -1 8.5t-1 8.5
q-23 82 -109 82z" />
    <glyph glyph-name="Eogonek" unicode="&#x118;" horiz-adv-x="1132" 
d="M1186 1143q-6 -39 -43 -39h-580q-15 0 -18 -17l-23 -180q0 -16 15 -16h354q36 0 33 -39l-31 -250q-6 -39 -43 -39h-354q-17 0 -17 -16l-24 -201q-3 -16 12 -16h582q35 0 32 -39l-30 -252q-6 -39 -43 -39h-336q-12 0 -23 -8q-96 -71 -84 -117q3 -20 22 -27.5t44 -1.5
q22 7 32.5 3t10.5 -25v-119q-3 -36 -31 -47q-31 -12 -68 -19.5t-80 -6.5t-79 12.5t-63.5 43.5t-35.5 81q-18 110 86 211q13 20 -6 20h-321q-39 0 -33 39l166 1356q6 39 43 39h932q36 0 33 -39z" />
    <glyph glyph-name="eogonek" unicode="&#x119;" horiz-adv-x="1103" 
d="M627 309q118 7 184 58q36 25 51 -5l113 -192q15 -29 -12 -53q-111 -97 -283 -123q-10 -2 -18 -8q-118 -79 -105 -131q3 -20 22 -27.5t44 -1.5q22 7 32.5 2.5t10.5 -25.5l-2 -118q0 -35 -29 -47q-32 -12 -69 -19.5t-80 -7t-79 12.5t-63 43.5t-35 80.5q-18 117 103 229
q7 8 6.5 13.5t-8.5 7.5q-191 47 -279 195q-81 141 -57 348q11 87 43 172q66 165 212.5 266.5t323.5 101.5q205 0 315.5 -136.5t121.5 -371.5q3 -49 0 -98q-6 -39 -43 -39h-590q-17 0 -17 -18q3 -15 6 -27q15 -44 63 -64.5t118 -17.5zM604 752q-80 0 -123 -82l-3 -6
q-3 -7 -5 -11q-6 -18 12 -18h215q8 0 13 5t2 13q0 3 -1 8.5t-1 8.5q-23 82 -109 82z" />
    <glyph glyph-name="Ecaron" unicode="&#x11a;" horiz-adv-x="1132" 
d="M936 1579q-17 -27 -47 -27h-328q-32 0 -41 27l-90 190q-9 20 0 34t31 14h201q28 0 40 -27l35 -80q3 -8 11 -8t12 8l53 80q18 27 47 27h199q23 0 27.5 -14t-9.5 -34zM1186 1143q-6 -39 -43 -39h-580q-15 0 -18 -17l-23 -180q0 -16 15 -16h354q36 0 33 -39l-31 -250
q-6 -39 -43 -39h-354q-17 0 -17 -16l-24 -201q-3 -16 12 -16h582q35 0 32 -39l-30 -252q-6 -39 -43 -39h-932q-39 0 -33 39l166 1356q6 39 43 39h932q36 0 33 -39z" />
    <glyph glyph-name="ecaron" unicode="&#x11b;" horiz-adv-x="1103" 
d="M860 1200q-20 -26 -49 -26h-326q-31 0 -43 26l-88 191q-10 20 -1 33.5t32 13.5h201q29 0 41 -27l32 -80q5 -7 12 -7t13 7l53 80q18 27 47 27h199q23 0 27.5 -13.5t-9.5 -33.5zM627 309q118 7 184 58q36 25 51 -5l113 -192q15 -29 -12 -53q-154 -133 -408 -133
q-148 0 -256 54.5t-168 154.5q-81 141 -57 348q11 87 43 172q66 165 212.5 266.5t323.5 101.5q205 0 315.5 -136.5t121.5 -371.5q3 -49 0 -98q-6 -39 -43 -39h-590q-17 0 -17 -18q3 -15 6 -27q15 -44 63 -64.5t118 -17.5zM604 752q-80 0 -123 -82l-3 -6q-3 -7 -5 -11
q-6 -18 12 -18h215q8 0 13 5t2 13q0 3 -1 8.5t-1 8.5q-23 82 -109 82z" />
    <glyph glyph-name="Gbreve" unicode="&#x11e;" horiz-adv-x="1208" 
d="M752 1497q-102 0 -169.5 62.5t-70.5 158.5q0 20 11.5 30.5t29.5 10.5h115q28 0 37 -35q4 -29 22.5 -46t44.5 -17t49 17t35 46q15 35 45 35h113q19 0 28 -10.5t5 -28.5q-26 -96 -109.5 -159.5t-185.5 -63.5zM565 -16q-247 0 -378.5 148.5t-102.5 391.5l47 387
q31 243 199 391t415 148q241 0 377 -139.5t111 -341.5q-2 -15 -13 -24t-28 -9h-297q-11 0 -19.5 1t-12.5 3.5t-3 5.5v8q8 69 -32 117.5t-121 48.5q-80 0 -135.5 -54.5t-65.5 -143.5l-49 -410q-10 -88 38 -143.5t128 -55.5q74 0 125.5 41.5t60.5 116.5l2 21q3 16 -14 16h-160
q-39 0 -33 39l27 229q6 39 43 39h504q35 0 32 -39l-34 -272q-28 -231 -197 -375.5t-414 -144.5z" />
    <glyph glyph-name="gbreve" unicode="&#x11f;" horiz-adv-x="1130" 
d="M692 1130q-101 0 -168 63.5t-69 158.5q-1 20 10.5 30.5t30.5 10.5h112q31 0 37 -35q4 -29 23 -46.5t45 -17.5t49 17.5t35 46.5q15 35 45 35h114q18 0 26.5 -10.5t4.5 -28.5q-25 -96 -108.5 -160t-186.5 -64zM778 1026q3 39 41 39h299q39 0 33 -39l-109 -887
q-14 -109 -51 -197t-88.5 -146.5t-119 -100t-138 -62.5t-150 -29t-151.5 -4t-145 17q-33 7 -27 43l45 260q6 44 47 31q87 -19 164 -18.5t139.5 37t87.5 106.5q4 10 -5.5 15t-18.5 -1q-72 -53 -185 -53q-317 0 -372 266q-22 101 -4 240q18 152 71 258q64 128 175.5 204
t244.5 76t197 -77q6 -8 11.5 -6t6.5 12zM682 403q28 57 37 142q9 86 -6 133q-25 74 -105 74q-67 0 -112 -72q-40 -57 -50 -141q-11 -73 9 -133q27 -72 106 -72q78 0 121 69z" />
    <glyph glyph-name="Gdotaccent" unicode="&#x120;" horiz-adv-x="1208" 
d="M754 1513q-69 0 -107 45t-29 117q9 73 57.5 117.5t119.5 44.5q69 0 105 -44t28 -118q-9 -73 -56.5 -117.5t-117.5 -44.5zM565 -16q-247 0 -378.5 148.5t-102.5 391.5l47 387q31 243 199 391t415 148q241 0 377 -139.5t111 -341.5q-2 -15 -13 -24t-28 -9h-297
q-11 0 -19.5 1t-12.5 3.5t-3 5.5v8q8 69 -32 117.5t-121 48.5q-80 0 -135.5 -54.5t-65.5 -143.5l-49 -410q-10 -88 38 -143.5t128 -55.5q74 0 125.5 41.5t60.5 116.5l2 21q3 16 -14 16h-160q-39 0 -33 39l27 229q6 39 43 39h504q35 0 32 -39l-34 -272q-28 -231 -197 -375.5
t-414 -144.5z" />
    <glyph glyph-name="gdotaccent" unicode="&#x121;" horiz-adv-x="1130" 
d="M694 1147q-69 0 -106 45t-29 117q9 73 57 117t119 44q69 0 105.5 -44t27.5 -117t-56.5 -117.5t-117.5 -44.5zM778 1026q3 39 41 39h299q39 0 33 -39l-109 -887q-14 -109 -51 -197t-88.5 -146.5t-119 -100t-138 -62.5t-150 -29t-151.5 -4t-145 17q-33 7 -27 43l45 260
q6 44 47 31q87 -19 164 -18.5t139.5 37t87.5 106.5q4 10 -5.5 15t-18.5 -1q-72 -53 -185 -53q-317 0 -372 266q-22 101 -4 240q18 152 71 258q64 128 175.5 204t244.5 76t197 -77q6 -8 11.5 -6t6.5 12zM682 403q28 57 37 142q9 86 -6 133q-25 74 -105 74q-67 0 -112 -72
q-40 -57 -50 -141q-11 -73 9 -133q27 -72 106 -72q78 0 121 69z" />
    <glyph glyph-name="uni0122" unicode="&#x122;" horiz-adv-x="1208" 
d="M565 -16q-247 0 -378.5 148.5t-102.5 391.5l47 387q31 243 199 391t415 148q241 0 377 -139.5t111 -341.5q-2 -15 -13 -24t-28 -9h-297q-11 0 -19.5 1t-12.5 3.5t-3 5.5v8q8 69 -32 117.5t-121 48.5q-80 0 -135.5 -54.5t-65.5 -143.5l-49 -410q-10 -88 38 -143.5
t128 -55.5q74 0 125.5 41.5t60.5 116.5l2 21q3 16 -14 16h-160q-39 0 -33 39l27 229q6 39 43 39h504q35 0 32 -39l-34 -272q-28 -231 -197 -375.5t-414 -144.5zM299 -367q-23 0 -29 13t6 35l111 172q17 28 47 28h283q23 0 28 -14t-10 -33l-151 -176q-22 -25 -49 -25h-236z
" />
    <glyph glyph-name="uni0123" unicode="&#x123;" horiz-adv-x="1130" 
d="M954 1434q23 0 29 -13t-6 -35l-111 -172q-17 -28 -47 -28h-282q-23 0 -28.5 14t9.5 33l152 176q22 25 49 25h235zM778 1026q3 39 41 39h299q39 0 33 -39l-109 -887q-14 -109 -51 -197t-88.5 -146.5t-119 -100t-138 -62.5t-150 -29t-151.5 -4t-145 17q-33 7 -27 43l45 260
q6 44 47 31q87 -19 164 -18.5t139.5 37t87.5 106.5q4 10 -5.5 15t-18.5 -1q-72 -53 -185 -53q-317 0 -372 266q-22 101 -4 240q18 152 71 258q64 128 175.5 204t244.5 76t197 -77q6 -8 11.5 -6t6.5 12zM682 403q28 57 37 142q9 86 -6 133q-25 74 -105 74q-67 0 -112 -72
q-40 -57 -50 -141q-11 -73 9 -133q27 -72 106 -72q78 0 121 69z" />
    <glyph glyph-name="Hbar" unicode="&#x126;" horiz-adv-x="1214" 
d="M1348 1292q35 0 32 -39l-22 -178q-6 -39 -43 -39h-58q-15 0 -18 -16l-119 -981q-6 -39 -43 -39h-299q-36 0 -33 39l62 506q3 16 -12 16h-299q-16 0 -19 -16l-61 -506q-3 -39 -43 -39h-297q-39 0 -33 39l121 981q0 16 -14 16h-58q-39 0 -33 39l21 178q6 39 43 39h57
q16 0 19 17l10 86q6 39 43 39h297q39 0 33 -39l-11 -86q0 -17 15 -17h299q6 0 11 5t5 12l10 86q6 39 43 39h299q36 0 33 -39l-10 -86q-3 -17 12 -17h60zM834 891q18 0 18 16l14 113q3 16 -14 16h-297q-15 0 -18 -16l-15 -113q0 -16 15 -16h297z" />
    <glyph glyph-name="hbar" unicode="&#x127;" 
d="M778 1081q153 0 239.5 -102.5t65.5 -280.5l-82 -659q-3 -39 -40 -39h-299q-39 0 -33 39l69 575q8 62 -18.5 100t-75.5 38q-51 0 -86 -38t-43 -100l-72 -575q-3 -39 -41 -39h-299q-38 0 -32 39l129 1057q3 16 -13 16h-59q-36 0 -33 39l19 147q6 39 43 39h57q16 0 19 17
l4 41q6 39 43 39h297q37 0 34 -39l-6 -41q0 -17 15 -17h213q35 0 32 -39l-18 -147q-6 -39 -43 -39h-213q-16 0 -16 -16l-17 -123q-2 -11 4 -14t13 6q88 116 243 116z" />
    <glyph glyph-name="Imacron" unicode="&#x12a;" horiz-adv-x="528" 
d="M145 1556q-38 0 -32 39l22 179q3 38 41 38h543q39 0 33 -38l-21 -179q-6 -39 -43 -39h-543zM76 0q-39 0 -33 39l166 1356q6 39 43 39h297q39 0 33 -39l-166 -1356q-3 -39 -43 -39h-297z" />
    <glyph glyph-name="imacron" unicode="&#x12b;" horiz-adv-x="505" 
d="M78 1186q-36 0 -33 39l23 178q3 39 41 39h542q39 0 33 -39l-20 -178q-6 -39 -43 -39h-543zM61 0q-38 0 -32 39l121 987q6 39 43 39h296q38 0 35 -39l-123 -987q-3 -39 -41 -39h-299z" />
    <glyph glyph-name="Iogonek" unicode="&#x12e;" horiz-adv-x="530" 
d="M260 -162q4 -20 22.5 -27t43.5 -1q22 7 32.5 2.5t10.5 -25.5v-119q0 -36 -31 -47q-31 -12 -68 -19.5t-80 -6.5t-79 12.5t-63.5 43.5t-35.5 81q-19 131 125 248q9 8 8 14t-12 6h-57q-39 0 -33 39l166 1356q6 39 43 39h297q39 0 33 -39l-170 -1395q-21 -10 -62 -41
q-99 -71 -90 -121z" />
    <glyph glyph-name="iogonek" unicode="&#x12f;" horiz-adv-x="487" 
d="M340 1153q-69 0 -106.5 45t-28.5 117q9 73 57 117.5t119 44.5q69 0 105 -44t28 -118q-9 -73 -56.5 -117.5t-117.5 -44.5zM145 1026q6 39 43 39h297q38 0 35 -39l-123 -987l-6 -39h-2q-165 -98 -153 -162q4 -20 22.5 -27t44.5 -1q22 7 32 2.5t11 -25.5l-2 -119
q0 -36 -31 -47q-31 -12 -68 -19.5t-79.5 -6.5t-78 13t-62.5 43.5t-35 80.5q-21 128 123 248q9 8 8 14t-12 6h-52q-35 0 -32 39z" />
    <glyph glyph-name="Idotaccent" unicode="&#x130;" horiz-adv-x="528" 
d="M412 1524q-70 0 -107.5 45t-28.5 117q9 73 57.5 117t117.5 44q70 0 106 -43.5t27 -117.5q-8 -72 -55 -117t-117 -45zM76 0q-39 0 -33 39l166 1356q6 39 43 39h297q39 0 33 -39l-166 -1356q-3 -39 -43 -39h-297z" />
    <glyph glyph-name="dotlessi" unicode="&#x131;" horiz-adv-x="505" 
d="M61 0q-38 0 -32 39l121 987q6 39 43 39h296q38 0 35 -39l-123 -987q-3 -39 -41 -39h-299z" />
    <glyph glyph-name="ij" unicode="&#x133;" horiz-adv-x="1024" 
d="M365 1108q-96 0 -148.5 59.5t-40.5 155.5t79 155.5t163 59.5t147.5 -59t40.5 -156q-12 -97 -78 -156t-163 -59zM866 1098q-95 0 -147 62t-41 153q10 88 83 151.5t159 63.5q83 0 140.5 -63.5t45.5 -151.5q-11 -90 -79 -152.5t-161 -62.5zM80 0q-39 0 -33 39l121 987
q3 39 43 39h297q39 0 33 -39l-121 -987q-3 -39 -43 -39h-297zM295 -414q-36 3 -33 41l29 242q6 39 47 39q115 -7 158.5 23t54.5 122l119 973q6 39 43 39h299q35 0 32 -39l-118 -967q-12 -99 -31 -169t-52.5 -125.5t-78 -89t-113.5 -55t-153.5 -29t-202.5 -5.5z" />
    <glyph glyph-name="uni0136" unicode="&#x136;" horiz-adv-x="1263" 
d="M76 0q-39 0 -33 39l166 1356q6 39 43 39h297q39 0 33 -39l-58 -469q-2 -11 6 -13t15 7l395 489q19 25 49 25h338q22 0 26.5 -14t-12.5 -34l-471 -577q-9 -13 -4 -23l330 -739q8 -21 -1 -34t-32 -13h-336q-31 0 -39 27l-208 491q-3 9 -9.5 8.5t-11.5 -8.5l-92 -121
q-7 -10 -10 -20l-41 -338q-3 -39 -43 -39h-297zM301 -350q-48 0 -22 47l110 172q17 29 47 29h283q23 0 28 -14.5t-10 -33.5l-151 -176q-21 -24 -49 -24h-236z" />
    <glyph glyph-name="uni0137" unicode="&#x137;" horiz-adv-x="1101" 
d="M63 0q-38 0 -32 39l166 1356q6 39 43 39h297q37 0 34 -39l-69 -568q-2 -11 4.5 -13t13.5 7l185 219q19 25 47 25h340q24 0 28.5 -13.5t-10.5 -33.5l-287 -342q-7 -11 -4 -23l211 -608q6 -20 -2.5 -32.5t-30.5 -12.5h-311q-32 0 -41 31l-108 379q-2 9 -9 10t-12 -8
l-74 -103q-4 -8 -8 -20l-31 -250q-3 -39 -41 -39h-299zM254 -350q-23 0 -29.5 12.5t6.5 34.5l111 172q17 29 47 29h283q23 0 28 -14.5t-12 -33.5l-149 -176q-21 -24 -50 -24h-235z" />
    <glyph glyph-name="Lacute" unicode="&#x139;" horiz-adv-x="1140" 
d="M287 1538q-23 0 -29.5 12.5t6.5 34.5l111 172q17 29 47 29h283q23 0 28 -14t-10 -33l-152 -176q-22 -25 -49 -25h-235zM76 0q-39 0 -33 39l166 1356q6 39 43 39h297q39 0 33 -39l-127 -1049q-3 -16 12 -16h600q39 0 33 -39l-31 -252q-3 -39 -43 -39h-950z" />
    <glyph glyph-name="lacute" unicode="&#x13a;" horiz-adv-x="516" 
d="M285 1538q-23 0 -29 12.5t6 34.5l111 172q17 29 47 29h282q23 0 28.5 -14t-9.5 -33l-152 -176q-22 -25 -49 -25h-235zM70 0q-39 0 -33 39l166 1356q6 39 43 39h297q38 0 32 -39l-165 -1356q-3 -39 -43 -39h-297z" />
    <glyph glyph-name="uni013B" unicode="&#x13b;" horiz-adv-x="1140" 
d="M76 0q-39 0 -33 39l166 1356q6 39 43 39h297q39 0 33 -39l-127 -1049q-3 -16 12 -16h600q39 0 33 -39l-31 -252q-3 -39 -43 -39h-950zM238 -350q-23 0 -29 12.5t6 34.5l111 172q17 29 47 29h282q23 0 28.5 -14.5t-9.5 -33.5l-152 -176q-21 -24 -49 -24h-235z" />
    <glyph glyph-name="uni013C" unicode="&#x13c;" horiz-adv-x="522" 
d="M70 0q-39 0 -33 39l166 1356q6 39 43 39h297q38 0 32 -39l-165 -1356q-3 -39 -43 -39h-297zM-76 -350q-23 0 -29 12.5t7 34.5l110 172q17 29 47 29h283q23 0 28 -14.5t-12 -33.5l-149 -176q-21 -24 -49 -24h-236z" />
    <glyph glyph-name="Lcaron" unicode="&#x13d;" horiz-adv-x="1140" 
d="M244 1526q-31 0 -43 26l-90 191q-9 20 -0.5 33.5t30.5 13.5h201q29 0 41 -27l35 -80q3 -7 10.5 -7t11.5 7l56 80q15 27 45 27h198q23 0 28.5 -13.5t-9.5 -33.5l-140 -191q-20 -26 -49 -26h-325zM76 0q-39 0 -33 39l166 1356q6 39 43 39h297q39 0 33 -39l-127 -1049
q-3 -16 12 -16h600q39 0 33 -39l-31 -252q-3 -39 -43 -39h-950z" />
    <glyph glyph-name="lcaron" unicode="&#x13e;" horiz-adv-x="516" 
d="M242 1526q-31 0 -43 26l-90 191q-9 20 0 33.5t32 13.5h199q29 0 41 -27l35 -80q3 -7 10.5 -7t11.5 7l56 80q18 27 45 27h198q23 0 28.5 -13.5t-9.5 -33.5l-140 -191q-20 -26 -49 -26h-325zM70 0q-39 0 -33 39l166 1356q6 39 43 39h297q38 0 32 -39l-165 -1356
q-3 -39 -43 -39h-297z" />
    <glyph glyph-name="Lslash" unicode="&#x141;" horiz-adv-x="1140" 
d="M455 346q-3 -16 12 -16h600q39 0 33 -39l-31 -252q-3 -39 -43 -39h-950q-39 0 -33 39l33 270q2 11 -5 14t-14 -4l-108 -88q-32 -25 -51 2l-115 160q-22 31 10 56l324 264q10 7 10 20l82 662q6 39 43 39h297q39 0 33 -39l-37 -310q-1 -10 4.5 -13t13.5 5l328 266
q32 28 53 -2l113 -159q21 -29 -10 -54l-543 -444q-10 -8 -10 -20z" />
    <glyph glyph-name="lslash" unicode="&#x142;" horiz-adv-x="516" 
d="M819 856q12 -35 -22 -53l-299 -154q-15 -6 -15 -18l-73 -592q-3 -39 -43 -39h-297q-39 0 -33 39l45 377q2 9 -4 12.5t-15 -0.5l-79 -43q-38 -20 -50 16l-65 174q-13 36 22 54l220 116q14 6 14 19l78 631q6 39 43 39h297q38 0 32 -39l-49 -414q-2 -9 4 -12.5t15 0.5
l149 80q34 18 51 -17z" />
    <glyph glyph-name="Nacute" unicode="&#x143;" horiz-adv-x="1306" 
d="M659 1565q-23 0 -29 12.5t7 34.5l111 172q17 28 47 28h282q23 0 28.5 -14t-9.5 -33l-152 -176q-21 -24 -49 -24h-236zM76 0q-39 0 -33 39l166 1356q6 39 43 39h285q31 0 43 -27l309 -678q4 -9 11.5 -7.5t8.5 13.5l78 660q6 39 43 39h299q36 0 33 -39l-168 -1356
q-3 -39 -41 -39h-287q-31 0 -43 27l-307 690q-4 11 -11.5 9.5t-8.5 -13.5l-80 -674q-3 -39 -43 -39h-297z" />
    <glyph glyph-name="nacute" unicode="&#x144;" 
d="M961 1417q24 0 29 -14t-11 -33l-152 -176q-22 -25 -47 -25h-237q-22 0 -28.5 13t5.5 35l111 172q17 28 47 28h283zM778 1081q153 0 239.5 -102.5t65.5 -280.5l-82 -659q-3 -39 -40 -39h-299q-39 0 -33 39l69 575q8 62 -18.5 100t-75.5 38q-51 0 -86 -38t-43 -100
l-72 -575q-3 -39 -41 -39h-299q-38 0 -32 39l121 987q6 39 43 39h297q38 0 32 -39l-6 -53q-2 -11 4 -14t13 6q88 116 243 116z" />
    <glyph glyph-name="uni0145" unicode="&#x145;" horiz-adv-x="1306" 
d="M76 0q-39 0 -33 39l166 1356q6 39 43 39h285q31 0 43 -27l309 -678q4 -9 11.5 -7.5t8.5 13.5l78 660q6 39 43 39h299q36 0 33 -39l-168 -1356q-3 -39 -41 -39h-287q-31 0 -43 27l-307 690q-4 11 -11.5 9.5t-8.5 -13.5l-80 -674q-3 -39 -43 -39h-297zM344 -350
q-22 0 -28 12.5t6 34.5l110 172q17 29 47 29h283q24 0 29 -14.5t-11 -33.5l-151 -176q-18 -24 -47 -24h-238z" />
    <glyph glyph-name="uni0146" unicode="&#x146;" 
d="M778 1081q153 0 239.5 -102.5t65.5 -280.5l-82 -659q-3 -39 -40 -39h-299q-39 0 -33 39l69 575q8 62 -18.5 100t-75.5 38q-51 0 -86 -38t-43 -100l-72 -575q-3 -39 -41 -39h-299q-38 0 -32 39l121 987q6 39 43 39h297q38 0 32 -39l-6 -53q-2 -11 4 -14t13 6
q88 116 243 116zM248 -350q-23 0 -29.5 12.5t6.5 34.5l111 172q17 29 47 29h283q23 0 28 -14.5t-12 -33.5l-150 -176q-21 -24 -49 -24h-235z" />
    <glyph glyph-name="Ncaron" unicode="&#x147;" horiz-adv-x="1306" 
d="M616 1552q-31 0 -43 27l-90 190q-9 20 0 34t31 14h201q29 0 41 -27l35 -80q3 -8 10 -8t12 8l55 80q15 27 45 27h199q23 0 28 -14t-10 -34l-139 -190q-20 -27 -49 -27h-326zM76 0q-39 0 -33 39l166 1356q6 39 43 39h285q31 0 43 -27l309 -678q4 -9 11.5 -7.5t8.5 13.5
l78 660q6 39 43 39h299q36 0 33 -39l-168 -1356q-3 -39 -41 -39h-287q-31 0 -43 27l-307 690q-4 11 -11.5 9.5t-8.5 -13.5l-80 -674q-3 -39 -43 -39h-297z" />
    <glyph glyph-name="ncaron" unicode="&#x148;" 
d="M874 1184q-20 -27 -49 -27h-325q-31 0 -43 27l-90 190q-9 20 0 33.5t32 13.5h201q29 0 41 -26l33 -80q3 -7 10.5 -7t13.5 7l54 80q17 26 47 26h198q22 0 27.5 -13.5t-8.5 -33.5zM778 1081q153 0 239.5 -102.5t65.5 -280.5l-82 -659q-3 -39 -40 -39h-299q-39 0 -33 39
l69 575q8 62 -18.5 100t-75.5 38q-51 0 -86 -38t-43 -100l-72 -575q-3 -39 -41 -39h-299q-38 0 -32 39l121 987q6 39 43 39h297q38 0 32 -39l-6 -53q-2 -11 4 -14t13 6q88 116 243 116z" />
    <glyph glyph-name="Eng" unicode="&#x14a;" horiz-adv-x="1306" 
d="M987 1395q6 39 43 39h299q36 0 33 -39l-168 -1370l-4 -25h-2q-14 -86 -34.5 -147.5t-54.5 -110t-79 -78.5t-112 -49t-148.5 -25.5t-192.5 -3.5q-38 3 -32 41l28 242q6 40 47 37q106 -6 150.5 19.5t58.5 99.5q2 7 -4 20l-299 672q-4 11 -11.5 9.5t-8.5 -13.5l-80 -674
q-3 -39 -43 -39h-297q-39 0 -33 39l166 1356q6 39 43 39h285q31 0 43 -27l307 -674q4 -9 11.5 -7.5t8.5 13.5l41 326z" />
    <glyph glyph-name="eng" unicode="&#x14b;" horiz-adv-x="1097" 
d="M1055 461v-10l-49 -392q-11 -92 -25.5 -154t-41.5 -119t-66.5 -91t-101 -59.5t-144.5 -36t-197 -11.5q-38 0 -35 39l29 228q3 38 43 41q76 5 110.5 27.5t47.5 80.5l73 610q8 62 -18.5 100t-75.5 38q-51 0 -86 -38t-43 -100l-72 -575q-3 -39 -41 -39h-299q-38 0 -32 39
l121 987q6 39 43 39h297q38 0 32 -39l-6 -53q-2 -11 5 -13t14 7q89 114 241 114q153 0 239.5 -102.5t65.5 -280.5z" />
    <glyph glyph-name="Omacron" unicode="&#x14c;" horiz-adv-x="1232" 
d="M496 1546q-36 0 -33 39l22 178q3 39 41 39h543q39 0 33 -39l-21 -178q-6 -39 -43 -39h-542zM573 -25q-251 0 -385.5 151t-103.5 398l47 385q31 243 202 392t421 149q252 0 387 -149t104 -392l-47 -385q-29 -247 -201 -398t-424 -151zM614 305q83 0 141 56.5t68 150.5
l49 401q12 94 -31 150.5t-128 56.5q-82 0 -139.5 -57t-67.5 -150l-49 -401q-12 -94 31 -150.5t126 -56.5z" />
    <glyph glyph-name="omacron" unicode="&#x14d;" horiz-adv-x="1107" 
d="M389 1178q-39 0 -33 39l21 178q6 39 43 39h543q38 0 32 -39l-22 -178q-3 -39 -41 -39h-543zM512 -16q-188 0 -304.5 105t-137.5 282q-10 66 0 164q13 107 47 182q67 169 207.5 266.5t324.5 97.5t299 -97t142 -263q13 -92 2 -182q-13 -88 -35 -156q-64 -184 -208 -291.5
t-337 -107.5zM553 313q100 0 143 131q12 35 19 93q5 46 2 94q-13 121 -111 121q-97 0 -139 -121q-16 -40 -23 -94q-5 -44 -2 -93q13 -131 111 -131z" />
    <glyph glyph-name="Ohungarumlaut" unicode="&#x150;" horiz-adv-x="1232" 
d="M481 1550q-22 0 -28.5 12.5t4.5 32.5l92 172q15 31 47 31h256q22 0 28 -12.5t-6 -32.5l-106 -174q-19 -29 -47 -29h-240zM856 1550q-22 0 -27 12.5t7 34.5l106 172q17 29 47 29h242q21 0 26 -12.5t-8 -34.5l-108 -172q-17 -29 -47 -29h-238zM573 -25q-251 0 -385.5 151
t-103.5 398l47 385q31 243 202 392t421 149q252 0 387 -149t104 -392l-47 -385q-29 -247 -201 -398t-424 -151zM614 305q83 0 141 56.5t68 150.5l49 401q12 94 -31 150.5t-128 56.5q-82 0 -139.5 -57t-67.5 -150l-49 -401q-12 -94 31 -150.5t126 -56.5z" />
    <glyph glyph-name="ohungarumlaut" unicode="&#x151;" horiz-adv-x="1107" 
d="M373 1182q-20 0 -26.5 12.5t3.5 32.5l92 172q16 31 47 31h256q21 0 27.5 -13t-4.5 -33l-106 -174q-19 -28 -48 -28h-241zM750 1182q-22 0 -28 12.5t7 34.5l107 172q17 29 47 29h239q22 0 28 -13t-7 -35l-109 -172q-17 -28 -47 -28h-237zM512 -16q-188 0 -304.5 105
t-137.5 282q-10 66 0 164q13 107 47 182q67 169 207.5 266.5t324.5 97.5t299 -97t142 -263q13 -92 2 -182q-13 -88 -35 -156q-64 -184 -208 -291.5t-337 -107.5zM553 313q100 0 143 131q12 35 19 93q5 46 2 94q-13 121 -111 121q-97 0 -139 -121q-16 -40 -23 -94
q-5 -44 -2 -93q13 -131 111 -131z" />
    <glyph glyph-name="OE" unicode="&#x152;" horiz-adv-x="1861" 
d="M1915 1143q-6 -39 -43 -39h-586q-15 0 -18 -17l-23 -180q0 -16 15 -16h360q36 0 33 -39l-31 -250q-6 -39 -43 -39h-360q-6 0 -11.5 -4.5t-5.5 -11.5l-24 -201q-3 -16 12 -16h588q35 0 32 -39l-30 -252q-6 -39 -43 -39h-938q-38 0 -35 31l2 8q1 9 -4 12t-14 -2
q-135 -74 -275 -74q-121 0 -216.5 67.5t-144 194.5t-28.5 287l47 385q20 157 99 282.5t191 192t234 66.5q138 0 256 -70q5 -4 9.5 -4.5t7 1.5t2.5 5l2 13q6 39 43 39h938q36 0 33 -39zM614 305q83 0 141 56.5t68 150.5l49 401q12 94 -31 150.5t-128 56.5q-82 0 -139.5 -57
t-67.5 -150l-49 -401q-12 -94 31 -150.5t126 -56.5z" />
    <glyph glyph-name="oe" unicode="&#x153;" horiz-adv-x="1748" 
d="M1282 305q117 0 188 51q32 22 52 -4l104 -157q20 -30 -8 -56q-178 -155 -426 -155q-204 0 -332 135q-9 9 -22 0q-159 -135 -334 -135q-162 0 -273.5 85.5t-148.5 235.5q-26 104 -12 230q16 129 69 235q71 145 204 228t298 83q179 0 299 -133q12 -9 25 0q156 133 331 133
q167 0 284.5 -88.5t150.5 -228.5q23 -94 2 -287q-3 -41 -43 -41h-574q-7 0 -11.5 -5t-2.5 -13q6 -22 6 -23q14 -47 55 -68.5t119 -21.5zM649 377q36 53 51 160q12 101 -12 153q-21 62 -90 62q-65 0 -106 -62q-37 -56 -48 -153q-11 -98 9 -160q27 -64 92 -64q67 0 104 64z
M1260 752q-74 0 -119 -82q-2 -4 -6.5 -13.5t-6.5 -13.5q-6 -18 11 -18h211q18 0 18 18q-1 4 -3 13.5t-3 13.5q-23 82 -102 82z" />
    <glyph glyph-name="Racute" unicode="&#x154;" horiz-adv-x="1222" 
d="M993 1786q24 0 29 -14t-10 -33l-150 -176q-22 -25 -49 -25h-238q-22 0 -27.5 12.5t7.5 34.5l111 172q17 29 47 29h280zM776 0q-33 0 -39 29l-153 510q-2 12 -19 12h-69q-19 0 -19 -16l-61 -496q-3 -39 -43 -39h-297q-39 0 -33 39l166 1356q6 39 43 39h594
q204 0 313 -125.5t84 -331.5q-17 -134 -92 -233.5t-193 -149.5q-14 -6 -10 -21l178 -528q12 -45 -32 -45h-318zM563 1104q-15 0 -18 -17l-29 -227q0 -16 14 -16h181q65 0 108.5 35.5t50.5 93.5q8 59 -27.5 95t-99.5 36h-180z" />
    <glyph glyph-name="racute" unicode="&#x155;" horiz-adv-x="786" 
d="M819 1419q24 0 29 -14t-10 -33l-150 -176q-22 -25 -49 -25h-238q-22 0 -27.5 13t7.5 35l111 172q17 28 47 28h280zM739 1079q62 0 99 -22q24 -15 12 -49l-84 -301q-9 -36 -45 -27q-55 11 -113 0q-52 -11 -93 -44t-48 -91l-64 -506q-3 -39 -41 -39h-299q-38 0 -32 39
l121 987q6 39 43 39h297q38 0 32 -39l-2 -29q-2 -11 3 -14t12 4q86 92 202 92z" />
    <glyph glyph-name="uni0156" unicode="&#x156;" horiz-adv-x="1222" 
d="M496 551q-19 0 -19 -16l-61 -496q-3 -39 -43 -39h-297q-39 0 -33 39l166 1356q6 39 43 39h594q204 0 313 -125.5t84 -331.5q-17 -134 -92 -233.5t-193 -149.5q-14 -6 -10 -21l178 -528q12 -45 -32 -45h-318q-33 0 -39 29l-153 510q-2 12 -19 12h-69zM743 1104h-180
q-15 0 -18 -17l-29 -227q0 -16 14 -16h181q65 0 108.5 35.5t50.5 93.5q8 59 -27.5 95t-99.5 36zM272 -350q-22 0 -28 12.5t6 34.5l110 172q20 29 50 29h280q24 0 29.5 -14.5t-10.5 -33.5l-152 -176q-18 -24 -47 -24h-238z" />
    <glyph glyph-name="uni0157" unicode="&#x157;" horiz-adv-x="794" 
d="M739 1079q62 0 99 -22q24 -15 12 -49l-84 -301q-9 -36 -45 -27q-55 11 -113 0q-52 -11 -93 -44t-48 -91l-64 -506q-3 -39 -41 -39h-299q-38 0 -32 39l121 987q6 39 43 39h297q38 0 32 -39l-2 -29q-2 -11 3 -14t12 4q86 92 202 92zM-94 -350q-23 0 -29 12.5t6 34.5
l111 172q17 29 47 29h283q23 0 28 -14.5t-10 -33.5l-152 -176q-21 -24 -49 -24h-235z" />
    <glyph glyph-name="Rcaron" unicode="&#x158;" horiz-adv-x="1222" 
d="M907 1552q-19 -26 -49 -26h-326q-31 0 -40 26l-91 191q-9 20 0 33.5t31 13.5h201q29 0 41 -27l33 -80q10 -17 24 0l53 80q18 27 47 27h199q23 0 28 -13.5t-9 -33.5zM776 0q-33 0 -39 29l-153 510q-2 12 -19 12h-69q-19 0 -19 -16l-61 -496q-3 -39 -43 -39h-297
q-39 0 -33 39l166 1356q6 39 43 39h594q204 0 313 -125.5t84 -331.5q-17 -134 -92 -233.5t-193 -149.5q-14 -6 -10 -21l178 -528q12 -45 -32 -45h-318zM563 1104q-15 0 -18 -17l-29 -227q0 -16 14 -16h181q65 0 108.5 35.5t50.5 93.5q8 59 -27.5 95t-99.5 36h-180z" />
    <glyph glyph-name="rcaron" unicode="&#x159;" horiz-adv-x="786" 
d="M733 1186q-20 -27 -49 -27h-326q-32 0 -41 27l-90 190q-10 20 -0.5 33.5t31.5 13.5h201q29 0 41 -26l32 -80q5 -7 12 -7t13 7l53 80q17 26 47 26h199q23 0 27.5 -13.5t-9.5 -33.5zM522 995q-1 -10 5 -12t12 6q87 90 200 90q62 0 99 -22q24 -15 12 -49l-84 -301
q-9 -36 -45 -27q-55 11 -113 0q-52 -11 -93 -44t-48 -91l-64 -506q-3 -39 -41 -39h-299q-38 0 -32 39l121 987q6 39 43 39h297q38 0 32 -39z" />
    <glyph glyph-name="Sacute" unicode="&#x15a;" horiz-adv-x="1185" 
d="M612 1554q-23 0 -28.5 13t6.5 35l110 172q17 28 48 28h282q23 0 28.5 -14t-9.5 -33l-152 -176q-22 -25 -49 -25h-236zM553 -16q-245 0 -378.5 124.5t-108.5 333.5l4 21q3 39 41 39h292q18 0 27.5 -6t7.5 -15l-2 -22q-6 -56 45.5 -101t139.5 -45q74 0 109.5 32.5
t39.5 70.5q2 16 -1 29.5t-15.5 24.5t-23.5 19t-36 17.5t-41 14.5t-52 16.5t-56 17.5q-65 21 -115.5 41.5t-113.5 60.5t-102.5 86t-62.5 117.5t-12 155.5q24 195 185 314.5t387 119.5q155 0 273 -58.5t177.5 -167.5t42.5 -249l-2 -10q-3 -39 -41 -39h-293q-18 0 -27 4t-7 12
l2 16q7 61 -41.5 111.5t-139.5 50.5q-63 0 -103 -27t-46 -73q-6 -53 46.5 -85t213.5 -87q120 -41 140 -50q200 -84 235 -242q13 -59 4 -130q-25 -200 -188.5 -321t-403.5 -121z" />
    <glyph glyph-name="sacute" unicode="&#x15b;" horiz-adv-x="1028" 
d="M492 1186q-23 0 -29 12.5t6 34.5l111 172q17 29 47 29h282q23 0 28.5 -14.5t-9.5 -33.5l-152 -176q-21 -24 -49 -24h-235zM487 -16q-224 0 -343.5 89.5t-100.5 239.5v11q6 38 43 38h283q37 0 37 -10l-3 -12q-4 -33 28.5 -53.5t88.5 -20.5q44 0 72 13.5t31 37.5
q3 22 -18.5 35.5t-63 21t-88 14.5t-105.5 23t-104 40q-161 86 -138 270q20 165 157.5 262.5t342.5 97.5q209 0 323.5 -101.5t92.5 -268.5q0 -23 -39 -23h-272q-37 0 -37 12l2 11q3 34 -23.5 53.5t-77.5 19.5q-45 0 -76 -15t-34 -42q-3 -22 15.5 -35.5t56 -21.5t79 -13.5
t98 -17t101.5 -27.5q102 -38 149.5 -107t34.5 -179q-21 -167 -159.5 -254.5t-352.5 -87.5z" />
    <glyph glyph-name="Scedilla" unicode="&#x15e;" horiz-adv-x="1185" 
d="M1145 426q-20 -166 -138.5 -279t-301.5 -149q-20 -3 -9 -21q85 -108 41 -221q-20 -49 -55 -80.5t-73.5 -43.5t-82 -12.5t-78.5 7t-65 19.5q-24 11 -18 47l28 119q6 21 17.5 25t31.5 -3q24 -6 44.5 1.5t29.5 27.5q22 50 -61 121q-9 6 -17 8q-193 28 -293.5 148t-78.5 302
l4 21q3 39 41 39h292q18 0 27.5 -6t7.5 -15l-2 -22q-6 -56 45.5 -101t139.5 -45q74 0 109.5 32.5t39.5 70.5q2 16 -1 29.5t-15.5 24.5t-23.5 19t-36 17.5t-41 14.5t-52 16.5t-56 17.5q-65 21 -115.5 41.5t-113.5 60.5t-102.5 86t-62.5 117.5t-12 155.5q24 195 185 314.5
t387 119.5q155 0 273 -58.5t177.5 -167.5t42.5 -249l-2 -10q-3 -39 -41 -39h-293q-18 0 -27 4t-7 12l2 16q7 61 -41.5 111.5t-139.5 50.5q-63 0 -103 -27t-46 -73q-6 -53 46.5 -85t213.5 -87q120 -41 140 -50q200 -84 235 -242q13 -59 4 -130z" />
    <glyph glyph-name="scedilla" unicode="&#x15f;" horiz-adv-x="1028" 
d="M999 326q-17 -135 -111 -218t-247 -110q-19 -3 -8 -21q83 -109 39 -221q-25 -61 -72 -95t-100 -39t-99.5 1.5t-83.5 22.5q-24 11 -18 47l29 119q6 21 17.5 25t31.5 -3q24 -6 44.5 1.5t29.5 27.5q22 48 -60 121q-9 6 -18 8q-171 22 -259 107t-71 214v11q6 38 43 38h283
q37 0 37 -10l-3 -12q-4 -33 28.5 -53.5t88.5 -20.5q44 0 72 13.5t31 37.5q3 22 -18.5 35.5t-63 21t-88 14.5t-105.5 23t-104 40q-161 86 -138 270q20 165 157.5 262.5t342.5 97.5q209 0 323.5 -101.5t92.5 -268.5q0 -23 -39 -23h-272q-37 0 -37 12l2 11q3 34 -23.5 53.5
t-77.5 19.5q-45 0 -76 -15t-34 -42q-3 -22 15.5 -35.5t56 -21.5t79 -13.5t98 -17t101.5 -27.5q102 -38 149.5 -107t34.5 -179z" />
    <glyph glyph-name="Scaron" unicode="&#x160;" horiz-adv-x="1185" 
d="M569 1542q-31 0 -43 27l-90 190q-9 20 0.5 33.5t32.5 13.5h201q30 0 39 -26l34 -80q3 -8 11 -8t12 8l55 80q17 26 47 26h199q22 0 26.5 -13.5t-10.5 -33.5l-139 -190q-20 -27 -49 -27h-326zM553 -16q-245 0 -378.5 124.5t-108.5 333.5l4 21q3 39 41 39h292q18 0 27.5 -6
t7.5 -15l-2 -22q-6 -56 45.5 -101t139.5 -45q74 0 109.5 32.5t39.5 70.5q2 16 -1 29.5t-15.5 24.5t-23.5 19t-36 17.5t-41 14.5t-52 16.5t-56 17.5q-65 21 -115.5 41.5t-113.5 60.5t-102.5 86t-62.5 117.5t-12 155.5q24 195 185 314.5t387 119.5q155 0 273 -58.5
t177.5 -167.5t42.5 -249l-2 -10q-3 -39 -41 -39h-293q-18 0 -27 4t-7 12l2 16q7 61 -41.5 111.5t-139.5 50.5q-63 0 -103 -27t-46 -73q-6 -53 46.5 -85t213.5 -87q120 -41 140 -50q200 -84 235 -242q13 -59 4 -130q-25 -200 -188.5 -321t-403.5 -121z" />
    <glyph glyph-name="scaron" unicode="&#x161;" horiz-adv-x="1028" 
d="M449 1174q-31 0 -43 26l-91 191q-9 20 0.5 33.5t32.5 13.5h201q30 0 39 -27l35 -80q3 -7 10.5 -7t13.5 7l53 80q18 27 48 27h198q22 0 27 -13.5t-10 -33.5l-140 -191q-19 -26 -49 -26h-325zM487 -16q-224 0 -343.5 89.5t-100.5 239.5v11q6 38 43 38h283q37 0 37 -10
l-3 -12q-4 -33 28.5 -53.5t88.5 -20.5q44 0 72 13.5t31 37.5q3 22 -18.5 35.5t-63 21t-88 14.5t-105.5 23t-104 40q-161 86 -138 270q20 165 157.5 262.5t342.5 97.5q209 0 323.5 -101.5t92.5 -268.5q0 -23 -39 -23h-272q-37 0 -37 12l2 11q3 34 -23.5 53.5t-77.5 19.5
q-45 0 -76 -15t-34 -42q-3 -22 15.5 -35.5t56 -21.5t79 -13.5t98 -17t101.5 -27.5q102 -38 149.5 -107t34.5 -179q-21 -167 -159.5 -254.5t-352.5 -87.5z" />
    <glyph glyph-name="uni0162" unicode="&#x162;" horiz-adv-x="1222" 
d="M885 1102q-16 0 -19 -17l-129 -1046q-3 -39 -20 -39q-12 0 3 -17l3 -3q114 -117 63 -248q-25 -61 -71.5 -95t-99.5 -39.5t-99.5 1t-83.5 22.5q-24 11 -18 47l28 119q6 21 17.5 25.5t29.5 -2.5q26 -6 46.5 1t27.5 27q28 61 -102 156q-12 6 -21 6h-43q-38 0 -32 39
l129 1046q0 17 -15 17h-309q-38 0 -35 39l33 254q3 39 41 39h1036q36 0 33 -39l-31 -254q-6 -39 -43 -39h-319z" />
    <glyph glyph-name="uni0163" unicode="&#x163;" horiz-adv-x="776" 
d="M799 797q-3 -39 -43 -39h-150q-15 0 -18 -17l-37 -303q-14 -102 59 -102h66q36 0 33 -39l-31 -248q-3 -32 -31 -39q-12 0 -20 -2q-2 -1 -4 -2.5t-5.5 -7t0.5 -10.5q79 -105 35 -215q-25 -61 -71.5 -95t-99 -39.5t-98.5 1t-83 22.5q-27 11 -18 47l28 119q4 21 15.5 25
t31.5 -3q24 -6 44.5 1.5t29.5 27.5q23 48 -70 129q-10 6 -16 8q-101 20 -143.5 80t-28.5 183l55 462q3 17 -12 17h-94q-39 0 -33 39l29 229q3 39 41 39h94q15 0 18 16l29 232q3 39 41 39h283q38 0 32 -39l-28 -232q0 -16 14 -16h152q35 0 32 -39z" />
    <glyph glyph-name="Tcaron" unicode="&#x164;" horiz-adv-x="1181" 
d="M948 1552q-20 -26 -49 -26h-326q-31 0 -43 26l-90 191q-9 20 0.5 33.5t32.5 13.5h199q29 0 41 -27l35 -80q3 -7 10.5 -7t11.5 7l55 80q15 27 45 27h199q23 0 28 -13.5t-10 -33.5zM1245 1434q36 0 33 -39l-31 -254q-6 -39 -43 -39h-319q-16 0 -19 -17l-129 -1046
q-3 -39 -41 -39h-299q-38 0 -32 39l129 1046q0 17 -15 17h-309q-38 0 -35 39l33 254q3 39 41 39h1036z" />
    <glyph glyph-name="tcaron" unicode="&#x165;" horiz-adv-x="776" 
d="M715 1470q-19 -26 -49 -26h-326q-31 0 -43 26l-88 191q-10 20 -1 33.5t32 13.5h200q29 0 41 -27l33 -79q5 -8 12 -8t13 8l53 79q18 27 47 27h199q22 0 27 -13.5t-9 -33.5zM799 797q-3 -39 -43 -39h-150q-15 0 -18 -17l-37 -303q-14 -102 59 -102h66q36 0 33 -39l-31 -248
q-6 -36 -41 -39q-77 -6 -143 -6q-89 0 -148.5 11.5t-104 41t-61 84.5t-6.5 138l55 462q3 17 -12 17h-94q-39 0 -33 39l29 229q3 39 41 39h94q15 0 18 16l29 232q3 39 41 39h283q38 0 32 -39l-28 -232q0 -16 14 -16h152q35 0 32 -39z" />
    <glyph glyph-name="Tbar" unicode="&#x166;" horiz-adv-x="1191" 
d="M1247 1141q-6 -39 -43 -39h-319q-16 0 -19 -17l-30 -243q0 -17 14 -17h154q35 0 32 -39l-18 -147q-3 -39 -43 -39h-152q-15 0 -18 -16l-68 -545q-3 -39 -41 -39h-299q-38 0 -32 39l67 545q0 16 -14 16h-117q-38 0 -35 39l19 147q6 39 43 39h116q16 0 19 17l31 243
q0 17 -15 17h-309q-38 0 -35 39l33 254q3 39 41 39h1036q36 0 33 -39z" />
    <glyph glyph-name="tbar" unicode="&#x167;" horiz-adv-x="1191" 
d="M768 524q-6 -39 -43 -39h-154q-16 0 -16 -16l-4 -31q-14 -102 59 -102h66q36 0 33 -39l-31 -248q-6 -36 -41 -39q-77 -6 -143 -6q-89 0 -148.5 11.5t-104 41t-61 84.5t-6.5 138l23 190q3 16 -15 16h-92q-39 0 -33 39l17 148q6 39 43 39h94q16 0 16 16l2 14q3 17 -12 17
h-94q-39 0 -33 39l29 229q3 39 41 39h94q15 0 18 16l29 232q3 39 41 39h283q38 0 32 -39l-28 -232q0 -16 14 -16h152q35 0 32 -39l-28 -229q-3 -39 -43 -39h-150q-15 0 -18 -17l-2 -14q-3 -16 14 -16h154q35 0 32 -39z" />
    <glyph glyph-name="Umacron" unicode="&#x16a;" horiz-adv-x="1224" 
d="M496 1556q-39 0 -33 39l20 179q6 38 43 38h543q36 0 33 -38l-23 -179q-3 -39 -41 -39h-542zM571 -16q-245 0 -377 141t-104 373l111 897q6 39 43 39h297q37 0 34 -39l-110 -897q-10 -83 30 -134t117 -51q76 0 129 51t64 134l108 897q6 39 43 39h299q36 0 33 -39
l-110 -897q-29 -232 -196 -373t-411 -141z" />
    <glyph glyph-name="umacron" unicode="&#x16b;" 
d="M950 1417q39 0 33 -39l-20 -178q-6 -39 -43 -39h-543q-36 0 -33 39l23 178q3 39 41 39h542zM743 1026q6 39 43 39h297q38 0 35 -39l-123 -987q-3 -39 -41 -39h-299q-35 0 -32 39l6 49q2 11 -5 13t-14 -7q-91 -110 -260 -110q-151 0 -228 101t-54 282l79 659q6 39 43 39
h297q38 0 35 -39l-71 -575q-8 -62 18.5 -100t75.5 -38q42 0 74.5 27t46.5 72q2 5 4 12t2 8z" />
    <glyph glyph-name="Uring" unicode="&#x16e;" horiz-adv-x="1224" 
d="M762 1530q-98 0 -156.5 69t-46.5 170q12 100 88 169t174 69t156.5 -69t46.5 -169q-12 -101 -88 -170t-174 -69zM782 1696q30 0 53.5 21.5t26.5 51.5q4 32 -13.5 54t-47.5 22q-29 0 -53.5 -22t-28.5 -54q-3 -31 15.5 -52t47.5 -21zM571 -16q-245 0 -377 141t-104 373
l111 897q6 39 43 39h297q37 0 34 -39l-110 -897q-10 -83 30 -134t117 -51q76 0 129 51t64 134l108 897q6 39 43 39h299q36 0 33 -39l-110 -897q-29 -232 -196 -373t-411 -141z" />
    <glyph glyph-name="uring" unicode="&#x16f;" 
d="M643 1135q-98 0 -156.5 69t-46.5 170q12 100 88 169t174 69t156.5 -69t46.5 -169q-12 -101 -88 -170t-174 -69zM682 1450q-30 0 -53.5 -22t-26.5 -54q-4 -31 14.5 -52.5t47.5 -21.5q30 0 53 21.5t28 52.5q3 33 -14.5 54.5t-48.5 21.5zM743 1026q6 39 43 39h297
q38 0 35 -39l-123 -987q-3 -39 -41 -39h-299q-35 0 -32 39l6 49q2 11 -5 13t-14 -7q-91 -110 -260 -110q-151 0 -228 101t-54 282l79 659q6 39 43 39h297q38 0 35 -39l-71 -575q-8 -62 18.5 -100t75.5 -38q42 0 74.5 27t46.5 72q2 5 4 12t2 8z" />
    <glyph glyph-name="Uhungarumlaut" unicode="&#x170;" horiz-adv-x="1224" 
d="M479 1561q-20 0 -26.5 12.5t2.5 32.5l94 172q15 30 47 30h256q20 0 26 -12.5t-4 -32.5l-106 -174q-19 -28 -47 -28h-242zM856 1561q-22 0 -27.5 12.5t7.5 34.5l106 172q17 28 47 28h240q22 0 27.5 -12.5t-7.5 -34.5l-108 -172q-17 -28 -47 -28h-238zM571 -16
q-245 0 -377 141t-104 373l111 897q6 39 43 39h297q37 0 34 -39l-110 -897q-10 -83 30 -134t117 -51q76 0 129 51t64 134l108 897q6 39 43 39h299q36 0 33 -39l-110 -897q-29 -232 -196 -373t-411 -141z" />
    <glyph glyph-name="uhungarumlaut" unicode="&#x171;" 
d="M733 1413q22 0 28.5 -12.5t-5.5 -32.5l-107 -174q-19 -29 -47 -29h-240q-22 0 -28.5 12.5t4.5 32.5l92 172q16 31 47 31h256zM1022 1194q-17 -29 -47 -29h-238q-22 0 -27 12.5t7 34.5l106 172q17 29 47 29h242q21 0 26 -12.5t-8 -34.5zM743 1026q6 39 43 39h297
q38 0 35 -39l-123 -987q-3 -39 -41 -39h-299q-35 0 -32 39l6 49q2 11 -5 13t-14 -7q-91 -110 -260 -110q-151 0 -228 101t-54 282l79 659q6 39 43 39h297q38 0 35 -39l-71 -575q-8 -62 18.5 -100t75.5 -38q42 0 74.5 27t46.5 72q2 5 4 12t2 8z" />
    <glyph glyph-name="Uogonek" unicode="&#x172;" horiz-adv-x="1224" 
d="M913 1395q6 39 43 39h299q36 0 33 -39l-110 -897q-26 -205 -161.5 -341t-340.5 -165q-12 -3 -19 -10q-79 -61 -73 -107q4 -20 23 -27.5t44 -1.5q22 7 32 3t11 -25l-2 -119q0 -37 -30 -47q-41 -16 -88.5 -22.5t-98.5 -1t-89 39.5t-48 95q-18 108 82 211q9 8 8 13t-10 7
q-174 41 -262.5 174t-65.5 324l111 897q6 39 43 39h297q37 0 34 -39l-110 -897q-10 -83 30 -134t117 -51q76 0 129 51t64 134z" />
    <glyph glyph-name="uogonek" unicode="&#x173;" 
d="M840 -162q4 -20 22.5 -27t44.5 -1q22 7 32 2.5t11 -25.5l-2 -119q0 -37 -30 -47q-31 -12 -68 -19.5t-80 -6.5t-78.5 13t-63.5 43.5t-36 80.5q-18 129 125 248q9 8 8 14t-12 6h-58q-35 0 -32 39l6 49q2 11 -5 13t-14 -7q-91 -110 -260 -110q-151 0 -228 101t-54 282
l79 659q6 39 43 39h297q38 0 35 -39l-71 -575q-8 -62 18.5 -100t75.5 -38q42 0 74.5 27t46.5 72q2 5 4 12t2 8l71 594q6 39 43 39h297q38 0 35 -39l-127 -1026q-18 -10 -61 -41q-99 -71 -90 -121z" />
    <glyph glyph-name="Wcircumflex" unicode="&#x174;" horiz-adv-x="1701" 
d="M696 1538q-24 0 -29.5 13.5t11.5 33.5l156 193q19 24 49 24h297q32 0 43 -24l112 -193q10 -20 1.5 -33.5t-31.5 -13.5h-205q-30 0 -39 27l-35 80q-3 7 -10.5 7t-11.5 -7l-56 -80q-18 -27 -47 -27h-205zM362 0q-33 0 -40 33l-224 1358q-6 43 39 43h322q34 0 37 -33
l84 -647q1 -7 4.5 -9.5t8 0t7.5 9.5l229 645q12 35 45 35h234q34 0 37 -33l80 -647q1 -7 4.5 -9.5t8 0t7.5 9.5l225 645q14 35 48 35h321q40 0 27 -43l-514 -1358q-14 -33 -47 -33h-304q-36 0 -36 35l-56 678q-1 7 -4 10t-6.5 0.5t-5.5 -10.5l-205 -678q-11 -35 -45 -35
h-281z" />
    <glyph glyph-name="wcircumflex" unicode="&#x175;" horiz-adv-x="1638" 
d="M590 1169q-22 0 -28 14t11 34l156 192q19 25 49 25h295q31 0 45 -25l113 -192q10 -20 1 -34t-32 -14h-205q-29 0 -41 27l-32 80q-3 8 -11 8t-14 -8l-53 -80q-18 -27 -47 -27h-207zM322 0q-36 0 -39 33l-162 989q-6 43 37 43h309q35 0 35 -35l35 -471q2 -7 5.5 -9.5t7.5 0
t7 9.5l160 469q9 35 45 35h270q34 0 37 -35l51 -473q1 -7 5 -9.5t8.5 0t7.5 9.5l168 475q11 35 45 35l307 -4q45 0 27 -43l-408 -985q-13 -33 -49 -33h-309q-34 0 -37 33l-60 385q-1 7 -4 9t-7 -1t-7 -10l-129 -381q-9 -35 -47 -35h-309z" />
    <glyph glyph-name="Ycircumflex" unicode="&#x176;" horiz-adv-x="1292" 
d="M489 1538q-23 0 -28 13.5t10 33.5l156 193q19 24 49 24h297q32 0 45 -24l110 -193q10 -20 1.5 -33.5t-31.5 -13.5h-203q-29 0 -41 27l-35 80q-3 7 -10 7t-12 -7l-56 -80q-15 -27 -45 -27h-207zM457 4q-36 0 -33 39l55 440q0 15 -2 21l-291 885q-6 21 4 33t31 12h324
q33 0 41 -31l125 -473q3 -9 8 -9t10 9l242 473q13 31 47 31h325q22 0 29 -11.5t-4 -33.5l-512 -885q-6 -18 -6 -21l-53 -440q-6 -39 -43 -39h-297z" />
    <glyph glyph-name="ycircumflex" unicode="&#x177;" horiz-adv-x="1060" 
d="M330 1196q-23 0 -28.5 13.5t9.5 33.5l158 193q19 24 47 24h297q32 0 45 -24l111 -193q10 -20 1.5 -33.5t-30.5 -13.5h-205q-29 0 -41 27l-32 80q-4 7 -12 7t-13 -7l-53 -80q-18 -27 -47 -27h-207zM-2 -408q-13 0 -10 39l30 238q1 17 6.5 28t10.5 11h10q129 0 185.5 15.5
t70.5 66.5q3 11 0 20l-184 1010q-3 21 7.5 33t29.5 12h319q34 0 37 -35l41 -469q1 -7 4.5 -9t8 1t7.5 10l152 467q8 35 45 35h319q21 0 28.5 -11.5t-1.5 -33.5l-446 -1024q-36 -78 -64 -129t-68 -101t-84.5 -79t-107.5 -52.5t-144 -33t-188 -9.5h-14z" />
    <glyph glyph-name="Ydieresis" unicode="&#x178;" horiz-adv-x="1292" 
d="M586 1497q-77 0 -119 49.5t-33 128.5t64 128.5t131 49.5t116 -49t31 -129q-11 -80 -63 -129t-127 -49zM995 1497q-76 0 -117 49t-30 129q9 80 61.5 129t130.5 49q76 0 117.5 -49t32.5 -129q-11 -80 -64 -129t-131 -49zM457 4q-36 0 -33 39l55 440q0 15 -2 21l-291 885
q-6 21 4 33t31 12h324q33 0 41 -31l125 -473q3 -9 8 -9t10 9l242 473q13 31 47 31h325q22 0 29 -11.5t-4 -33.5l-512 -885q-6 -18 -6 -21l-53 -440q-6 -39 -43 -39h-297z" />
    <glyph glyph-name="Zacute" unicode="&#x179;" horiz-adv-x="1116" 
d="M592 1565q-23 0 -29 12.5t6 34.5l111 172q17 28 47 28h283q23 0 28 -14t-10 -33l-151 -176q-21 -24 -50 -24h-235zM45 0q-36 0 -33 39l35 283q3 24 23 47l657 714q6 7 3.5 14t-11.5 7h-539q-36 0 -33 39l31 252q6 39 43 39h940q39 0 33 -39l-35 -283q-3 -24 -20 -47
l-664 -715q-6 -8 -3.5 -14t11.5 -6h543q36 0 33 -39l-31 -252q-6 -39 -43 -39h-940z" />
    <glyph glyph-name="zacute" unicode="&#x17a;" horiz-adv-x="933" 
d="M442 1196q-22 0 -28 12.5t6 34.5l110 172q20 29 50 29h280q24 0 29 -14t-10 -33l-152 -176q-19 -25 -47 -25h-238zM33 0q-36 0 -33 39l35 280q3 28 26 48l396 329q9 8 7 14.5t-13 6.5h-316q-36 0 -33 39l33 270q6 39 43 39h752q36 0 33 -39l-35 -281q-3 -26 -27 -47
l-414 -329q-8 -7 -5.5 -14t12.5 -7h364q36 0 33 -39l-35 -270q-3 -39 -41 -39h-782z" />
    <glyph glyph-name="Zdotaccent" unicode="&#x17b;" horiz-adv-x="1116" 
d="M711 1524q-69 0 -106.5 45t-29.5 117q9 73 57.5 117t119.5 44q69 0 105.5 -44t27.5 -117t-56.5 -117.5t-117.5 -44.5zM45 0q-36 0 -33 39l35 283q3 24 23 47l657 714q6 7 3.5 14t-11.5 7h-539q-36 0 -33 39l31 252q6 39 43 39h940q39 0 33 -39l-35 -283q-3 -24 -20 -47
l-664 -715q-6 -8 -3.5 -14t11.5 -6h543q36 0 33 -39l-31 -252q-6 -39 -43 -39h-940z" />
    <glyph glyph-name="zdotaccent" unicode="&#x17c;" horiz-adv-x="933" 
d="M563 1155q-70 0 -107 45t-28 117q9 73 57 117.5t117 44.5q70 0 106 -44t27 -118q-8 -72 -55.5 -117t-116.5 -45zM33 0q-36 0 -33 39l35 280q3 28 26 48l396 329q9 8 7 14.5t-13 6.5h-316q-36 0 -33 39l33 270q6 39 43 39h752q36 0 33 -39l-35 -281q-3 -26 -27 -47
l-414 -329q-8 -7 -5.5 -14t12.5 -7h364q36 0 33 -39l-35 -270q-3 -39 -41 -39h-782z" />
    <glyph glyph-name="Zcaron" unicode="&#x17d;" horiz-adv-x="1116" 
d="M549 1552q-31 0 -43 27l-90 190q-9 20 0.5 34t32.5 14h198q29 0 41 -27l35 -80q3 -8 10 -8t12 8l56 80q18 27 45 27h198q23 0 28.5 -14t-9.5 -34l-139 -190q-20 -27 -50 -27h-325zM45 0q-36 0 -33 39l35 283q3 24 23 47l657 714q6 7 3.5 14t-11.5 7h-539q-36 0 -33 39
l31 252q6 39 43 39h940q39 0 33 -39l-35 -283q-3 -24 -20 -47l-664 -715q-6 -8 -3.5 -14t11.5 -6h543q36 0 33 -39l-31 -252q-6 -39 -43 -39h-940z" />
    <glyph glyph-name="zcaron" unicode="&#x17e;" horiz-adv-x="933" 
d="M399 1184q-31 0 -43 26l-88 191q-10 20 -1 33.5t32 13.5h201q29 0 41 -27l32 -80q5 -7 12 -7t13 7l53 80q18 27 47 27h199q22 0 27 -13.5t-9 -33.5l-141 -191q-20 -26 -49 -26h-326zM33 0q-36 0 -33 39l35 280q3 28 26 48l396 329q9 8 7 14.5t-13 6.5h-316q-36 0 -33 39
l33 270q6 39 43 39h752q36 0 33 -39l-35 -281q-3 -26 -27 -47l-414 -329q-8 -7 -5.5 -14t12.5 -7h364q36 0 33 -39l-35 -270q-3 -39 -41 -39h-782z" />
    <glyph glyph-name="florin" unicode="&#x192;" horiz-adv-x="1110" 
d="M1022 1178q-70 -8 -96 -95l-54 -184q-3 -18 15 -18h102q38 0 35 -39l-29 -230q-6 -39 -43 -39h-155q-13 0 -17 -14l-188 -674q-36 -128 -103.5 -196t-186 -92.5t-314.5 -8.5q-39 0 -33 39l20 180q6 39 43 39h109q25 0 58 24t46 71l172 614q3 8 -1 13t-11 5h-92
q-39 0 -33 39l29 230q3 39 41 39h143q12 0 19 14l67 244q29 103 72 164.5t113.5 97t171.5 41t247 -3.5q39 -3 33 -41l-22 -180q-3 -39 -41 -39h-117z" />
    <glyph glyph-name="uni01CD" unicode="&#x1cd;" horiz-adv-x="1419" 
d="M1061 1552q-19 -26 -49 -26h-326q-31 0 -43 26l-90 191q-9 20 0.5 33.5t32.5 13.5h200q29 0 41 -27l33 -80q3 -7 11 -7t14 7l53 80q18 27 47 27h199q22 0 27 -13.5t-9 -33.5zM975 0q-34 0 -37 33l-23 147q0 6 -5 10.5t-11 4.5h-412q-13 0 -20 -15l-57 -147
q-11 -33 -45 -33h-324q-19 0 -26 11.5t1 33.5l580 1356q13 33 45 33h410q29 0 36 -33l248 -1356q3 -21 -7.5 -33t-31.5 -12h-321zM594 508q-4 -19 12 -19h246q8 0 12.5 6t3.5 13l-67 473q-2 7 -6 9.5t-8 0t-7 -9.5z" />
    <glyph glyph-name="uni01CE" unicode="&#x1ce;" horiz-adv-x="1120" 
d="M874 1184q-20 -27 -49 -27h-325q-31 0 -43 27l-90 190q-9 20 0 33.5t32 13.5h201q29 0 41 -26l33 -80q3 -7 10.5 -7t13.5 7l54 80q17 26 47 26h198q22 0 27.5 -13.5t-8.5 -33.5zM768 1026q3 39 43 39h297q39 0 33 -39l-121 -987q-3 -39 -43 -39h-297q-39 0 -33 39l4 43
q1 10 -4.5 11.5t-11.5 -7.5q-89 -102 -238 -102q-132 0 -228 87t-122 236q-16 100 -2 230q20 148 78 262q62 124 173.5 203t252.5 79q138 0 196 -86q6 -8 12.5 -4.5t6.5 13.5zM659 383q39 61 48 147q12 94 -13 158q-26 64 -96 64t-113 -68q-36 -56 -49 -154q-10 -93 13 -149
q27 -68 96 -68q67 0 114 70z" />
    <glyph glyph-name="uni0218" unicode="&#x218;" horiz-adv-x="1185" 
d="M553 -16q-245 0 -378.5 124.5t-108.5 333.5l4 21q3 39 41 39h292q18 0 27.5 -6t7.5 -15l-2 -22q-6 -56 45.5 -101t139.5 -45q74 0 109.5 32.5t39.5 70.5q2 16 -1 29.5t-15.5 24.5t-23.5 19t-36 17.5t-41 14.5t-52 16.5t-56 17.5q-65 21 -115.5 41.5t-113.5 60.5
t-102.5 86t-62.5 117.5t-12 155.5q24 195 185 314.5t387 119.5q155 0 273 -58.5t177.5 -167.5t42.5 -249l-2 -10q-3 -39 -41 -39h-293q-18 0 -27 4t-7 12l2 16q7 61 -41.5 111.5t-139.5 50.5q-63 0 -103 -27t-46 -73q-6 -53 46.5 -85t213.5 -87q120 -41 140 -50
q200 -84 235 -242q13 -59 4 -130q-25 -200 -188.5 -321t-403.5 -121zM283 -367q-22 0 -28.5 13t5.5 35l111 172q17 28 47 28h282q24 0 29 -14t-10 -33l-152 -176q-22 -25 -47 -25h-237z" />
    <glyph glyph-name="uni0219" unicode="&#x219;" horiz-adv-x="1028" 
d="M487 -16q-224 0 -343.5 89.5t-100.5 239.5v11q6 38 43 38h283q37 0 37 -10l-3 -12q-4 -33 28.5 -53.5t88.5 -20.5q44 0 72 13.5t31 37.5q3 22 -18.5 35.5t-63 21t-88 14.5t-105.5 23t-104 40q-161 86 -138 270q20 165 157.5 262.5t342.5 97.5q209 0 323.5 -101.5
t92.5 -268.5q0 -23 -39 -23h-272q-37 0 -37 12l2 11q3 34 -23.5 53.5t-77.5 19.5q-45 0 -76 -15t-34 -42q-3 -22 15.5 -35.5t56 -21.5t79 -13.5t98 -17t101.5 -27.5q102 -38 149.5 -107t34.5 -179q-21 -167 -159.5 -254.5t-352.5 -87.5zM217 -367q-22 0 -28 13t6 35l110 172
q17 28 47 28h283q24 0 29 -14t-11 -33l-151 -176q-22 -25 -49 -25h-236z" />
    <glyph glyph-name="uni021A" unicode="&#x21a;" horiz-adv-x="1222" 
d="M168 1395q3 39 41 39h1036q36 0 33 -39l-31 -254q-6 -39 -43 -39h-319q-16 0 -19 -17l-129 -1046q-3 -39 -41 -39h-299q-38 0 -32 39l129 1046q0 17 -15 17h-309q-38 0 -35 39zM256 -350q-22 0 -27.5 12.5t7.5 34.5l110 172q17 29 47 29h281q25 0 30 -14.5t-12 -33.5
l-149 -176q-21 -24 -49 -24h-238z" />
    <glyph glyph-name="uni021B" unicode="&#x21b;" horiz-adv-x="776" 
d="M629 1081q0 -16 14 -16h152q35 0 32 -39l-28 -229q-3 -39 -43 -39h-150q-15 0 -18 -17l-37 -303q-14 -102 59 -102h66q36 0 33 -39l-31 -248q-6 -36 -41 -39q-77 -6 -143 -6q-89 0 -148.5 11.5t-104 41t-61 84.5t-6.5 138l55 462q3 17 -12 17h-94q-39 0 -33 39l29 229
q3 39 41 39h94q15 0 18 16l29 232q3 39 41 39h283q38 0 32 -39zM174 -555q-22 0 -28 12.5t6 34.5l110 172q17 29 47 29h283q24 0 29 -14t-11 -33l-151 -176q-22 -25 -49 -25h-236z" />
    <glyph glyph-name="uni0228" unicode="&#x228;" horiz-adv-x="1132" 
d="M1186 1143q-6 -39 -43 -39h-580q-15 0 -18 -17l-23 -180q0 -16 15 -16h354q36 0 33 -39l-31 -250q-6 -39 -43 -39h-354q-17 0 -17 -16l-24 -201q-3 -16 12 -16h582q35 0 32 -39l-30 -252q-6 -39 -43 -39h-285q-20 0 -10 -20q73 -102 30 -207q-25 -61 -71.5 -95
t-99.5 -39.5t-99.5 1t-83.5 22.5q-24 11 -18 47l28 119q6 21 18 25t32 -3q24 -6 44 1.5t29 27.5q18 48 -53 113q-8 8 -20 8h-373q-39 0 -33 39l166 1356q6 39 43 39h932q36 0 33 -39z" />
    <glyph glyph-name="uni0229" unicode="&#x229;" horiz-adv-x="1103" 
d="M627 309q118 7 184 58q36 25 51 -5l113 -192q15 -29 -12 -53q-102 -89 -263 -119q-19 -3 -8 -21q90 -113 43 -225q-20 -49 -55.5 -80.5t-74 -43.5t-82 -12.5t-78.5 7t-64 19.5q-25 11 -19 47l29 118q6 21 17.5 25.5t29.5 -2.5q25 -6 46 1.5t30 27.5q21 50 -70 129
q-8 6 -18 8q-205 41 -295 197q-81 141 -57 348q11 87 43 172q66 165 212.5 266.5t323.5 101.5q205 0 315.5 -136.5t121.5 -371.5q3 -49 0 -98q-6 -39 -43 -39h-590q-17 0 -17 -18q3 -15 6 -27q15 -44 63 -64.5t118 -17.5zM604 752q-80 0 -123 -82l-3 -6q-3 -7 -5 -11
q-6 -18 12 -18h215q8 0 13 5t2 13q0 3 -1 8.5t-1 8.5q-23 82 -109 82z" />
    <glyph glyph-name="circumflex" unicode="&#x2c6;" horiz-adv-x="722" 
d="M160 1169q-23 0 -28.5 14t9.5 34l158 192q19 25 47 25h297q31 0 45 -25l111 -192q10 -20 1.5 -34t-30.5 -14h-205q-29 0 -41 27l-35 80q-3 8 -10 8t-12 -8l-53 -80q-18 -27 -47 -27h-207z" />
    <glyph glyph-name="caron" unicode="&#x2c7;" horiz-adv-x="753" 
d="M313 1157q-31 0 -43 27l-90 190q-9 20 0.5 33.5t32.5 13.5h201q30 0 39 -26l34 -80q3 -7 11 -7t14 7l53 80q17 26 47 26h199q22 0 26.5 -13.5t-10.5 -33.5l-139 -190q-20 -27 -49 -27h-326z" />
    <glyph glyph-name="uni02C9" unicode="&#x2c9;" horiz-adv-x="618" 
d="M141 1161q-38 0 -32 39l20 178q6 39 43 39h543q36 0 33 -39l-23 -178q-3 -39 -43 -39h-541z" />
    <glyph glyph-name="breve" unicode="&#x2d8;" horiz-adv-x="587" 
d="M391 1112q-102 0 -169 62.5t-70 158.5q0 41 41 41h112q31 0 37 -35q13 -63 70 -63q27 0 49.5 17t32.5 46q18 35 47 35h112q19 0 28 -10.5t5 -28.5q-26 -96 -109.5 -159.5t-185.5 -63.5z" />
    <glyph glyph-name="dotaccent" unicode="&#x2d9;" horiz-adv-x="356" 
d="M279 1128q-70 0 -107.5 45t-28.5 117q7 73 55 117.5t119 44.5q70 0 106.5 -44t27.5 -118q-9 -72 -56 -117t-116 -45z" />
    <glyph glyph-name="ring" unicode="&#x2da;" horiz-adv-x="512" 
d="M356 1135q-98 0 -156 69t-46 170q12 100 87 169t173 69t157 -69t47 -169q-12 -101 -88 -170t-174 -69zM377 1300q29 0 53 21.5t27 52.5q4 32 -14 54t-48 22q-31 0 -54 -22t-28 -54q-3 -31 15.5 -52.5t48.5 -21.5z" />
    <glyph glyph-name="ogonek" unicode="&#x2db;" horiz-adv-x="374" 
d="M291 -332q0 -36 -31 -47q-31 -12 -68 -19.5t-80 -6.5t-79 12.5t-63.5 43.5t-35.5 81q-19 132 129 250q21 18 48 18h149q27 0 28.5 -14t-22.5 -31q-93 -69 -84 -117q4 -20 22.5 -27t43.5 -1q23 7 33 2.5t10 -25.5v-119z" />
    <glyph glyph-name="tilde" unicode="&#x2dc;" horiz-adv-x="714" 
d="M569 1151q-62 0 -131 51q-41 29 -69 29q-38 0 -62 -27q-28 -32 -53 -12l-88 72q-25 19 -10 53q36 75 95 116.5t122 41.5q26 0 50.5 -8t39 -16t41.5 -26q43 -30 86 -30q33 0 57 24q29 32 53 13l91 -72q27 -24 -5 -70q-48 -69 -105 -104t-112 -35z" />
    <glyph glyph-name="hungarumlaut" unicode="&#x2dd;" horiz-adv-x="927" 
d="M180 1186q-22 0 -27.5 12.5t7.5 34.5l108 172q17 29 47 29h275q23 0 28 -14t-10 -34l-147 -176q-19 -24 -49 -24h-232zM573 1186q-22 0 -27.5 12.5t7.5 34.5l109 172q17 29 47 29h274q23 0 28 -14t-10 -34l-147 -176q-19 -24 -49 -24h-232z" />
    <glyph glyph-name="gravecomb" unicode="&#x300;" horiz-adv-x="0" 
d="M84 1217q8 -22 -1 -35t-32 -13h-235q-27 0 -43 25l-109 176q-11 19 -2 33t33 14h280q30 0 41 -28z" />
    <glyph glyph-name="acutecomb" unicode="&#x301;" horiz-adv-x="0" 
d="M-342 1169q-23 0 -29 13t6 35l111 172q17 28 47 28h283q23 0 28 -14t-10 -33l-151 -176q-22 -25 -49 -25h-236z" />
    <glyph glyph-name="uni0302" unicode="&#x302;" horiz-adv-x="0" 
d="M-563 1169q-23 0 -28.5 14t9.5 34l158 192q19 25 47 25h297q31 0 45 -25l111 -192q10 -20 1.5 -34t-30.5 -14h-205q-29 0 -41 27l-34 80q-3 8 -11 8t-12 -8l-53 -80q-18 -27 -47 -27h-207z" />
    <glyph glyph-name="tildecomb" unicode="&#x303;" horiz-adv-x="0" 
d="M-162 1151q-60 0 -129 51q-41 29 -69 29q-38 0 -62 -27q-30 -33 -53 -12l-90 72q-23 18 -8 53q36 75 95 116.5t122 41.5q26 0 50 -7.5t39.5 -16.5t39.5 -26q49 -30 88 -30q33 0 57 24q29 32 53 13l90 -72q25 -22 -4 -70q-48 -69 -105 -104t-114 -35z" />
    <glyph glyph-name="uni0304" unicode="&#x304;" horiz-adv-x="0" 
d="M-477 1161q-39 0 -33 39l21 178q6 39 43 39h542q36 0 33 -39l-23 -178q-3 -39 -43 -39h-540z" />
    <glyph glyph-name="uni0306" unicode="&#x306;" horiz-adv-x="0" 
d="M-197 1112q-102 0 -169 62.5t-70 158.5q0 41 41 41h112q31 0 37 -35q13 -63 70 -63q27 0 49.5 17t32.5 46q18 35 47 35h113q41 0 32 -39q-26 -96 -109.5 -159.5t-185.5 -63.5z" />
    <glyph glyph-name="uni0307" unicode="&#x307;" horiz-adv-x="0" 
d="M-53 1128q-70 0 -107 45t-28 117q9 73 57 117.5t117 44.5q70 0 106 -44t27 -118q-8 -72 -55 -117t-117 -45z" />
    <glyph glyph-name="uni0308" unicode="&#x308;" horiz-adv-x="0" 
d="M-483 1128q-77 0 -119 50t-33 129t64 128.5t131 49.5q75 0 115.5 -49t31.5 -129q-11 -80 -63 -129.5t-127 -49.5zM-74 1128q-76 0 -117 49.5t-30 129.5q9 80 61.5 129t130.5 49q76 0 117.5 -49t32.5 -129q-11 -80 -64 -129.5t-131 -49.5z" />
    <glyph glyph-name="uni030A" unicode="&#x30a;" horiz-adv-x="0" 
d="M-121 1135q-98 0 -156.5 69t-46.5 170q12 100 88.5 169t174.5 69t156 -69t46 -169q-12 -101 -88 -170t-174 -69zM-100 1300q30 0 53.5 21.5t28.5 52.5q3 32 -15 54t-49 22q-30 0 -53.5 -22t-26.5 -54q-4 -31 14.5 -52.5t47.5 -21.5z" />
    <glyph glyph-name="uni030B" unicode="&#x30b;" horiz-adv-x="0" 
d="M-690 1165q-20 0 -26.5 12.5t3.5 32.5l92 172q15 31 48 31h256q21 0 27 -12.5t-5 -32.5l-106 -174q-19 -29 -48 -29h-241zM-313 1165q-22 0 -28 12.5t7 34.5l107 172q17 29 47 29h239q22 0 28 -12.5t-7 -34.5l-109 -172q-17 -29 -47 -29h-237z" />
    <glyph glyph-name="uni030C" unicode="&#x30c;" horiz-adv-x="0" 
d="M-440 1157q-31 0 -43 27l-90 190q-9 20 0 33.5t32 13.5h201q30 0 39 -26l35 -80q3 -7 10.5 -7t13.5 7l54 80q17 26 47 26h198q22 0 27 -13.5t-10 -33.5l-140 -190q-20 -27 -49 -27h-325z" />
    <glyph glyph-name="uni0312" unicode="&#x312;" horiz-adv-x="0" 
d="M57 1417q23 0 29.5 -12.5t-6.5 -34.5l-111 -172q-17 -29 -47 -29h-282q-23 0 -28.5 14.5t11.5 33.5l150 176q21 24 49 24h235z" />
    <glyph glyph-name="uni0313" unicode="&#x313;" horiz-adv-x="0" 
d="M-342 1169q-23 0 -29 13t6 35l111 172q17 28 47 28h283q23 0 28 -14t-10 -33l-151 -176q-22 -25 -49 -25h-236z" />
    <glyph glyph-name="uni0326" unicode="&#x326;" horiz-adv-x="0" 
d="M-553 -350q-22 0 -27.5 12.5t7.5 34.5l110 172q17 29 47 29h281q24 0 29 -14.5t-11 -33.5l-149 -176q-21 -24 -49 -24h-238z" />
    <glyph glyph-name="uni0327" unicode="&#x327;" horiz-adv-x="0" 
d="M-434 -379q-26 12 -17 47l29 119q4 21 15.5 25.5t31.5 -2.5q24 -6 44.5 1t29.5 27q21 47 -55 117q-19 17 -14.5 31t30.5 14h150q27 0 45 -18q119 -119 65 -250q-25 -61 -71.5 -95t-99 -39.5t-99 1t-84.5 22.5z" />
    <glyph glyph-name="uni0328" unicode="&#x328;" horiz-adv-x="0" 
d="M-84 -332q0 -36 -31 -47q-41 -16 -88.5 -22.5t-99 -1t-89.5 39.5t-48 95q-19 132 129 250q21 18 47 18h149q27 0 28.5 -14t-22.5 -31q-93 -69 -84 -117q4 -20 22.5 -27t43.5 -1q23 7 33 2.5t10 -25.5v-119z" />
    <glyph glyph-name="uni0335" unicode="&#x335;" horiz-adv-x="0" 
d="M-631 1309q6 39 43 39h676q36 0 33 -39l-19 -148q-6 -39 -43 -39h-675q-36 0 -33 39z" />
    <glyph glyph-name="uni0336" unicode="&#x336;" horiz-adv-x="0" 
d="M-1174 1034q-38 0 -32 39l22 178q3 39 41 39h1225q36 0 33 -39l-23 -178q-3 -39 -41 -39h-1225z" />
    <glyph glyph-name="uni0337" unicode="&#x337;" horiz-adv-x="0" 
d="M-918 -156q-35 -28 -53 2l-114 160q-17 29 10 53l1098 897q35 28 53 -2l114 -159q18 -29 -10 -54z" />
    <glyph glyph-name="uni0338" unicode="&#x338;" horiz-adv-x="0" 
d="M-944 -61q-21 0 -27.5 12.5t4.5 34.5l916 1480q17 29 47 29h98q21 0 27.5 -12.5t-6.5 -34.5l-914 -1481q-17 -28 -47 -28h-98z" />
    <glyph glyph-name="uni0394" unicode="&#x394;" horiz-adv-x="1343" 
d="M33 0q-36 0 -33 39l33 264q3 26 16 47l608 1055q16 29 50 29h200q33 0 43 -29l350 -1057q8 -21 5 -47l-33 -262q-3 -39 -43 -39h-1196zM410 350q-7 -18 10 -18h506q8 0 11.5 5.5t0.5 12.5l-184 568q-2 7 -5.5 9.5t-7 0t-6.5 -9.5z" />
    <glyph glyph-name="uni03A9" unicode="&#x3a9;" horiz-adv-x="1251" 
d="M57 0q-35 0 -32 39l30 252q6 39 43 39h17q8 0 12.5 5.5t1.5 12.5q-42 116 -25 258l37 303q29 243 200.5 392t422.5 149q252 0 387 -149t104 -392l-36 -303q-17 -140 -89 -258q-5 -8 -2.5 -13t9.5 -5h18q39 0 33 -39l-31 -252q-6 -39 -43 -39h-455q-38 0 -32 39l32 262
q3 29 37 43q57 20 95 71.5t47 123.5l45 379q12 94 -31.5 150t-126.5 56q-84 0 -141.5 -56.5t-67.5 -149.5l-47 -379q-9 -73 16 -124t78 -73q30 -13 27 -43l-33 -260q-3 -39 -43 -39h-457z" />
    <glyph glyph-name="uni03BC" unicode="&#x3bc;" horiz-adv-x="1101" 
d="M750 1026q6 39 43 39h297q38 0 32 -39l-121 -987q-3 -39 -40 -39h-299q-39 0 -33 39l6 49q2 11 -5 13t-14 -7q-79 -91 -202 -106q-16 -3 -19 -19l-41 -340q-6 -39 -43 -39h-299q-35 0 -32 39l172 1397q6 39 43 39h299q38 0 32 -39l-69 -575q-8 -62 18.5 -100t75.5 -38
q42 0 74.5 27t46.5 72q4 8 4 20z" />
    <glyph glyph-name="pi" unicode="&#x3c0;" horiz-adv-x="1337" 
d="M1350 776q-6 -39 -43 -39h-86q-16 0 -19 -16l-31 -264q-11 -87 6.5 -113t55.5 -22q41 3 35 -37l-29 -246q-6 -38 -43 -41q-13 -1 -42 -2q-66 -10 -138.5 -4.5t-132.5 21.5t-93 73.5t-20 151.5l59 483q3 16 -14 16h-192q-16 0 -19 -16l-82 -682q-6 -39 -43 -39h-299
q-36 0 -33 39l84 682q3 16 -14 16h-84q-38 0 -35 39l31 250q6 39 43 39h1174q37 0 34 -39z" />
    <glyph glyph-name="Wgrave" unicode="&#x1e80;" horiz-adv-x="1701" 
d="M1157 1585q7 -22 -2.5 -34.5t-32.5 -12.5h-235q-27 0 -43 25l-109 176q-11 19 -2 33t33 14h283q29 0 38 -29zM362 0q-33 0 -40 33l-224 1358q-6 43 39 43h322q34 0 37 -33l84 -647q1 -7 4.5 -9.5t8 0t7.5 9.5l229 645q12 35 45 35h234q34 0 37 -33l80 -647q1 -7 4.5 -9.5
t8 0t7.5 9.5l225 645q14 35 48 35h321q40 0 27 -43l-514 -1358q-14 -33 -47 -33h-304q-36 0 -36 35l-56 678q-1 7 -4 10t-6.5 0.5t-5.5 -10.5l-205 -678q-11 -35 -45 -35h-281z" />
    <glyph glyph-name="wgrave" unicode="&#x1e81;" horiz-adv-x="1638" 
d="M1051 1217q7 -22 -2 -35t-31 -13h-238q-28 0 -41 25l-108 176q-11 19 -2 33t33 14h280q30 0 41 -28zM322 0q-36 0 -39 33l-162 989q-6 43 37 43h309q35 0 35 -35l35 -471q2 -7 5.5 -9.5t7.5 0t7 9.5l160 469q9 35 45 35h270q34 0 37 -35l51 -473q1 -7 5 -9.5t8.5 0
t7.5 9.5l168 475q11 35 45 35l307 -4q45 0 27 -43l-408 -985q-13 -33 -49 -33h-309q-34 0 -37 33l-60 385q-1 7 -4 9t-7 -1t-7 -10l-129 -381q-9 -35 -47 -35h-309z" />
    <glyph glyph-name="Wacute" unicode="&#x1e82;" horiz-adv-x="1701" 
d="M877 1538q-23 0 -29 12.5t6 34.5l111 172q17 29 47 29h282q23 0 28.5 -14t-9.5 -33l-152 -176q-22 -25 -49 -25h-235zM362 0q-33 0 -40 33l-224 1358q-6 43 39 43h322q34 0 37 -33l84 -647q1 -7 4.5 -9.5t8 0t7.5 9.5l229 645q12 35 45 35h234q34 0 37 -33l80 -647
q1 -7 4.5 -9.5t8 0t7.5 9.5l225 645q14 35 48 35h321q40 0 27 -43l-514 -1358q-14 -33 -47 -33h-304q-36 0 -36 35l-56 678q-1 7 -4 10t-6.5 0.5t-5.5 -10.5l-205 -678q-11 -35 -45 -35h-281z" />
    <glyph glyph-name="wacute" unicode="&#x1e83;" horiz-adv-x="1638" 
d="M772 1169q-23 0 -29 13t7 35l110 172q17 28 47 28h283q23 0 28 -14t-12 -33l-149 -176q-22 -25 -49 -25h-236zM322 0q-36 0 -39 33l-162 989q-6 43 37 43h309q35 0 35 -35l35 -471q2 -7 5.5 -9.5t7.5 0t7 9.5l160 469q9 35 45 35h270q34 0 37 -35l51 -473q1 -7 5 -9.5
t8.5 0t7.5 9.5l168 475q11 35 45 35l307 -4q45 0 27 -43l-408 -985q-13 -33 -49 -33h-309q-34 0 -37 33l-60 385q-1 7 -4 9t-7 -1t-7 -10l-129 -381q-9 -35 -47 -35h-309z" />
    <glyph glyph-name="Wdieresis" unicode="&#x1e84;" horiz-adv-x="1701" 
d="M793 1497q-77 0 -119.5 49.5t-32.5 128.5q9 79 63.5 128.5t131.5 49.5q75 0 115.5 -49t31.5 -129q-11 -80 -63 -129t-127 -49zM1202 1497q-76 0 -117 49t-30 129q9 80 61.5 129t130.5 49q77 0 117.5 -49.5t30.5 -128.5q-9 -80 -62 -129t-131 -49zM362 0q-33 0 -40 33
l-224 1358q-6 43 39 43h322q34 0 37 -33l84 -647q1 -7 4.5 -9.5t8 0t7.5 9.5l229 645q12 35 45 35h234q34 0 37 -33l80 -647q1 -7 4.5 -9.5t8 0t7.5 9.5l225 645q14 35 48 35h321q40 0 27 -43l-514 -1358q-14 -33 -47 -33h-304q-36 0 -36 35l-56 678q-1 7 -4 10t-6.5 0.5
t-5.5 -10.5l-205 -678q-11 -35 -45 -35h-281z" />
    <glyph glyph-name="wdieresis" unicode="&#x1e85;" horiz-adv-x="1638" 
d="M686 1128q-75 0 -117 50t-32 129q9 79 63 128.5t131 49.5q75 0 116 -49.5t32 -128.5q-11 -80 -64 -129.5t-129 -49.5zM1098 1128q-76 0 -117.5 49.5t-32.5 129.5q11 80 64 129t131 49q76 0 117 -49t30 -129q-9 -80 -61.5 -129.5t-130.5 -49.5zM322 0q-36 0 -39 33
l-162 989q-6 43 37 43h309q35 0 35 -35l35 -471q2 -7 5.5 -9.5t7.5 0t7 9.5l160 469q9 35 45 35h270q34 0 37 -35l51 -473q1 -7 5 -9.5t8.5 0t7.5 9.5l168 475q11 35 45 35l307 -4q45 0 27 -43l-408 -985q-13 -33 -49 -33h-309q-34 0 -37 33l-60 385q-1 7 -4 9t-7 -1t-7 -10
l-129 -381q-9 -35 -47 -35h-309z" />
    <glyph glyph-name="Ygrave" unicode="&#x1ef2;" horiz-adv-x="1292" 
d="M950 1585q7 -22 -2.5 -34.5t-32.5 -12.5h-235q-27 0 -43 25l-109 176q-11 19 -2 33t33 14h283q30 0 39 -29zM457 4q-36 0 -33 39l55 440q0 15 -2 21l-291 885q-6 21 4 33t31 12h324q33 0 41 -31l125 -473q3 -9 8 -9t10 9l242 473q13 31 47 31h325q22 0 29 -11.5t-4 -33.5
l-512 -885q-6 -18 -6 -21l-53 -440q-6 -39 -43 -39h-297z" />
    <glyph glyph-name="ygrave" unicode="&#x1ef3;" horiz-adv-x="1060" 
d="M791 1243q7 -22 -2.5 -34.5t-32.5 -12.5h-236q-27 0 -43 25l-106 176q-12 19 -3.5 33t31.5 14h283q29 0 41 -29zM-2 -408q-13 0 -10 39l30 238q1 17 6.5 28t10.5 11h10q129 0 185.5 15.5t70.5 66.5q3 11 0 20l-184 1010q-3 21 7.5 33t29.5 12h319q34 0 37 -35l41 -469
q1 -7 4.5 -9t8 1t7.5 10l152 467q8 35 45 35h319q21 0 28.5 -11.5t-1.5 -33.5l-446 -1024q-36 -78 -64 -129t-68 -101t-84.5 -79t-107.5 -52.5t-144 -33t-188 -9.5h-14z" />
    <glyph glyph-name="endash" unicode="&#x2013;" horiz-adv-x="980" 
d="M92 418q-36 0 -33 39l31 252q6 39 43 39h819q36 0 33 -39l-31 -252q-6 -39 -43 -39h-819z" />
    <glyph glyph-name="emdash" unicode="&#x2014;" horiz-adv-x="1273" 
d="M94 420q-38 0 -35 39l31 250q6 39 43 39h1110q38 0 35 -39l-31 -250q-6 -39 -43 -39h-1110z" />
    <glyph glyph-name="quoteleft" unicode="&#x2018;" horiz-adv-x="489" 
d="M123 942q-20 0 -26.5 12.5t3.5 32.5l215 416q15 31 47 31h220q19 0 26.5 -11.5t1.5 -31.5l-147 -414q-11 -35 -45 -35h-295z" />
    <glyph glyph-name="quoteright" unicode="&#x2019;" horiz-adv-x="489" 
d="M578 1434q20 0 26.5 -12.5t-2.5 -32.5l-217 -416q-15 -31 -47 -31h-219q-19 0 -26.5 11.5t-0.5 31.5l146 414q11 35 45 35h295z" />
    <glyph glyph-name="quotesinglbase" unicode="&#x201a;" horiz-adv-x="1191" 
d="M16 -227q-19 0 -27 11t-3 30l108 477q6 37 43 37h254q43 0 27 -43l-185 -480q-11 -32 -45 -32h-172z" />
    <glyph glyph-name="quotedblleft" unicode="&#x201c;" horiz-adv-x="849" 
d="M121 942q-20 0 -27 12.5t2 32.5l189 416q15 31 47 31h207q41 0 28 -43l-121 -414q-11 -35 -45 -35h-280zM530 942q-20 0 -27 12.5t1 32.5l186 414q13 33 45 33h209q42 0 29 -43l-119 -414q-9 -35 -45 -35h-279z" />
    <glyph glyph-name="quotedblright" unicode="&#x201d;" horiz-adv-x="849" 
d="M532 1434q20 0 27 -12.5t-2 -32.5l-184 -414q-17 -33 -47 -33h-209q-40 0 -27 43l117 414q12 35 47 35h278zM940 1434q22 0 29 -12.5t-2 -32.5l-191 -416q-12 -31 -45 -31h-209q-38 0 -28 43l122 414q11 35 46 35h278z" />
    <glyph glyph-name="quotedblbase" unicode="&#x201e;" horiz-adv-x="903" 
d="M387 264q22 0 29 -12.5t-2 -32.5l-185 -414q-16 -32 -47 -32h-209q-38 0 -28 43l118 413q12 35 48 35h276zM797 264q21 0 28 -12.5t-2 -32.5l-190 -416q-12 -30 -45 -30h-209q-39 0 -29 43l123 413q8 35 45 35h279z" />
    <glyph glyph-name="dagger" unicode="&#x2020;" horiz-adv-x="921" 
d="M915 942q39 0 33 -39l-24 -209q-6 -39 -43 -39h-176q-16 0 -19 -16l-123 -1010q-6 -39 -43 -39h-299q-36 0 -33 39l125 1010q0 16 -14 16h-176q-39 0 -33 39l25 209q6 39 43 39h176q15 0 18 16l54 437q6 39 43 39h296q39 0 33 -39l-53 -437q0 -16 14 -16h176z" />
    <glyph glyph-name="daggerdbl" unicode="&#x2021;" horiz-adv-x="921" 
d="M924 694q-6 -39 -43 -39h-176q-16 0 -19 -16l-31 -254q-3 -16 15 -16h176q39 0 33 -39l-25 -209q-6 -39 -43 -39h-178q-6 0 -11.5 -4.5t-5.5 -11.5l-53 -437q-6 -39 -43 -39h-299q-36 0 -33 39l54 437q3 16 -13 16h-178q-36 0 -33 39l27 209q3 39 41 39h178q16 0 19 16
l30 254q0 16 -14 16h-176q-39 0 -33 39l25 209q6 39 43 39h176q15 0 18 16l54 437q6 39 43 39h296q39 0 33 -39l-53 -437q0 -16 14 -16h176q39 0 33 -39z" />
    <glyph glyph-name="bullet" unicode="&#x2022;" horiz-adv-x="638" 
d="M317 293q-115 0 -185.5 84t-55.5 203q13 120 104.5 202t208.5 82q113 0 183 -82.5t55 -201.5q-13 -118 -104.5 -202.5t-205.5 -84.5z" />
    <glyph glyph-name="ellipsis" unicode="&#x2026;" horiz-adv-x="1763" 
d="M219 -16q-95 0 -150 62t-44 153q10 87 85 150t160 63q88 0 147.5 -62.5t49.5 -150.5q-11 -90 -81.5 -152.5t-166.5 -62.5zM838 -16q-96 0 -150.5 62.5t-42.5 152.5q10 87 85.5 150t160.5 63q87 0 146.5 -62.5t49.5 -150.5q-11 -90 -82 -152.5t-167 -62.5zM1460 -16
q-95 0 -150 62t-44 153q10 87 85 150t162 63t147 -63t48 -150q-11 -90 -81.5 -152.5t-166.5 -62.5z" />
    <glyph glyph-name="perthousand" unicode="&#x2030;" horiz-adv-x="2379" 
d="M362 565q-145 0 -217 82t-53 227l33 271q17 141 109.5 223t236.5 82q145 0 218 -82t56 -223l-34 -271q-17 -144 -110.5 -226.5t-238.5 -82.5zM350 0q-23 0 -28 13.5t8 33.5l901 1360q16 27 47 27h182q22 0 27.5 -14t-8.5 -34l-899 -1359q-16 -27 -48 -27h-182zM389 772
q35 0 58.5 23.5t27.5 64.5l37 293q5 41 -13 65.5t-53 24.5t-58 -24.5t-28 -65.5l-36 -293q-5 -41 12.5 -64.5t52.5 -23.5zM1333 -16q-145 0 -217 82t-55 227l33 270q19 142 111.5 223.5t236.5 81.5q143 0 216 -82t56 -223l-33 -270q-19 -144 -112 -226.5t-236 -82.5z
M2003 -16q-145 0 -218 82.5t-54 226.5l32 270q17 141 110.5 223t237.5 82q143 0 216.5 -82t56.5 -223l-33 -270q-19 -144 -112 -226.5t-236 -82.5zM1358 190q36 0 58.5 23.5t27.5 65.5l37 292q5 42 -12.5 66.5t-53.5 24.5q-35 0 -57.5 -24.5t-28.5 -66.5l-35 -292
q-6 -41 11.5 -65t52.5 -24zM2028 190q35 0 58.5 24t27.5 65l36 292q5 42 -12 66.5t-53 24.5q-35 0 -58 -25t-28 -66l-35 -292q-6 -41 11.5 -65t52.5 -24z" />
    <glyph glyph-name="guilsinglleft" unicode="&#x2039;" horiz-adv-x="628" 
d="M520 264q7 -20 -2 -32.5t-31 -12.5h-223q-33 0 -43 29l-104 301q-9 26 6 53l178 301q16 29 49 29h225q20 0 26.5 -12.5t-3.5 -32.5l-182 -301q-8 -12 -2 -21z" />
    <glyph glyph-name="guilsinglright" unicode="&#x203a;" horiz-adv-x="610" 
d="M115 219q-22 0 -28 12.5t5 32.5l182 301q8 12 2 21l-108 301q-6 20 3.5 32.5t31.5 12.5h223q33 0 43 -29l104 -301q6 -28 -8 -53l-178 -301q-16 -29 -49 -29h-223z" />
    <glyph glyph-name="fraction" unicode="&#x2044;" horiz-adv-x="421" 
d="M-270 0q-22 0 -27.5 13.5t6.5 33.5l903 1360q16 27 47 27h181q21 0 26.5 -14t-6.5 -34l-901 -1359q-16 -27 -47 -27h-182z" />
    <glyph glyph-name="uni2074" unicode="&#x2074;" horiz-adv-x="772" 
d="M807 1241q15 0 23.5 -10.5t7.5 -28.5l-19 -141q-3 -39 -41 -39h-18q-16 0 -19 -16l-18 -148q-3 -39 -43 -39h-158q-39 0 -33 39l17 148q3 16 -12 16h-347q-38 0 -32 39l12 110q6 29 16 48l234 430q15 30 47 30h168q20 0 26.5 -12.5t-2.5 -32.5l-198 -374q-10 -19 8 -19
h94q16 0 19 16l10 86q3 39 43 39h158q38 0 32 -39l-10 -86q-3 -16 14 -16h21z" />
    <glyph glyph-name="uni2075" unicode="&#x2075;" horiz-adv-x="641" 
d="M709 1217q18 -62 10 -121q-8 -62 -41 -123q-43 -78 -124 -124t-179 -46q-96 0 -166 45.5t-96 124.5q-10 44 -11 55q-3 41 39 41h168q32 0 35 -16l6 -15q16 -28 49 -28q32 0 54 26q21 21 24 54q4 36 -6 55q-15 29 -51 29q-20 0 -43 -13q-29 -22 -49 -22h-178q-36 0 -33 39
l55 454q6 39 43 39h510q39 0 33 -39l-15 -129q-6 -39 -43 -39h-299q-16 0 -16 -16l-8 -70q-1 -9 3 -12t13 0q43 14 88 14q79 0 140 -42t88 -121z" />
    <glyph glyph-name="uni2076" unicode="&#x2076;" horiz-adv-x="659" 
d="M725 1217q15 -43 8 -121q-8 -62 -37 -123q-44 -77 -125.5 -123.5t-179.5 -46.5q-95 0 -163.5 45.5t-94.5 124.5q-19 61 -10 123l43 358q12 101 102.5 164t223.5 63q129 0 202 -63t60 -164l-2 -24q-3 -39 -43 -39h-158q-37 0 -37 14l2 12q3 24 -11.5 41t-41.5 17
q-25 0 -45 -17.5t-21 -40.5l-8 -57q-1 -9 4.5 -12t14.5 2q44 24 94 24q73 0 135.5 -41.5t87.5 -115.5zM467 1028q25 22 31 57q3 31 -9 52q-17 30 -51 30q-25 0 -47 -16q-30 -26 -33 -64q-6 -32 11 -55q16 -22 49 -22q31 0 49 18z" />
    <glyph glyph-name="uni2077" unicode="&#x2077;" horiz-adv-x="614" 
d="M215 819q-20 0 -26 11.5t4 33.5l294 590q11 19 -8 19h-123q-15 0 -18 -17l-8 -67q-6 -39 -43 -39h-113q-39 0 -33 39l33 251q3 39 43 39h516q36 0 33 -39l-18 -143q-3 -25 -13 -47l-307 -600q-13 -31 -47 -31h-166z" />
    <glyph glyph-name="uni2078" unicode="&#x2078;" horiz-adv-x="665" 
d="M721 1208q20 -48 10 -135q-5 -56 -37 -117q-40 -70 -121.5 -111.5t-181.5 -41.5q-94 0 -164 38.5t-98 112.5q-21 56 -12 121q6 73 47 131q20 29 43 47q15 12 2 25q-14 16 -25 39q-26 46 -16 117q9 72 45 122q43 66 118 101t171 35q94 0 162 -37.5t94 -102.5
q22 -55 14 -114q-10 -75 -47 -121q-30 -36 -33 -39q-13 -11 -4 -23q22 -19 33 -47zM416 1456q-14 -14 -17 -39q-3 -22 9 -45q17 -24 53 -24q38 0 59 24q17 21 19 43q3 27 -9 43q-17 27 -53 27q-38 0 -61 -29zM473 1034q20 27 23 60q3 25 -4 45q-16 32 -54 32q-39 0 -61 -32
q-14 -22 -17 -45q-3 -37 9 -58q16 -28 49 -28q32 0 55 26z" />
    <glyph glyph-name="uni2079" unicode="&#x2079;" horiz-adv-x="659" 
d="M752 1511q19 -60 10 -122l-43 -359q-12 -101 -102 -164t-222 -63q-130 0 -203 63t-61 164l2 25q6 39 43 39h160q38 0 35 -13l-2 -14q-2 -24 12.5 -40.5t40.5 -16.5t45 16.5t22 40.5l7 57q1 9 -4.5 12.5t-14.5 -1.5q-45 -25 -94 -25q-73 0 -135.5 42t-87.5 116
q-16 46 -6 121q5 66 36 122q42 76 124 123t180 47q96 0 163.5 -45.5t94.5 -124.5zM494 1333q29 22 32 64q6 33 -10 55q-16 23 -49 23q-30 0 -49 -19q-26 -23 -29 -57q-6 -30 6 -51q17 -31 54 -31q26 0 45 16z" />
    <glyph glyph-name="franc" unicode="&#x20a3;" horiz-adv-x="1220" 
d="M1303 1143q-6 -39 -43 -39h-578q-15 0 -18 -17l-23 -180q0 -16 14 -16h355q35 0 32 -39l-30 -250q-6 -39 -43 -39h-353q-18 0 -18 -16l-12 -105q-3 -16 12 -16h205q39 0 33 -39l-19 -147q-3 -39 -41 -39h-205q-15 0 -18 -17l-18 -145q-3 -39 -41 -39h-299q-39 0 -33 39
l18 145q0 17 -14 17h-66q-38 0 -32 39l18 147q3 39 41 39h66q18 0 18 16l117 953q6 39 43 39h929q39 0 33 -39z" />
    <glyph glyph-name="Euro" unicode="&#x20ac;" horiz-adv-x="1257" 
d="M711 313q41 0 74.5 24t50.5 64q15 38 47 33l288 -55q37 -6 25 -45q-53 -163 -193 -256.5t-333 -93.5q-225 0 -343.5 132.5t-90.5 354.5l2 18q0 17 -15 17h-104q-36 0 -33 39l14 114q6 39 43 39h103q18 0 18 17l2 10q0 16 -14 16h-102q-38 0 -35 39l14 115q6 39 43 39h104
q6 0 11.5 4.5t5.5 11.5l2 17q28 222 179 352.5t376 130.5q197 0 315 -94.5t127 -261.5q3 -40 -37 -43l-305 -37q-33 -3 -39 30q-9 36 -36 56t-66 20q-54 0 -93 -39.5t-46 -103.5l-2 -27q-3 -16 12 -16h324q41 0 26 -43l-47 -117q-13 -33 -47 -33h-279q-15 0 -18 -16v-10
q-3 -17 12 -17h254q45 0 27 -43l-45 -116q-13 -33 -47 -33h-211q-16 0 -19 -17l-4 -34q-7 -63 22 -102.5t83 -39.5z" />
    <glyph glyph-name="uni20BA" unicode="&#x20ba;" horiz-adv-x="1300" 
d="M901 557q6 39 45 39h297q39 0 33 -39q-21 -109 -75 -206.5t-140.5 -177.5t-215 -126.5t-282.5 -46.5h-295q-38 0 -32 39l53 428q0 17 -17 14l-102 -28q-38 -10 -41 26l-23 131q-6 38 31 47l166 48q12 3 16 18l7 51q1 7 -4 11.5t-13 2.5l-100 -28q-37 -10 -43 26l-21 132
q-9 38 29 47l166 47q16 4 16 18l45 365q6 39 43 39h297q39 0 33 -39l-31 -252q0 -16 17 -13l282 78q37 10 43 -26l21 -131q8 -35 -29 -47l-348 -99q-12 -3 -16 -18l-6 -51q-1 -7 3.5 -11t12.5 -2l283 78q17 5 28.5 -2.5t12.5 -24.5l22 -131q6 -35 -31 -47l-346 -98
q-16 -4 -16 -18l-29 -234q-1 -7 4.5 -11.5t14.5 -2.5q197 24 235 225z" />
    <glyph glyph-name="uni20BD" unicode="&#x20bd;" horiz-adv-x="1394" 
d="M893 522h-205q-15 0 -18 -16l-4 -39q-3 -16 14 -16h293q39 0 33 -39l-17 -140q-6 -39 -43 -39h-293q-18 0 -18 -16l-23 -178q-3 -39 -43 -39h-297q-38 0 -32 39l20 178q3 16 -12 16h-144q-38 0 -32 39l16 140q6 39 43 39h143q17 0 17 16l6 39q0 16 -14 16h-144
q-36 0 -33 39l29 230q3 38 43 38h141q8 0 13.5 5t5.5 12l68 549q6 39 43 39h573q212 0 327 -128.5t89 -332.5q-16 -133 -95 -237t-197 -159t-253 -55zM760 1104q-16 0 -19 -17l-28 -241q-3 -17 12 -17h162q162 0 180 136q8 69 -29 104t-118 35h-160z" />
    <glyph glyph-name="uni2113" unicode="&#x2113;" horiz-adv-x="993" 
d="M700 313q32 29 52 4l125 -151q22 -28 -5 -55q-67 -68 -144 -97.5t-193 -29.5q-157 0 -242 87.5t-78 241.5q0 10 -5 14t-11 1l-17 -11q-40 -21 -47 21l-31 176q-3 36 27 51l107 56q12 6 14 18l45 391q6 51 26 106t56.5 111t84.5 100.5t116.5 72.5t146.5 28
q145 0 221.5 -90t57.5 -234q-11 -90 -49 -173t-100 -156.5t-135.5 -136t-168.5 -126.5q-11 -8 -14 -20l-11 -92q-18 -150 74 -150q52 0 98 43zM592 969l-10 -90q-2 -11 3.5 -13.5t14.5 4.5q118 118 129 220q14 89 -43 92q-23 -1 -38.5 -14.5t-30.5 -61.5t-25 -137z" />
    <glyph glyph-name="trademark" unicode="&#x2122;" horiz-adv-x="1347" 
d="M170 1262q-36 0 -33 38l13 95q3 39 43 39h503q39 0 33 -39l-10 -95q-6 -38 -43 -38h-141q-16 0 -19 -17l-59 -491q-6 -39 -43 -39h-119q-39 0 -33 39l60 491q3 17 -15 17h-137zM1235 1411q17 23 47 23h123q39 0 33 -39l-78 -641q-3 -39 -43 -39h-119q-36 0 -33 39l43 346
q2 11 -5.5 13t-14.5 -7l-53 -64q-19 -22 -48 -22h-28q-29 0 -43 22l-37 64q-6 9 -13.5 7t-7.5 -13l-43 -346q-6 -39 -43 -39h-118q-39 0 -33 39l78 641q6 39 43 39h125q29 0 43 -23l82 -137q9 -15 24 0z" />
    <glyph glyph-name="uni2126" unicode="&#x2126;" horiz-adv-x="1251" 
d="M57 0q-35 0 -32 39l30 252q6 39 43 39h17q8 0 12.5 5.5t1.5 12.5q-42 116 -25 258l37 303q29 243 200.5 392t422.5 149q252 0 387 -149t104 -392l-36 -303q-17 -140 -89 -258q-5 -8 -2.5 -13t9.5 -5h18q39 0 33 -39l-31 -252q-6 -39 -43 -39h-455q-38 0 -32 39l32 262
q3 29 37 43q57 20 95 71.5t47 123.5l45 379q12 94 -31.5 150t-126.5 56q-84 0 -141.5 -56.5t-67.5 -149.5l-47 -379q-9 -73 16 -124t78 -73q30 -13 27 -43l-33 -260q-3 -39 -43 -39h-457z" />
    <glyph glyph-name="estimated" unicode="&#x212e;" horiz-adv-x="1599" 
d="M936 1450q212 0 370 -95t232.5 -264t48.5 -380q0 -9 -39 -9h-1163q-18 0 -18 -16l-52 -418q-3 -10 7 -20q77 -87 191.5 -133.5t254.5 -46.5q171 0 342.5 93t271.5 240q18 27 48 27h16q21 0 27.5 -12.5t-5.5 -32.5q-113 -177 -309.5 -288t-400.5 -111q-159 0 -290 54.5
t-217 150.5t-125 231t-20 291q26 211 142 380t296.5 264t391.5 95zM438 1184q-8 -6 -12 -21l-43 -360q-3 -17 14 -17h920q16 0 16 17l45 358q0 15 -6 21q-77 89 -191.5 136.5t-254.5 47.5q-284 0 -488 -182z" />
    <glyph glyph-name="oneeighth" unicode="&#x215b;" horiz-adv-x="1611" 
d="M391 612q-6 -39 -43 -39h-158q-37 0 -34 39l73 598q3 17 -12 17l-24 2q-39 0 -33 39l12 100q3 32 35 45l26 10q28 11 48 11h174q35 0 32 -39zM1087 1407q16 27 46 27h182q21 0 26.5 -14t-6.5 -34l-901 -1359q-16 -27 -47 -27h-182q-23 0 -28.5 13.5t7.5 33.5zM1565 389
q22 -51 12 -135q-10 -67 -39 -117q-40 -70 -121.5 -111.5t-181.5 -41.5q-94 0 -163 38.5t-97 112.5q-19 51 -14 121q10 75 49 131q20 29 43 47q13 14 2 25q-15 15 -27 39q-23 48 -14 116q6 68 45 123q41 65 117 100t172 35q95 0 162.5 -37t93.5 -102q20 -50 14 -115
q-10 -74 -47 -120q-20 -24 -35 -39q-12 -13 -2 -23q20 -20 31 -47zM1260 637q-14 -18 -17 -39q-3 -23 8 -45q18 -25 56 -25q37 0 59 25q15 19 18 43q4 29 -8 43q-17 27 -55 27t-61 -29zM1317 215q19 25 24 59q3 25 -4 45q-17 33 -55 33t-61 -33q-13 -26 -15 -45
q-6 -33 8 -57q16 -29 50 -29q33 0 53 27z" />
    <glyph glyph-name="threeeighths" unicode="&#x215c;" horiz-adv-x="1781" 
d="M655 739q-43 -80 -124.5 -128t-178.5 -48q-98 0 -166.5 48t-93.5 132q-12 41 -12 86q3 41 43 41h162q28 0 34 -36q4 -21 9 -35q16 -29 51 -29q32 0 55 29q20 28 27 73q5 45 -8 78q-15 31 -50 31q-28 0 -55 -16q-35 -21 -51 8l-64 94q-20 34 17 55l147 84q9 6 8.5 13.5
t-12.5 7.5h-203q-38 0 -32 39l16 129q3 39 41 39h500q36 0 33 -39l-17 -138q-6 -30 -31 -47l-118 -80q-18 -14 2 -20q77 -32 104 -121q15 -55 6 -123q-7 -66 -39 -127zM1257 1407q16 27 48 27h180q23 0 28 -14t-8 -34l-899 -1359q-19 -27 -47 -27h-184q-22 0 -27.5 13.5
t8.5 33.5zM1737 389q20 -48 10 -135q-5 -56 -37 -117q-40 -70 -121.5 -111.5t-181.5 -41.5q-94 0 -164 38.5t-98 112.5q-21 56 -12 121q6 73 47 131q28 35 43 47t2 25q-14 16 -25 39q-26 46 -16 116q9 73 45 123q42 65 117.5 100t171.5 35q94 0 162 -37t96 -102
q20 -58 12 -115q-6 -69 -47 -120q-30 -36 -33 -39q-13 -11 -4 -23q22 -19 33 -47zM1432 637q-14 -14 -17 -39q-3 -23 8 -45q18 -25 54 -25q37 0 59 25q15 19 18 43q4 29 -8 43q-17 27 -53 27q-38 0 -61 -29zM1489 215q19 26 22 59q3 25 -4 45q-17 33 -53 33q-38 0 -61 -33
q-14 -22 -17 -45q-3 -32 8 -57q16 -29 50 -29q31 0 55 27z" />
    <glyph glyph-name="fiveeighths" unicode="&#x215d;" horiz-adv-x="1777" 
d="M1253 1407q16 27 47 27h181q23 0 28 -14t-8 -34l-899 -1359q-19 -27 -47 -27h-184q-22 0 -27.5 13.5t8.5 33.5zM647 727q-42 -77 -123 -123.5t-180 -46.5q-96 0 -164.5 45.5t-95.5 124.5q-9 27 -12 55q-3 41 39 41h170q29 0 32 -16l6 -14q16 -29 52 -29q28 0 51 27
q21 21 24 53q6 31 -6 55q-14 29 -51 29q-17 0 -43 -13q-29 -22 -47 -22h-180q-36 0 -33 39l57 454q3 39 41 39h512q36 0 33 -39l-16 -129q-6 -38 -43 -38h-297q-16 0 -19 -17l-8 -69q-1 -9 3.5 -12.5t12.5 -0.5q46 15 89 15q79 0 139.5 -42t87.5 -122q18 -62 10 -121
q-8 -62 -41 -123zM1733 389q20 -48 10 -135q-5 -56 -37 -117q-40 -70 -121.5 -111.5t-181.5 -41.5q-94 0 -164 38.5t-98 112.5q-22 58 -13 121q6 71 48 131q28 35 43 47t2 25q-14 16 -25 39q-25 51 -16 116q9 73 45 123q42 66 117 100.5t171 34.5q95 0 163 -37t96 -102
q20 -58 12 -115q-6 -67 -45 -120q-6 -6 -17.5 -19.5t-17.5 -19.5q-13 -11 -4 -23q22 -19 33 -47zM1427 637q-13 -13 -16 -39q-3 -23 8 -45q18 -25 54 -25q37 0 59 25q15 15 18 43q4 29 -8 43q-17 27 -53 27q-39 0 -62 -29zM1485 215q19 26 22 59q3 25 -4 45q-17 33 -53 33
q-38 0 -61 -33q-14 -22 -17 -45q-3 -34 10 -57q13 -29 48 -29q31 0 55 27z" />
    <glyph glyph-name="seveneighths" unicode="&#x215e;" horiz-adv-x="1685" 
d="M397 604q-13 -31 -47 -31h-164q-46 0 -24 45l297 590q8 19 -10 19h-123q-16 0 -19 -17l-8 -67q-3 -39 -43 -39h-113q-38 0 -32 39l32 252q6 39 43 39h516q39 0 33 -39l-16 -144q-3 -22 -14 -47zM1159 1407q19 27 47 27h183q22 0 27 -14t-9 -34l-899 -1359
q-16 -27 -47 -27h-182q-23 0 -28.5 13.5t7.5 33.5zM1638 389q23 -53 13 -135q-10 -67 -39 -117q-40 -70 -121.5 -111.5t-181.5 -41.5q-94 0 -163 38.5t-97 112.5q-24 57 -15 121q10 75 49 131q20 29 43 47q14 14 2 25q-13 13 -26 39q-24 50 -15 116q6 66 43 123
q42 65 117.5 100t171.5 35t164 -37t94 -102q21 -52 15 -115q-9 -69 -47 -120q-20 -24 -35 -39q-12 -13 -2 -23q19 -19 30 -47zM1333 637q-13 -16 -16 -39t8 -45q18 -25 55 -25q39 0 58 25q17 17 20 43q4 29 -8 43q-17 27 -55 27q-39 0 -62 -29zM1391 215q19 25 24 59
q3 27 -6 45q-13 33 -53 33q-39 0 -62 -33q-12 -23 -14 -45q-6 -33 8 -57q16 -29 47 -29q32 0 56 27z" />
    <glyph glyph-name="partialdiff" unicode="&#x2202;" horiz-adv-x="1193" 
d="M1038 1262q66 -88 100.5 -213.5t32.5 -246t-24 -239.5q-53 -263 -225 -421t-435 -158q-233 0 -356 124.5t-94 352.5q13 100 51.5 182t93.5 137t125 92t144.5 52.5t152.5 13.5q70 -3 146 -23q10 -1 14.5 3.5t1.5 13.5q-13 43 -33 72q-47 65 -137 71q-97 6 -242 -59
q-38 -18 -47 20l-65 271q-6 38 26 49q222 92 400 86q242 -6 370 -180zM547 313q71 0 125.5 59.5t83.5 172.5q5 10 -2 20q-59 74 -156 68q-69 -3 -123 -47.5t-63 -112.5q-8 -66 30.5 -113t104.5 -47z" />
    <glyph glyph-name="uni2206" unicode="&#x2206;" horiz-adv-x="1343" 
d="M33 0q-36 0 -33 39l33 262q3 26 16 47l608 1057q16 29 50 29h200q33 0 43 -29l350 -1059q8 -21 5 -47l-33 -260q-3 -39 -43 -39h-1196zM410 348q-7 -18 10 -18h504q9 0 13 5t1 13l-184 570q-2 7 -5.5 9.5t-7 0t-6.5 -9.5z" />
    <glyph glyph-name="product" unicode="&#x220f;" horiz-adv-x="1220" 
d="M1284 1638q36 0 33 -39l-242 -1970q-6 -39 -43 -39h-297q-38 0 -35 39l205 1663q3 17 -14 17h-303q-16 0 -19 -17l-202 -1663q-6 -39 -43 -39h-299q-36 0 -33 39l241 1970q6 39 43 39h1008z" />
    <glyph glyph-name="summation" unicode="&#x2211;" horiz-adv-x="1159" 
d="M25 -410q-36 0 -33 39l33 265q3 26 20 49l518 721q6 11 2 22l-354 600q-13 23 -10 49l32 264q6 39 43 39h961q36 0 33 -39l-31 -251q-6 -39 -43 -39h-602q-20 0 -10 -21l364 -586q18 -24 -4 -55l-530 -706q-5 -7 -2 -14t12 -7h602q36 0 33 -39l-31 -252q-6 -39 -43 -39
h-960z" />
    <glyph glyph-name="minus" unicode="&#x2212;" horiz-adv-x="946" 
d="M94 434q-36 0 -33 39l31 250q6 39 43 39h783q38 0 32 -39l-30 -250q-3 -39 -41 -39h-785z" />
    <glyph glyph-name="uni2215" unicode="&#x2215;" horiz-adv-x="1103" 
d="M33 0q-21 0 -26.5 12.5t7.5 34.5l844 1358q17 29 47 29h262q22 0 27.5 -13t-6.5 -35l-842 -1357q-20 -29 -47 -29h-266z" />
    <glyph glyph-name="uni2219" unicode="&#x2219;" horiz-adv-x="638" 
d="M319 303q-116 0 -186.5 84t-56.5 203q15 120 106 202t207 82q115 0 185 -82.5t55 -201.5q-13 -118 -104.5 -202.5t-205.5 -84.5z" />
    <glyph glyph-name="radical" unicode="&#x221a;" horiz-adv-x="1703" 
d="M291 -410q-34 0 -39 31l-201 819q-6 38 29 49l289 95q39 12 45 -25l69 -319q3 -10 10.5 -9.5t10.5 11.5l514 1360q11 32 45 32h698q39 0 33 -39l-31 -252q-3 -38 -41 -38h-434q-14 0 -18 -15l-633 -1667q-11 -33 -45 -33h-301z" />
    <glyph glyph-name="infinity" unicode="&#x221e;" horiz-adv-x="1564" 
d="M1210 1069q174 0 274.5 -119t78.5 -297q-22 -180 -152 -296.5t-313 -116.5q-99 0 -171.5 39t-133.5 120q-13 13 -25 0q-166 -159 -342 -159q-164 0 -264 121t-78 296t151.5 293.5t299.5 118.5q183 0 303 -160q9 -13 22 0q167 160 350 160zM467 535q37 0 70 24t88 86
q13 11 6 25q-38 62 -63 83t-64 21q-55 0 -91 -32t-42 -85q-6 -54 21 -88t75 -34zM1139 535q60 0 95.5 31t41.5 87q7 55 -20 88t-78 33q-79 0 -179 -108q-13 -13 2 -33q36 -57 66 -77.5t72 -20.5z" />
    <glyph glyph-name="integral" unicode="&#x222b;" horiz-adv-x="837" 
d="M-10 -412q-41 3 -35 41l20 178q6 39 43 39h80q39 4 61 30.5t27 64.5l146 1198q23 183 143 244t420 53q41 -3 35 -41l-23 -178q-3 -39 -41 -39h-80q-77 -8 -88 -95l-145 -1198q-23 -183 -143.5 -244t-419.5 -53z" />
    <glyph glyph-name="approxequal" unicode="&#x2248;" horiz-adv-x="1105" 
d="M756 588q-79 0 -152 47q-1 1 -12 8t-14 9t-14 8.5t-16 9t-15.5 8t-17.5 8t-17.5 6.5t-18.5 5.5t-18 3t-19 1.5q-63 0 -116 -59q-29 -29 -56 -8l-147 115q-23 20 -10 51q49 101 150 166t206 65q77 0 158 -51q8 -5 28.5 -18t30 -18t25 -13t28.5 -11t27 -3q53 0 106 57
q27 33 54 12l176 -125q26 -19 8 -53q-52 -98 -152 -159.5t-202 -61.5zM702 158q-78 0 -151 47q-1 1 -12 8t-14 9t-14 8.5t-16 9t-15.5 8t-17.5 8t-17.5 6.5t-18.5 5.5t-18 3t-19 1.5q-64 0 -117 -59q-29 -29 -55 -8l-145 114q-27 21 -13 52q49 101 150.5 166t206.5 65
q80 0 157 -51q9 -5 29 -18t29.5 -18.5t25.5 -13.5t29 -11t27 -3q52 0 106 58q26 33 53 12l177 -125q27 -20 10 -53q-52 -98 -153 -159.5t-204 -61.5z" />
    <glyph glyph-name="notequal" unicode="&#x2260;" horiz-adv-x="946" 
d="M946 688q-3 -39 -43 -39h-235q-16 0 -21 -12l-6 -12q-5 -7 -2 -13t12 -6h248q36 0 33 -39l-31 -250q-3 -38 -43 -38h-389q-15 0 -20 -13l-84 -155q-15 -31 -48 -31h-139q-20 0 -26.5 12.5t2.5 32.5l73 135q6 19 -10 19h-141q-39 0 -33 38l31 250q3 39 43 39h280
q16 0 23 12l6 13q7 18 -10 18h-295q-36 0 -33 39l31 250q6 39 43 39h434q15 0 22 12l70 133q16 31 47 31h139q21 0 27.5 -12.5t-2.5 -32.5l-59 -113q-9 -18 10 -18h94q39 0 33 -39z" />
    <glyph glyph-name="lessequal" unicode="&#x2264;" horiz-adv-x="946" 
d="M913 422q-2 -22 -15 -31t-32 0l-741 348q-28 13 -25 45l33 263q3 32 35 45l827 346q20 9 31 1t8 -30l-33 -283q-6 -33 -36 -45l-437 -155q-11 -3 -11.5 -10.5t9.5 -10.5l398 -155q30 -12 24 -45zM866 39q-3 -39 -41 -39h-784q-36 0 -33 39l31 250q6 39 43 39h782
q39 0 33 -39z" />
    <glyph glyph-name="greaterequal" unicode="&#x2265;" horiz-adv-x="946" 
d="M96 391q-21 -9 -32 0t-9 31l35 283q6 33 35 45l436 155q10 3 11.5 10.5t-7.5 10.5l-399 155q-28 12 -25 45l35 283q3 22 16.5 31t32.5 0l742 -348q27 -12 24 -45l-33 -263q-3 -33 -34 -45zM41 0q-36 0 -33 39l31 250q6 39 43 39h782q39 0 33 -39l-31 -250q-3 -39 -41 -39
h-784z" />
    <glyph glyph-name="lozenge" unicode="&#x25ca;" horiz-adv-x="1153" 
d="M428 -123q-28 0 -41 29l-287 784q-8 23 9 53l481 785q16 28 47 28h182q30 0 39 -28l289 -785q7 -30 -6 -53l-479 -784q-19 -29 -48 -29h-186zM563 307q9 -21 21 0l227 400q9 9 6 20l-133 399q-2 7 -5 9.5t-6.5 0t-6.5 -9.5l-230 -399q-6 -9 -2 -20z" />
    <glyph glyph-name="i.loclTRK" horiz-adv-x="505" 
d="M344 1153q-70 0 -107 45t-28 117q9 73 57 117.5t117 44.5q70 0 106 -44t27 -118q-8 -72 -55 -117t-117 -45zM61 0q-38 0 -32 39l121 987q6 39 43 39h296q38 0 35 -39l-123 -987q-3 -39 -41 -39h-299z" />
    <glyph glyph-name="a.alt" horiz-adv-x="1073" 
d="M608 1081q135 0 242.5 -47t163 -128.5t43.5 -178.5l-84 -688q-6 -39 -43 -39h-299q-36 0 -33 39l6 37q0 11 -4 13t-12 -7q-79 -98 -256 -98q-164 0 -248 77t-66 224q20 155 136.5 239t318.5 84h180q17 0 17 17l4 30q6 43 -21.5 70t-79.5 27q-74 0 -104 -41
q-26 -29 -47 -27l-301 41q-37 3 -31 31q31 140 176.5 232.5t341.5 92.5zM479 250q65 0 110 34.5t52 94.5l2 20q3 17 -14 17h-92q-126 0 -138 -84q-3 -36 17 -59t63 -23z" />
    <glyph glyph-name="a.sc" horiz-adv-x="1202" 
d="M801 0q-34 0 -37 33l-12 88q0 6 -5.5 10t-11.5 4h-315q-14 0 -21 -14l-32 -88q-11 -33 -45 -33h-293q-21 0 -28.5 11.5t1.5 33.5l481 1106q11 33 45 33h357q34 0 37 -33l211 -1106q3 -21 -7.5 -33t-31.5 -12h-293zM524 449q-3 -8 0.5 -13.5t10.5 -5.5h157q17 0 17 19
l-41 323q-1 7 -5 9.5t-8.5 0t-7.5 -9.5z" />
    <glyph glyph-name="aacute.sc" horiz-adv-x="1202" 
d="M1010 1536q23 0 28 -14t-10 -33l-151 -176q-22 -25 -50 -25h-235q-23 0 -29.5 12.5t6.5 34.5l111 172q17 29 47 29h283zM801 0q-34 0 -37 33l-12 88q0 6 -5.5 10t-11.5 4h-315q-14 0 -21 -14l-32 -88q-11 -33 -45 -33h-293q-21 0 -28.5 11.5t1.5 33.5l481 1106
q11 33 45 33h357q34 0 37 -33l211 -1106q3 -21 -7.5 -33t-31.5 -12h-293zM524 449q-3 -8 0.5 -13.5t10.5 -5.5h157q17 0 17 19l-41 323q-1 7 -5 9.5t-8.5 0t-7.5 -9.5z" />
    <glyph glyph-name="abreve.sc" horiz-adv-x="1202" 
d="M709 1231q-101 0 -168.5 63t-69.5 158q-1 20 10.5 30.5t30.5 10.5h113q31 0 37 -35q4 -29 22.5 -46t44.5 -17t49 17t35 46q15 35 45 35h115q18 0 26.5 -10.5t4.5 -28.5q-25 -96 -108 -159.5t-187 -63.5zM801 0q-34 0 -37 33l-12 88q0 6 -5.5 10t-11.5 4h-315
q-14 0 -21 -14l-32 -88q-11 -33 -45 -33h-293q-21 0 -28.5 11.5t1.5 33.5l481 1106q11 33 45 33h357q34 0 37 -33l211 -1106q3 -21 -7.5 -33t-31.5 -12h-293zM524 449q-3 -8 0.5 -13.5t10.5 -5.5h157q17 0 17 19l-41 323q-1 7 -5 9.5t-8.5 0t-7.5 -9.5z" />
    <glyph glyph-name="uni01CE.sc" horiz-adv-x="1202" 
d="M924 1303q-20 -27 -50 -27h-325q-31 0 -43 27l-90 190q-9 20 -0.5 33.5t30.5 13.5h201q29 0 41 -27l35 -79q3 -8 10 -8t12 8l54 79q18 27 47 27h198q23 0 28.5 -13.5t-9.5 -33.5zM801 0q-34 0 -37 33l-12 88q0 6 -5.5 10t-11.5 4h-315q-14 0 -21 -14l-32 -88
q-11 -33 -45 -33h-293q-21 0 -28.5 11.5t1.5 33.5l481 1106q11 33 45 33h357q34 0 37 -33l211 -1106q3 -21 -7.5 -33t-31.5 -12h-293zM524 449q-3 -8 0.5 -13.5t10.5 -5.5h157q17 0 17 19l-41 323q-1 7 -5 9.5t-8.5 0t-7.5 -9.5z" />
    <glyph glyph-name="acircumflex.sc" horiz-adv-x="1202" 
d="M741 1395q-3 7 -10.5 7t-13.5 -7l-53 -80q-18 -27 -48 -27h-206q-22 0 -28 13.5t11 33.5l156 193q19 24 49 24h295q34 0 45 -24l113 -193q10 -20 1 -33.5t-32 -13.5h-205q-30 0 -39 27zM801 0q-34 0 -37 33l-12 88q0 6 -5.5 10t-11.5 4h-315q-14 0 -21 -14l-32 -88
q-11 -33 -45 -33h-293q-21 0 -28.5 11.5t1.5 33.5l481 1106q11 33 45 33h357q34 0 37 -33l211 -1106q3 -21 -7.5 -33t-31.5 -12h-293zM524 449q-3 -8 0.5 -13.5t10.5 -5.5h157q17 0 17 19l-41 323q-1 7 -5 9.5t-8.5 0t-7.5 -9.5z" />
    <glyph glyph-name="adieresis.sc" horiz-adv-x="1202" 
d="M506 1247q-76 0 -118 49.5t-32 128.5q9 79 63.5 129t131.5 50q75 0 115.5 -49.5t31.5 -129.5q-11 -80 -63.5 -129t-128.5 -49zM918 1247q-76 0 -117.5 49t-32.5 129q11 80 64 129.5t131 49.5q76 0 117 -49.5t30 -129.5q-9 -80 -61.5 -129t-130.5 -49zM801 0q-34 0 -37 33
l-12 88q0 6 -5.5 10t-11.5 4h-315q-14 0 -21 -14l-32 -88q-11 -33 -45 -33h-293q-21 0 -28.5 11.5t1.5 33.5l481 1106q11 33 45 33h357q34 0 37 -33l211 -1106q3 -21 -7.5 -33t-31.5 -12h-293zM524 449q-3 -8 0.5 -13.5t10.5 -5.5h157q17 0 17 19l-41 323q-1 7 -5 9.5
t-8.5 0t-7.5 -9.5z" />
    <glyph glyph-name="agrave.sc" horiz-adv-x="1202" 
d="M870 1335q16 -47 -32 -47h-236q-27 0 -43 25l-108 176q-11 19 -2.5 33t32.5 14h281q29 0 41 -29zM801 0q-34 0 -37 33l-12 88q0 6 -5.5 10t-11.5 4h-315q-14 0 -21 -14l-32 -88q-11 -33 -45 -33h-293q-21 0 -28.5 11.5t1.5 33.5l481 1106q11 33 45 33h357q34 0 37 -33
l211 -1106q3 -21 -7.5 -33t-31.5 -12h-293zM524 449q-3 -8 0.5 -13.5t10.5 -5.5h157q17 0 17 19l-41 323q-1 7 -5 9.5t-8.5 0t-7.5 -9.5z" />
    <glyph glyph-name="amacron.sc" horiz-adv-x="1202" 
d="M1020 1536q36 0 33 -39l-23 -178q-6 -39 -43 -39h-543q-35 0 -32 39l22 178q3 39 43 39h543zM801 0q-34 0 -37 33l-12 88q0 6 -5.5 10t-11.5 4h-315q-14 0 -21 -14l-32 -88q-11 -33 -45 -33h-293q-21 0 -28.5 11.5t1.5 33.5l481 1106q11 33 45 33h357q34 0 37 -33
l211 -1106q3 -21 -7.5 -33t-31.5 -12h-293zM524 449q-3 -8 0.5 -13.5t10.5 -5.5h157q17 0 17 19l-41 323q-1 7 -5 9.5t-8.5 0t-7.5 -9.5z" />
    <glyph glyph-name="aogonek.sc" horiz-adv-x="1202" 
d="M1139 0q-4 0 -29 -14q-67 -43 -101 -81.5t-28 -66.5q4 -20 22.5 -27t43.5 -1q22 7 32.5 2.5t10.5 -25.5v-119q0 -36 -31 -47q-31 -12 -68 -19.5t-80 -6.5t-79 12.5t-63.5 43.5t-35.5 81q-19 131 125 248q6 5 7.5 9.5t-1.5 7.5t-10 3h-53q-34 0 -37 33l-12 88q0 6 -5.5 10
t-11.5 4h-315q-14 0 -21 -14l-32 -88q-11 -33 -45 -33h-293q-21 0 -28.5 11.5t1.5 33.5l481 1106q11 33 45 33h357q34 0 37 -33l211 -1114q3 -11 4.5 -19.5t2 -13t-0.5 -4.5zM524 449q-3 -8 0.5 -13.5t10.5 -5.5h157q17 0 17 19l-41 323q-1 7 -5 9.5t-8.5 0t-7.5 -9.5z" />
    <glyph glyph-name="aring.sc" horiz-adv-x="1202" 
d="M713 1253q-98 0 -157 69.5t-46 170.5q12 100 87 169t173 69t157.5 -69t47.5 -169q-14 -102 -89 -171t-173 -69zM752 1569q-31 0 -54 -22t-28 -54q-3 -31 15 -52.5t48 -21.5q29 0 53 21.5t27 52.5q4 32 -13.5 54t-47.5 22zM801 0q-34 0 -37 33l-12 88q0 6 -5.5 10t-11.5 4
h-315q-14 0 -21 -14l-32 -88q-11 -33 -45 -33h-293q-21 0 -28.5 11.5t1.5 33.5l481 1106q11 33 45 33h357q34 0 37 -33l211 -1106q3 -21 -7.5 -33t-31.5 -12h-293zM524 449q-3 -8 0.5 -13.5t10.5 -5.5h157q17 0 17 19l-41 323q-1 7 -5 9.5t-8.5 0t-7.5 -9.5z" />
    <glyph glyph-name="atilde.sc" horiz-adv-x="1202" 
d="M655 1350q-39 0 -63 -27q-28 -32 -53 -12l-88 71q-26 20 -11 54q36 75 95 116t124 41q25 0 49 -7.5t39 -16t41 -25.5q44 -31 86 -31q33 0 58 25q28 31 53 12l90 -71q25 -22 6 -54q-47 -78 -107.5 -116.5t-119.5 -38.5q-62 0 -131 51q-41 29 -68 29zM801 0q-34 0 -37 33
l-12 88q0 6 -5.5 10t-11.5 4h-315q-14 0 -21 -14l-32 -88q-11 -33 -45 -33h-293q-21 0 -28.5 11.5t1.5 33.5l481 1106q11 33 45 33h357q34 0 37 -33l211 -1106q3 -21 -7.5 -33t-31.5 -12h-293zM524 449q-3 -8 0.5 -13.5t10.5 -5.5h157q17 0 17 19l-41 323q-1 7 -5 9.5
t-8.5 0t-7.5 -9.5z" />
    <glyph glyph-name="ae.sc" horiz-adv-x="1703" 
d="M1749 893q-6 -39 -43 -39h-479q-17 0 -17 -16l-8 -56q0 -16 15 -16h282q36 0 33 -39l-31 -250q-6 -39 -43 -39h-282q-17 0 -17 -16l-10 -76q-3 -16 14 -16h479q36 0 33 -39l-30 -252q-6 -39 -43 -39h-834q-36 0 -33 39l10 80q3 16 -14 16h-246q-14 0 -20 -12l-53 -94
q-16 -29 -50 -29h-329q-22 0 -28.5 12.5t5.5 32.5l674 1110q19 29 47 29h1016q36 0 33 -39zM653 449q-5 -7 -1.5 -13t12.5 -6h104q15 0 18 16l29 244q1 12 -4.5 13.5t-11.5 -9.5z" />
    <glyph glyph-name="b.sc" horiz-adv-x="1046" 
d="M922 618q-16 -10 -2 -20q113 -80 92 -254q-10 -76 -41.5 -135.5t-78 -98t-109.5 -64t-130.5 -36t-146.5 -10.5h-467q-36 0 -33 39l137 1106q3 39 41 39h453q114 0 193 -16.5t135.5 -55t78 -106t9.5 -166.5q-17 -150 -131 -222zM496 854q-17 0 -17 -16l-10 -74
q0 -16 14 -16h129q28 0 47.5 15t22.5 40q3 23 -12.5 37t-44.5 14h-129zM578 330q26 0 44 15.5t21 41.5q3 22 -10.5 35.5t-38.5 13.5h-150q-16 0 -16 -16l-10 -74q-3 -16 14 -16h146z" />
    <glyph glyph-name="c.sc" horiz-adv-x="1034" 
d="M479 -14q-221 0 -338.5 136.5t-89.5 360.5l27 222q28 223 179 358t372 135q219 0 336.5 -127t91.5 -336q0 -17 -37 -20l-301 -21q-12 -1 -21 0.5t-13.5 4.5t-4.5 6l2 10q8 69 -17.5 111t-76.5 42q-52 0 -89 -42t-46 -111l-31 -248q-8 -68 19 -110t79 -42q51 0 87 42
t44 110q3 23 43 20l295 -16q35 -3 35 -10v-8q-26 -210 -176 -338.5t-369 -128.5z" />
    <glyph glyph-name="cacute.sc" horiz-adv-x="1034" 
d="M516 1303q-23 0 -29 12.5t7 34.5l110 172q17 28 47 28h283q23 0 28 -14t-10 -33l-151 -176q-21 -24 -49 -24h-236zM479 -14q-221 0 -338.5 136.5t-89.5 360.5l27 222q28 223 179 358t372 135q219 0 336.5 -127t91.5 -336q0 -17 -37 -20l-301 -21q-12 -1 -21 0.5
t-13.5 4.5t-4.5 6l2 10q8 69 -17.5 111t-76.5 42q-52 0 -89 -42t-46 -111l-31 -248q-8 -68 19 -110t79 -42q51 0 87 42t44 110q3 23 43 20l295 -16q35 -3 35 -10v-8q-26 -210 -176 -338.5t-369 -128.5z" />
    <glyph glyph-name="ccaron.sc" horiz-adv-x="1034" 
d="M473 1290q-31 0 -43 27l-90 190q-9 20 0 33.5t31 13.5h200q29 0 41 -26l35 -80q3 -8 11 -8t12 8l53 80q17 26 47 26h199q23 0 28 -13.5t-10 -33.5l-139 -190q-20 -27 -49 -27h-326zM479 -14q-221 0 -338.5 136.5t-89.5 360.5l27 222q28 223 179 358t372 135
q219 0 336.5 -127t91.5 -336q0 -17 -37 -20l-301 -21q-12 -1 -21 0.5t-13.5 4.5t-4.5 6l2 10q8 69 -17.5 111t-76.5 42q-52 0 -89 -42t-46 -111l-31 -248q-8 -68 19 -110t79 -42q51 0 87 42t44 110q3 23 43 20l295 -16q35 -3 35 -10v-8q-26 -210 -176 -338.5t-369 -128.5z
" />
    <glyph glyph-name="ccedilla.sc" horiz-adv-x="1034" 
d="M1057 727q0 -9 -37 -12l-301 -21q-12 -1 -21 0.5t-13.5 4.5t-4.5 6l2 10q8 69 -17.5 111t-76.5 42q-52 0 -89 -42t-46 -111l-31 -248q-8 -68 19 -110t79 -42q51 0 87 42t44 110q3 23 43 20l295 -16q35 -3 35 -10v-8q-23 -177 -134.5 -298.5t-281.5 -156.5
q-9 -2 -11.5 -7.5t3.5 -13.5q84 -110 37 -219q-19 -49 -54 -80.5t-73.5 -43.5t-82 -12.5t-78.5 7t-64 19.5q-25 11 -19 47l29 119q6 21 17.5 25t29.5 -3q25 -6 46 1.5t28 27.5q23 51 -74 133q-8 5 -16 8q-150 44 -223.5 170t-51.5 307l27 222q28 223 179 358t372 135
q219 0 336.5 -127t91.5 -336v-8z" />
    <glyph glyph-name="cdotaccent.sc" horiz-adv-x="1034" 
d="M635 1262q-69 0 -106 44.5t-29 116.5q9 73 57 117.5t119 44.5q69 0 105.5 -44.5t27.5 -117.5q-9 -72 -56.5 -116.5t-117.5 -44.5zM479 -14q-221 0 -338.5 136.5t-89.5 360.5l27 222q28 223 179 358t372 135q219 0 336.5 -127t91.5 -336q0 -17 -37 -20l-301 -21
q-12 -1 -21 0.5t-13.5 4.5t-4.5 6l2 10q8 69 -17.5 111t-76.5 42q-52 0 -89 -42t-46 -111l-31 -248q-8 -68 19 -110t79 -42q51 0 87 42t44 110q3 23 43 20l295 -16q35 -3 35 -10v-8q-26 -210 -176 -338.5t-369 -128.5z" />
    <glyph glyph-name="d.sc" horiz-adv-x="1050" 
d="M39 0q-36 0 -33 39l137 1106q3 39 41 39h439q219 0 342 -111t100 -289l-47 -385q-22 -178 -172 -288.5t-369 -110.5h-438zM418 346q-3 -16 14 -16h98q43 0 78 37.5t45 97.5l31 254q7 59 -18.5 97t-71.5 38h-98q-17 0 -17 -16z" />
    <glyph glyph-name="eth.sc" horiz-adv-x="1112" 
d="M684 1184q219 0 342 -111t100 -289l-47 -385q-22 -178 -171.5 -288.5t-368.5 -110.5h-439q-35 0 -32 39l53 422q0 16 -10 16h-13q-38 0 -32 39l20 174q3 18 13 28.5t24 10.5h14q16 0 19 16l49 400q3 39 41 39h438zM715 465l30 254q7 59 -18.5 97t-71.5 38h-98
q-16 0 -16 -16l-13 -93q-3 -16 15 -16h39q38 0 32 -39l-20 -174q-6 -39 -43 -39h-39q-15 0 -18 -16l-15 -115q0 -16 15 -16h98q43 0 78 37.5t45 97.5z" />
    <glyph glyph-name="dcaron.sc" horiz-adv-x="1050" 
d="M442 1284q-31 0 -43 27l-90 190q-9 20 0.5 33.5t32.5 13.5h201q30 0 39 -26l34 -80q3 -8 10.5 -8t12.5 8l55 80q17 26 47 26h199q22 0 26.5 -13.5t-10.5 -33.5l-139 -190q-20 -27 -49 -27h-326zM39 0q-36 0 -33 39l137 1106q3 39 41 39h439q219 0 342 -111t100 -289
l-47 -385q-22 -178 -172 -288.5t-369 -110.5h-438zM418 346q-3 -16 14 -16h98q43 0 78 37.5t45 97.5l31 254q7 59 -18.5 97t-71.5 38h-98q-17 0 -17 -16z" />
    <glyph glyph-name="dcroat.sc" horiz-adv-x="1112" 
d="M684 1184q219 0 342 -111t100 -289l-47 -385q-22 -178 -171.5 -288.5t-368.5 -110.5h-439q-35 0 -32 39l53 422q0 16 -10 16h-13q-38 0 -32 39l20 174q3 18 13 28.5t24 10.5h14q16 0 19 16l49 400q3 39 41 39h438zM715 465l30 254q7 59 -18.5 97t-71.5 38h-98
q-16 0 -16 -16l-13 -93q-3 -16 15 -16h39q38 0 32 -39l-20 -174q-6 -39 -43 -39h-39q-15 0 -18 -16l-15 -115q0 -16 15 -16h98q43 0 78 37.5t45 97.5z" />
    <glyph glyph-name="e.sc" horiz-adv-x="954" 
d="M997 893q-3 -39 -43 -39h-458q-17 0 -17 -16l-8 -56q0 -16 14 -16h265q38 0 32 -39l-30 -250q-3 -39 -43 -39h-265q-16 0 -16 -16l-10 -76q-3 -16 14 -16h459q36 0 33 -39l-31 -252q-6 -39 -43 -39h-811q-36 0 -33 39l137 1106q3 39 41 39h811q39 0 33 -39z" />
    <glyph glyph-name="eacute.sc" horiz-adv-x="954" 
d="M928 1561q24 0 29 -14.5t-11 -33.5l-149 -176q-21 -24 -49 -24h-238q-22 0 -28 12.5t7 34.5l111 172q17 29 47 29h281zM997 893q-3 -39 -43 -39h-458q-17 0 -17 -16l-8 -56q0 -16 14 -16h265q38 0 32 -39l-30 -250q-3 -39 -43 -39h-265q-16 0 -16 -16l-10 -76
q-3 -16 14 -16h459q36 0 33 -39l-31 -252q-6 -39 -43 -39h-811q-36 0 -33 39l137 1106q3 39 41 39h811q39 0 33 -39z" />
    <glyph glyph-name="ecaron.sc" horiz-adv-x="954" 
d="M842 1327q-20 -27 -49 -27h-326q-32 0 -41 27l-90 191q-9 20 0 33.5t31 13.5h200q29 0 41 -27l33 -80q5 -8 13 -8t12 8l53 80q18 27 47 27h199q23 0 27.5 -13.5t-9.5 -33.5zM997 893q-3 -39 -43 -39h-458q-17 0 -17 -16l-8 -56q0 -16 14 -16h265q38 0 32 -39l-30 -250
q-3 -39 -43 -39h-265q-16 0 -16 -16l-10 -76q-3 -16 14 -16h459q36 0 33 -39l-31 -252q-6 -39 -43 -39h-811q-36 0 -33 39l137 1106q3 39 41 39h811q39 0 33 -39z" />
    <glyph glyph-name="uni0229.sc" horiz-adv-x="954" 
d="M997 893q-3 -39 -43 -39h-458q-17 0 -17 -16l-8 -56q0 -16 14 -16h265q38 0 32 -39l-30 -250q-3 -39 -43 -39h-265q-16 0 -16 -16l-10 -76q-3 -16 14 -16h459q36 0 33 -39l-31 -252q-6 -39 -43 -39h-238q-20 0 -10 -20q73 -101 29 -207q-24 -61 -70.5 -95t-99 -39.5
t-99 1t-83.5 22.5q-25 11 -19 47l29 119q6 21 17.5 25t29.5 -3q25 -6 46 1.5t28 27.5q21 46 -52 113q-8 8 -20 8h-299q-36 0 -33 39l137 1106q3 39 41 39h811q39 0 33 -39z" />
    <glyph glyph-name="ecircumflex.sc" horiz-adv-x="954" 
d="M662 1419q-4 7 -11.5 7t-13.5 -7l-53 -80q-17 -26 -47 -26h-207q-22 0 -28 13.5t9 33.5l158 192q19 25 49 25h295q31 0 45 -25l111 -192q11 -20 2 -33.5t-31 -13.5h-205q-29 0 -41 26zM997 893q-3 -39 -43 -39h-458q-17 0 -17 -16l-8 -56q0 -16 14 -16h265q38 0 32 -39
l-30 -250q-3 -39 -43 -39h-265q-16 0 -16 -16l-10 -76q-3 -16 14 -16h459q36 0 33 -39l-31 -252q-6 -39 -43 -39h-811q-36 0 -33 39l137 1106q3 39 41 39h811q39 0 33 -39z" />
    <glyph glyph-name="edieresis.sc" horiz-adv-x="954" 
d="M426 1272q-75 0 -118 49.5t-34 128.5q10 79 65 128.5t132 49.5q75 0 115 -49.5t30 -128.5q-9 -80 -61.5 -129t-128.5 -49zM838 1272q-76 0 -117.5 49t-32.5 129q11 80 64 129t129 49q77 0 117.5 -49t31.5 -129q-9 -79 -62 -128.5t-130 -49.5zM997 893q-3 -39 -43 -39
h-458q-17 0 -17 -16l-8 -56q0 -16 14 -16h265q38 0 32 -39l-30 -250q-3 -39 -43 -39h-265q-16 0 -16 -16l-10 -76q-3 -16 14 -16h459q36 0 33 -39l-31 -252q-6 -39 -43 -39h-811q-36 0 -33 39l137 1106q3 39 41 39h811q39 0 33 -39z" />
    <glyph glyph-name="edotaccent.sc" horiz-adv-x="954" 
d="M631 1272q-70 0 -107 45t-28 117q9 73 57 117t117 44q70 0 106 -43.5t27 -117.5q-8 -72 -55 -117t-117 -45zM997 893q-3 -39 -43 -39h-458q-17 0 -17 -16l-8 -56q0 -16 14 -16h265q38 0 32 -39l-30 -250q-3 -39 -43 -39h-265q-16 0 -16 -16l-10 -76q-3 -16 14 -16h459
q36 0 33 -39l-31 -252q-6 -39 -43 -39h-811q-36 0 -33 39l137 1106q3 39 41 39h811q39 0 33 -39z" />
    <glyph glyph-name="egrave.sc" horiz-adv-x="954" 
d="M791 1360q7 -22 -2 -34.5t-31 -12.5h-238q-28 0 -43 24l-106 176q-11 19 -3 33.5t31 14.5h283q29 0 41 -29zM997 893q-3 -39 -43 -39h-458q-17 0 -17 -16l-8 -56q0 -16 14 -16h265q38 0 32 -39l-30 -250q-3 -39 -43 -39h-265q-16 0 -16 -16l-10 -76q-3 -16 14 -16h459
q36 0 33 -39l-31 -252q-6 -39 -43 -39h-811q-36 0 -33 39l137 1106q3 39 41 39h811q39 0 33 -39z" />
    <glyph glyph-name="emacron.sc" horiz-adv-x="954" 
d="M938 1561q39 0 33 -39l-21 -179q-6 -38 -43 -38h-542q-36 0 -33 38l22 179q3 39 41 39h543zM997 893q-3 -39 -43 -39h-458q-17 0 -17 -16l-8 -56q0 -16 14 -16h265q38 0 32 -39l-30 -250q-3 -39 -43 -39h-265q-16 0 -16 -16l-10 -76q-3 -16 14 -16h459q36 0 33 -39
l-31 -252q-6 -39 -43 -39h-811q-36 0 -33 39l137 1106q3 39 41 39h811q39 0 33 -39z" />
    <glyph glyph-name="eogonek.sc" horiz-adv-x="954" 
d="M997 893q-3 -39 -43 -39h-458q-17 0 -17 -16l-8 -56q0 -16 14 -16h265q38 0 32 -39l-30 -250q-3 -39 -43 -39h-265q-16 0 -16 -16l-10 -76q-3 -16 14 -16h459q36 0 33 -39l-31 -252q-6 -39 -43 -39h-289q-11 0 -22 -8q-95 -70 -86 -117q4 -20 23 -27.5t44 -1.5q22 7 32 3
t11 -25l-2 -119q0 -36 -31 -47q-31 -12 -68 -19.5t-79.5 -6.5t-78 13t-62.5 43.5t-35 80.5q-18 109 84 211q5 6 6 10.5t-1.5 7t-8.5 2.5h-248q-36 0 -33 39l137 1106q3 39 41 39h811q39 0 33 -39z" />
    <glyph glyph-name="f.sc" horiz-adv-x="933" 
d="M995 893q-3 -39 -43 -39h-456q-17 0 -17 -16l-8 -56q0 -16 14 -16h265q38 0 32 -39l-30 -250q-3 -39 -43 -39h-265q-16 0 -16 -16l-47 -383q-6 -39 -43 -39h-299q-36 0 -33 39l137 1106q3 39 41 39h809q39 0 33 -39z" />
    <glyph glyph-name="g.sc" horiz-adv-x="1032" 
d="M1055 733q0 -12 -39 -12h-295q-12 0 -21 1t-13 3t-3 4v8q8 59 -18 95t-78 36q-55 0 -91 -43t-46 -129l-29 -229q-7 -73 19 -112.5t79 -39.5q42 0 74 26t47 75q6 18 -14 18h-52q-35 0 -32 39l18 143q3 39 41 39h406q38 0 32 -39l-16 -139q-28 -225 -177 -358t-368 -133
q-223 0 -339.5 133t-88.5 358l29 232q28 225 177 357t372 132q215 0 334 -128t94 -327z" />
    <glyph glyph-name="gbreve.sc" horiz-adv-x="1032" 
d="M633 1245q-101 0 -168.5 63t-69.5 158q-1 20 10.5 30.5t30.5 10.5h113q31 0 37 -34q5 -29 23 -46.5t44 -17.5t49 17.5t35 46.5q15 34 45 34h115q18 0 26.5 -10.5t4.5 -28.5q-25 -96 -108 -159.5t-187 -63.5zM1055 733q0 -12 -39 -12h-295q-12 0 -21 1t-13 3t-3 4v8
q8 59 -18 95t-78 36q-55 0 -91 -43t-46 -129l-29 -229q-7 -73 19 -112.5t79 -39.5q42 0 74 26t47 75q6 18 -14 18h-52q-35 0 -32 39l18 143q3 39 41 39h406q38 0 32 -39l-16 -139q-28 -225 -177 -358t-368 -133q-223 0 -339.5 133t-88.5 358l29 232q28 225 177 357t372 132
q215 0 334 -128t94 -327z" />
    <glyph glyph-name="uni0123.sc" horiz-adv-x="1032" 
d="M1055 733q0 -12 -39 -12h-295q-12 0 -21 1t-13 3t-3 4v8q8 59 -18 95t-78 36q-55 0 -91 -43t-46 -129l-29 -229q-7 -73 19 -112.5t79 -39.5q42 0 74 26t47 75q6 18 -14 18h-52q-35 0 -32 39l18 143q3 39 41 39h406q38 0 32 -39l-16 -139q-28 -225 -177 -358t-368 -133
q-223 0 -339.5 133t-88.5 358l29 232q28 225 177 357t372 132q215 0 334 -128t94 -327zM211 -365q-22 0 -28 13t7 35l109 172q20 28 49 28h281q24 0 29 -14t-11 -33l-151 -176q-19 -25 -47 -25h-238z" />
    <glyph glyph-name="gdotaccent.sc" horiz-adv-x="1032" 
d="M635 1262q-69 0 -106 44.5t-29 116.5q9 73 57 117.5t119 44.5q69 0 105.5 -44.5t27.5 -117.5q-9 -72 -56.5 -116.5t-117.5 -44.5zM1055 733q0 -12 -39 -12h-295q-12 0 -21 1t-13 3t-3 4v8q8 59 -18 95t-78 36q-55 0 -91 -43t-46 -129l-29 -229q-7 -73 19 -112.5t79 -39.5
q42 0 74 26t47 75q6 18 -14 18h-52q-35 0 -32 39l18 143q3 39 41 39h406q38 0 32 -39l-16 -139q-28 -225 -177 -358t-368 -133q-223 0 -339.5 133t-88.5 358l29 232q28 225 177 357t372 132q215 0 334 -128t94 -327z" />
    <glyph glyph-name="h.sc" horiz-adv-x="1019" 
d="M725 1145q3 39 43 39h297q39 0 33 -39l-135 -1106q-6 -39 -43 -39h-297q-39 0 -33 39l45 381q3 16 -12 16h-179q-16 0 -16 -16l-47 -381q-6 -39 -43 -39h-299q-36 0 -33 39l137 1106q3 39 41 39h299q36 0 33 -39l-45 -363q0 -16 14 -16h177q15 0 18 16z" />
    <glyph glyph-name="hbar.sc" horiz-adv-x="1019" 
d="M1229 1112q39 0 33 -39l-21 -178q-6 -39 -43 -39h-119q-18 0 -18 -16l-98 -801q-6 -39 -43 -39h-297q-39 0 -33 39l45 381q3 16 -12 16h-179q-16 0 -16 -16l-47 -381q-6 -39 -43 -39h-299q-36 0 -33 39l98 801q3 16 -12 16h-119q-35 0 -32 39l22 178q3 39 43 39h117
q15 0 18 16l2 17q3 39 41 39h299q39 0 33 -35l-2 -21q-3 -16 14 -16h177q15 0 18 16l2 17q3 39 43 39h297q39 0 33 -35l-2 -21q0 -16 14 -16h119zM662 766q15 0 18 16l8 58q0 16 -14 16h-178q-6 0 -11.5 -4.5t-5.5 -11.5l-8 -58q0 -16 14 -16h177z" />
    <glyph glyph-name="i.sc" horiz-adv-x="456" 
d="M39 0q-36 0 -33 39l137 1106q3 39 41 39h299q36 0 33 -39l-135 -1106q-6 -39 -43 -39h-299z" />
    <glyph glyph-name="iacute.sc" horiz-adv-x="456" 
d="M225 1313q-23 0 -29 12.5t7 34.5l110 172q17 29 47 29h283q23 0 28.5 -14.5t-9.5 -33.5l-152 -176q-21 -24 -49 -24h-236zM39 0q-36 0 -33 39l137 1106q3 39 41 39h299q36 0 33 -39l-135 -1106q-6 -39 -43 -39h-299z" />
    <glyph glyph-name="icircumflex.sc" horiz-adv-x="456" 
d="M43 1313q-22 0 -27.5 13.5t11.5 33.5l155 192q19 25 49 25h297q32 0 43 -25l113 -192q10 -20 1 -33.5t-32 -13.5h-204q-30 0 -39 26l-35 80q-3 7 -11 7t-14 -7l-53 -80q-17 -26 -47 -26h-207zM39 0q-36 0 -33 39l137 1106q3 39 41 39h299q36 0 33 -39l-135 -1106
q-6 -39 -43 -39h-299z" />
    <glyph glyph-name="idieresis.sc" horiz-adv-x="456" 
d="M139 1272q-75 0 -117 49.5t-32 128.5q9 79 63 128.5t131 49.5q75 0 116 -49.5t32 -128.5q-11 -80 -64 -129t-129 -49zM551 1272q-77 0 -117.5 49.5t-30.5 128.5q9 80 62 129t131 49q76 0 117 -49t30 -129q-9 -80 -61.5 -129t-130.5 -49zM39 0q-36 0 -33 39l137 1106
q3 39 41 39h299q36 0 33 -39l-135 -1106q-6 -39 -43 -39h-299z" />
    <glyph glyph-name="i.sc.loclTRK" horiz-adv-x="456" 
d="M344 1272q-69 0 -106 45t-29 117q9 73 57 117t119 44q69 0 105.5 -44t27.5 -117t-56.5 -117.5t-117.5 -44.5zM39 0q-36 0 -33 39l137 1106q3 39 41 39h299q36 0 33 -39l-135 -1106q-6 -39 -43 -39h-299z" />
    <glyph glyph-name="igrave.sc" horiz-adv-x="456" 
d="M504 1360q8 -22 -1 -34.5t-32 -12.5h-235q-28 0 -43 24l-109 176q-11 19 -2 33.5t33 14.5h280q29 0 41 -29zM39 0q-36 0 -33 39l137 1106q3 39 41 39h299q36 0 33 -39l-135 -1106q-6 -39 -43 -39h-299z" />
    <glyph glyph-name="ij.sc" horiz-adv-x="1480" 
d="M39 0q-36 0 -33 39l137 1106q3 39 41 39h299q36 0 33 -39l-135 -1106q-6 -39 -43 -39h-299zM909 -14q-217 0 -332.5 139.5t-87.5 366.5l3 16q3 39 43 39h296q38 0 35 -27l-4 -26q-9 -80 15 -129.5t73 -49.5q51 0 89.5 50t47.5 129l80 651q6 39 43 39h295q38 0 35 -39
l-82 -653q-28 -227 -179.5 -366.5t-369.5 -139.5z" />
    <glyph glyph-name="imacron.sc" horiz-adv-x="456" 
d="M78 1305q-36 0 -33 38l23 179q6 39 43 39h542q36 0 33 -39l-22 -179q-3 -38 -43 -38h-543zM39 0q-36 0 -33 39l137 1106q3 39 41 39h299q36 0 33 -39l-135 -1106q-6 -39 -43 -39h-299z" />
    <glyph glyph-name="iogonek.sc" horiz-adv-x="468" 
d="M379 31q-3 -28 -31 -47q-138 -87 -125 -146q3 -20 21.5 -27t44.5 -1q22 7 32.5 2.5t10.5 -25.5l-2 -119q0 -35 -29 -47q-42 -16 -89.5 -22.5t-99 -1t-89.5 39.5t-48 95q-21 128 123 248q10 8 9 14t-11 6h-57q-36 0 -33 39l137 1106q3 39 41 39h299q36 0 33 -39z" />
    <glyph glyph-name="j.sc" horiz-adv-x="1024" 
d="M453 -14q-217 0 -332.5 139.5t-87.5 366.5l2 16q3 39 43 39h297q38 0 35 -27l-4 -26q-9 -80 15 -129.5t73 -49.5q51 0 89.5 50t47.5 129l80 651q3 39 43 39h295q38 0 32 -39l-80 -653q-28 -227 -179 -366.5t-369 -139.5z" />
    <glyph glyph-name="k.sc" horiz-adv-x="1093" 
d="M39 0q-36 0 -33 39l137 1106q3 39 41 39h299q36 0 33 -39l-43 -344q-2 -11 6 -13t15 7l264 362q20 27 49 27h323q23 0 28.5 -13.5t-9.5 -33.5l-369 -465q-9 -9 -6 -23l250 -602q9 -22 0.5 -34.5t-31.5 -12.5h-327q-29 0 -41 29l-133 350q-3 9 -10 9t-13 -9l-53 -86
q-6 -8 -6 -21l-29 -233q-6 -39 -43 -39h-299z" />
    <glyph glyph-name="uni0137.sc" horiz-adv-x="1093" 
d="M39 0q-36 0 -33 39l137 1106q3 39 41 39h299q36 0 33 -39l-43 -344q-2 -11 6 -13t15 7l264 362q20 27 49 27h323q23 0 28.5 -13.5t-9.5 -33.5l-369 -465q-9 -9 -6 -23l250 -602q9 -22 0.5 -34.5t-31.5 -12.5h-327q-29 0 -41 29l-133 350q-3 9 -10 9t-13 -9l-53 -86
q-6 -8 -6 -21l-29 -233q-6 -39 -43 -39h-299zM207 -350q-22 0 -28.5 12.5t5.5 34.5l111 172q20 29 47 29h283q24 0 29 -14.5t-11 -33.5l-151 -176q-18 -24 -48 -24h-237z" />
    <glyph glyph-name="l.sc" horiz-adv-x="976" 
d="M39 0q-36 0 -33 39l137 1106q3 39 41 39h299q36 0 33 -39l-98 -799q-3 -16 14 -16h488q35 0 32 -39l-30 -252q-6 -39 -43 -39h-840z" />
    <glyph glyph-name="lacute.sc" horiz-adv-x="976" 
d="M219 1288q-22 0 -27.5 12.5t7.5 34.5l110 172q17 29 47 29h281q24 0 29 -14t-11 -33l-149 -176q-22 -25 -49 -25h-238zM39 0q-36 0 -33 39l137 1106q3 39 41 39h299q36 0 33 -39l-98 -799q-3 -16 14 -16h488q35 0 32 -39l-30 -252q-6 -39 -43 -39h-840z" />
    <glyph glyph-name="lcaron.sc" horiz-adv-x="976" 
d="M176 1276q-31 0 -43 27l-88 190q-10 20 -1 33.5t32 13.5h200q29 0 41 -27l33 -79q5 -8 12 -8t13 8l53 79q18 27 47 27h199q23 0 27.5 -13.5t-9.5 -33.5l-141 -190q-20 -27 -49 -27h-326zM39 0q-36 0 -33 39l137 1106q3 39 41 39h299q36 0 33 -39l-98 -799q-3 -16 14 -16
h488q35 0 32 -39l-30 -252q-6 -39 -43 -39h-840z" />
    <glyph glyph-name="uni013C.sc" horiz-adv-x="976" 
d="M39 0q-36 0 -33 39l137 1106q3 39 41 39h299q36 0 33 -39l-98 -799q-3 -16 14 -16h488q35 0 32 -39l-30 -252q-6 -39 -43 -39h-840zM154 -350q-23 0 -29 12.5t6 34.5l111 172q17 29 47 29h282q24 0 29.5 -14.5t-10.5 -33.5l-152 -176q-21 -24 -49 -24h-235z" />
    <glyph glyph-name="lslash.sc" horiz-adv-x="1050" 
d="M418 346q-3 -16 14 -16h488q35 0 32 -39l-30 -252q-6 -39 -43 -39h-840q-36 0 -33 39l29 227q2 9 -4 14t-13 -1l-20 -17q-31 -27 -51 2l-84 117q-21 30 10 55l195 156q6 4 10 20l65 533q3 39 41 39h299q36 0 33 -39l-22 -178q-2 -11 4 -13.5t14 4.5l225 183
q16 13 30.5 13t23.5 -15l83 -117q18 -30 -10 -53l-401 -328q-10 -5 -10 -20z" />
    <glyph glyph-name="m.sc" horiz-adv-x="1214" 
d="M39 0q-36 0 -33 39l137 1106q3 39 41 39h297q31 0 43 -27l135 -313q3 -8 11 -8t14 8l211 313q18 27 49 27h295q38 0 35 -39l-137 -1106q-3 -39 -43 -39h-297q-39 0 -33 39l72 588q1 12 -6 13.5t-13 -9.5l-115 -176q-16 -27 -45 -27h-75q-29 0 -41 29l-68 174
q-4 11 -11.5 9.5t-8.5 -13.5l-72 -588q-6 -39 -43 -39h-299z" />
    <glyph glyph-name="n.sc" horiz-adv-x="1112" 
d="M39 0q-36 0 -33 39l137 1106q3 39 41 39h308q29 0 38 -29l189 -504q3 -11 11 -9.5t9 13.5l60 490q3 39 41 39h299q38 0 32 -39l-135 -1106q-6 -39 -43 -39h-305q-28 0 -41 29l-188 518q-3 11 -11.5 9.5t-9.5 -13.5l-57 -504q-6 -39 -43 -39h-299z" />
    <glyph glyph-name="nacute.sc" horiz-adv-x="1112" 
d="M528 1313q-22 0 -28 12.5t6 34.5l110 172q17 29 48 29h282q24 0 29.5 -14.5t-10.5 -33.5l-152 -176q-18 -24 -47 -24h-238zM39 0q-36 0 -33 39l137 1106q3 39 41 39h308q29 0 38 -29l189 -504q3 -11 11 -9.5t9 13.5l60 490q3 39 41 39h299q38 0 32 -39l-135 -1106
q-6 -39 -43 -39h-305q-28 0 -41 29l-188 518q-3 11 -11.5 9.5t-9.5 -13.5l-57 -504q-6 -39 -43 -39h-299z" />
    <glyph glyph-name="ncaron.sc" horiz-adv-x="1112" 
d="M485 1300q-31 0 -43 27l-90 191q-9 20 0.5 33.5t32.5 13.5h201q29 0 41 -27l32 -80q3 -8 11 -8t14 8l53 80q18 27 47 27h199q22 0 27 -13.5t-9 -33.5l-141 -191q-20 -27 -49 -27h-326zM39 0q-36 0 -33 39l137 1106q3 39 41 39h308q29 0 38 -29l189 -504q3 -11 11 -9.5
t9 13.5l60 490q3 39 41 39h299q38 0 32 -39l-135 -1106q-6 -39 -43 -39h-305q-28 0 -41 29l-188 518q-3 11 -11.5 9.5t-9.5 -13.5l-57 -504q-6 -39 -43 -39h-299z" />
    <glyph glyph-name="uni0146.sc" horiz-adv-x="1112" 
d="M39 0q-36 0 -33 39l137 1106q3 39 41 39h308q29 0 38 -29l189 -504q3 -11 11 -9.5t9 13.5l60 490q3 39 41 39h299q38 0 32 -39l-135 -1106q-6 -39 -43 -39h-305q-28 0 -41 29l-188 518q-3 11 -11.5 9.5t-9.5 -13.5l-57 -504q-6 -39 -43 -39h-299zM246 -350
q-23 0 -29.5 12.5t6.5 34.5l111 172q17 29 47 29h283q23 0 28 -14.5t-12 -33.5l-150 -176q-21 -24 -49 -24h-235z" />
    <glyph glyph-name="eng.sc" horiz-adv-x="1112" 
d="M1139 1184q38 0 32 -39l-135 -1106l-8 -39h-2q-14 -93 -40 -156t-68 -107.5t-109 -67.5t-154.5 -32t-214.5 -6q-38 3 -32 41l28 242q6 40 47 37q78 -6 115 4t51 47q6 9 2 21l-192 524q-3 11 -11.5 9.5t-9.5 -13.5l-57 -504q-6 -39 -43 -39h-299q-36 0 -33 39l137 1106
q3 39 41 39h308q29 0 38 -29l187 -496q3 -11 11 -9t9 14l19 155l8 39l35 287q3 39 41 39h299z" />
    </font>
</defs>
</svg>
